
//----- song ID: mutk -----//
#TITLE:MUTEKI BUFFALO;
#ARTIST:C-Show;
#BANNER:MUTEKKI BUFFALO.png;
#BACKGROUND:MUTEKKI BUFFALO-bg.png;
#CDTITLE:./CDTitles/DDR A20 PLUS.png;
#MUSIC:MUTEKI BUFFALO.ogg;
#SAMPLESTART:88.631;
#SAMPLELENGTH:15;
#BPMS:0=176,132=88,196=176;
#STAGE:29;
#NOTES:
     dance-single:
     :
     Beginner:
     4:
     :
0000
0000
0000
0000
,
0000
0000
0000
0000
,
0000
0000
0000
0000
,
0000
0000
0000
0000
,
0000
0000
0000
0000
,
1001
0000
0000
0000
,
0000
0000
0000
0000
,
1001
0000
0000
0000
,
0000
0000
0000
0000
,
1000
0000
0010
0000
,
1000
0000
0100
0000
,
0010
0000
0001
0000
,
0100
0000
0001
0000
,
0001
0001
0001
0000
,
0010
0000
0100
0000
,
1000
1000
1000
0000
,
0100
0000
0010
0000
,
1001
0000
0000
0000
,
1001
0000
0000
0000
,
1001
0000
0000
0000
,
0100
0100
0100
0000
,
1000
0000
0010
0000
,
1000
0000
0010
0000
,
0001
0000
0010
0000
,
0001
0000
0000
0000
,
1001
0000
0000
0000
,
1001
0000
0000
0000
,
1001
0000
0000
0000
,
0100
0100
0100
0000
,
0001
0000
0100
0000
,
0001
0000
0100
0000
,
1000
0000
0100
0000
,
1000
0000
0000
0000
,
1001
0000
1001
0000
,
0010
0010
0100
0100
,
0001
0010
0100
1000
,
0002
0000
0003
0000
,
1001
0100
0010
0100
,
0001
0001
1000
1000
,
1001
0000
0110
0000
,
1000
0100
0010
0001
,
1001
0000
0000
0000
0001
0001
0001
0000
,
1001
0000
0000
0000
1000
1000
1000
0000
,
0010
1000
0100
0010
,
0001
0100
0010
1000
,
0200
0000
0300
0000
,
0020
0000
0030
0000
,
0001
0001
0001
0000
1000
1000
1000
0000
,
2002
0000
3003
0000
,
0001
0000
0100
0000
,
0010
0000
0100
0000
,
0001
0000
0010
0000
,
1000
1000
1000
0000
,
1000
0000
0100
0000
,
0010
0000
0100
0000
,
1000
0000
0010
0000
,
0001
0001
0001
0000
,
2002
0000
0000
0000
,
3003
0000
0000
0000
,
0001
0100
0001
0000
,
0010
0000
0100
0000
,
1000
0100
1000
0000
,
0010
0000
0100
0000
,
0001
0001
0001
0000
,
1000
1000
1000
0000
,
1001
0000
0000
0000
,
0000
0000
0000
0000
;
#NOTES:
     dance-single:
     :
     Easy:
     8:
     :
0000
0000
0000
0000
,
0000
0000
0000
0000
,
0000
0000
0000
0000
,
0000
0000
0000
0000
,
0000
0000
0000
0000
,
1001
0000
0000
0000
,
0000
0000
0000
0000
,
1001
0000
0000
0000
,
0000
0000
0000
0000
,
1000
0100
1000
0000
,
0001
0010
0001
0000
,
1000
0010
1000
0000
,
0001
0100
0001
0000
,
1000
0100
1000
0100
,
0010
0001
0100
0001
,
1000
0001
1000
0001
,
2002
0000
0000
3003
,
1001
0000
0010
0000
0000
0010
0000
0000
,
1010
0000
0100
0000
0000
0100
0000
0000
,
0101
0000
0010
0000
0000
0010
0000
0000
,
0001
0001
0001
0000
,
1000
0100
0001
0100
,
1000
0000
0100
0000
1000
0001
1000
0000
,
0001
0100
1000
0100
,
0001
0000
0100
0000
0001
1000
0001
0000
,
1001
0000
0100
0000
0000
0100
0000
0000
,
0101
0010
0010
0000
,
1010
0000
0100
0000
0000
0100
0000
0000
,
1000
1000
1000
0000
,
0001
0010
1000
0010
,
0001
0000
0010
0000
0001
1000
0001
0000
,
1000
0010
0001
0010
,
1000
0000
0010
0000
1000
0001
1000
0000
,
0001
0001
0100
0100
,
0010
0000
0010
0000
1000
1000
1000
0000
,
0100
0010
0100
0010
0001
0010
0001
0000
,
0100
0010
0100
0010
1000
0010
1000
0000
,
1001
0000
0010
0100
0001
1000
0001
0000
,
1000
0100
0010
0000
0001
0100
0010
0000
,
0100
0100
0110
0000
0010
0010
0110
0000
,
1000
0001
1000
0100
1000
1000
0010
0100
,
0110
0000
1000
0000
0100
0010
0001
0000
,
0110
0000
0001
0000
0100
0010
1000
0000
,
0010
1000
0100
0000
0010
0001
0100
0000
,
0001
0010
0100
1000
0010
0100
0001
0000
,
2002
0000
3003
0000
,
0220
0000
0330
0000
,
0001
1000
0100
0010
0001
1000
0010
0100
,
0001
0010
0100
1000
0100
0010
0001
0000
,
1001
0000
1000
0000
0100
0000
0010
0001
,
0100
0001
0010
0000
0001
0000
0000
0000
,
1001
0000
0001
0000
0010
0000
0100
1000
,
0010
1000
0100
0000
1000
0000
0000
0000
,
0010
0000
0100
0000
0001
0000
1000
0100
,
0001
0100
1000
0000
0001
0000
0000
0000
,
0100
0000
0010
0000
1000
0000
0001
0100
,
1000
0100
0001
0000
1000
0000
0000
0000
,
2002
0000
0000
3003
,
0000
0010
0100
0000
0010
0000
1001
0000
,
0100
0000
0001
0000
0011
0000
0100
1000
,
0100
0000
1000
0010
0000
1000
0010
0000
,
0100
0000
0010
0000
1010
0000
0001
0010
,
0001
0100
0100
0100
,
0110
0000
1000
0010
0100
0000
0001
0010
,
0100
0000
1000
0001
0000
1000
0001
0000
,
1001
0000
0000
0000
,
0000
0000
0000
0000
;
#NOTES:
     dance-single:
     :
     Medium:
     11:
     :
0000
0000
0000
0000
,
0000
0000
0000
0000
,
0000
0000
0000
0000
,
0000
0000
0000
0000
,
0000
0000
0000
0000
,
1001
0000
0000
0000
,
0000
0000
0000
0000
,
1001
0000
0000
0000
,
0000
0000
0000
0000
,
0001
1000
0001
0001
,
1000
0001
1000
1000
,
0010
1000
0100
0100
,
0010
0001
0100
0100
,
0001
1000
0100
0000
0010
0000
0010
0000
,
0001
1000
0010
0000
0100
0000
0100
0000
,
1001
0000
0001
0100
0010
1000
0001
0100
,
0010
0010
0010
0000
0020
0000
0030
0000
,
1001
0000
1000
0010
0000
1000
0000
0010
,
0100
0000
0001
0100
0000
0001
0000
0100
,
0010
0000
1000
0001
0000
1000
0000
0001
,
0010
0100
0010
0100
0020
0000
0030
0000
,
1001
0000
0010
0001
1000
0100
0010
0001
,
1000
0100
0010
0100
0000
0100
1000
0000
,
1001
0000
0010
1000
0001
0100
0010
1000
,
0001
0100
0010
0100
0000
0100
0001
0000
,
1001
0000
0001
0100
0000
0001
0000
0100
,
0010
0000
1000
0010
1000
0000
0110
0000
,
1001
0000
0001
1000
0000
0001
0000
1000
,
0100
0010
0100
0010
0200
0000
0300
0000
,
1001
0000
0100
1000
0001
0010
0100
1000
,
0001
0010
0100
0010
0000
0010
0001
0000
,
1001
0000
0100
0001
1000
0010
0100
0001
,
1000
0010
0100
0010
0000
0010
1000
0000
,
1001
0000
0001
0010
0000
0001
0000
0010
0001
0000
1000
0010
0000
1000
0000
0010
,
1000
0000
0001
1000
0001
1000
0001
0000
0100
0010
1000
0000
0100
0000
0010
0000
,
0110
0000
0010
0001
0000
1000
0010
0100
0001
0000
0010
0100
0000
1000
0100
0000
,
2020
3030
0022
0033
,
1001
0000
0000
0001
0010
0100
1000
0000
0010
0000
0100
0010
0100
0000
0110
0000
,
1000
0100
1000
0000
0001
0000
0100
0000
0001
0010
0001
0000
1000
0000
0010
0000
,
1000
0100
0000
1000
0100
0000
0010
0000
0001
0100
0000
0001
0100
0000
0010
0000
,
0110
0000
1000
0000
1000
0000
0000
1000
0001
1000
0000
1000
0001
0000
0001
0000
,
1001
0000
0010
0000
0100
0000
0001
0000
1000
0000
0100
0000
0010
0001
0100
0000
,
1001
0000
0010
0000
0100
0000
1000
0000
0001
0000
0100
0000
0010
1000
0100
0000
,
1000
0000
0010
0000
0100
0001
1000
0000
0100
0000
0010
0000
0001
0100
0010
0000
,
1001
0000
0010
1000
0001
0100
0010
1000
0001
0001
0001
0000
0002
0000
0003
0000
,
1001
0000
0110
0000
,
1001
0000
0110
0000
,
0001
0010
0001
1000
0010
1000
0100
0010
,
0001
0010
0100
0000
1000
0010
0100
0000
0001
1000
0010
0100
0010
0000
0100
0000
,
1001
0000
0011
0000
1100
0000
0001
0100
,
1000
0100
0001
0100
1000
0100
0001
0000
,
1001
0000
1010
0000
0101
0000
0001
0010
,
0100
1000
0100
1000
0000
1000
0001
0000
,
1001
0000
1010
0000
0101
0000
1000
0100
,
0001
0100
1000
0100
0001
0100
1000
0000
,
1001
0000
0011
0000
1100
0000
1000
0010
,
0100
0001
0100
0001
0000
0001
1000
0000
,
0220
0000
0000
0030
,
0000
0010
0010
0000
0310
0000
1001
0000
,
1000
0100
0010
0001
1000
0100
0010
0001
,
0100
0010
1000
0010
0100
0001
0010
0000
,
0001
0010
0100
1000
0001
0010
0100
1000
,
0010
0100
0001
0100
0010
1000
0001
0000
,
1001
0000
0010
0100
0001
0010
0100
1000
,
0001
0001
0001
0001
0000
0001
1000
0000
,
1001
0000
0000
0000
,
0000
0000
0000
0000
;
#NOTES:
     dance-single:
     :
     Hard:
     15:
     :
0000
0000
0000
0000
,
0000
0000
0000
0000
,
0000
0000
0000
0000
,
0000
0000
0000
0000
,
0000
0000
0000
0000
,
0110
0000
0000
0000
,
0000
0000
0000
0000
,
0110
0000
0000
0000
,
0000
0000
0000
0000
,
1000
0001
1000
0001
,
1000
0000
0010
0000
1000
0000
0010
0100
,
0001
0100
0001
0100
,
0001
0000
1000
0000
0001
0000
1000
0001
,
1000
0100
1000
0000
0001
0100
0001
0000
,
0001
0010
0001
0000
1000
0010
1000
0000
,
1001
0000
0000
0000
0001
0100
0001
0100
0010
1000
0010
1000
0100
1000
0100
1000
,
0100
0100
0100
0100
0100
0100
0100
0000
,
1001
0000
0000
0000
0010
0001
1000
0000
0000
0000
0011
0000
0000
0000
1000
0001
,
0100
0000
0000
0000
0010
1000
0001
0000
0000
0000
1100
0000
0000
0000
0100
1000
,
0001
0000
0000
0000
0100
0001
0010
0000
0000
0000
0110
0000
0000
0000
0010
0100
,
0001
0010
0100
0000
1000
0001
0100
0000
0020
0000
0000
0000
1030
0000
0000
0000
,
0110
0000
0010
1000
0100
1000
0010
1000
,
0100
0001
0100
0001
0000
0001
0100
0000
,
0110
0000
0010
0001
0100
0001
0010
0001
,
0100
1000
0100
1000
0000
1000
0100
0000
,
1001
0000
0000
0000
0100
0001
1000
0000
0000
0000
0101
0000
0000
0000
1000
0001
,
0010
0000
0000
0000
0100
1000
0010
0000
0100
0000
0110
0000
0110
0000
0000
0000
,
1001
0000
0000
0000
0010
0001
0100
0000
0000
0000
0110
0000
0000
0000
0100
0010
,
0001
0100
0010
0000
1000
0001
0010
0000
0200
0000
0000
0000
1300
0000
0000
0000
,
0110
0000
0100
1000
0010
1000
0100
1000
,
0010
0001
0010
0001
0000
0001
0010
0000
,
0110
0000
0100
0001
0010
0001
0100
0001
,
0010
1000
0010
1000
0000
1000
0010
0000
,
1001
0000
0010
0100
0100
0010
0000
0010
0110
0000
1000
0001
0001
1000
0000
1000
,
1001
0000
0001
0100
0001
0100
0001
0010
0100
1000
0010
0100
0010
1000
0001
0001
,
1001
0000
0010
1000
0100
0010
0010
0010
0110
0000
0011
0001
0000
0011
0000
1000
,
1100
0000
0000
0000
1010
0000
0000
0110
0000
0000
0101
0000
0000
0011
0000
0000
1001
0000
0000
0000
0011
0000
0000
0110
0000
0000
1100
0000
0000
1010
0000
0000
,
1001
0000
0000
0010
0100
0010
1000
0010
0100
0001
0010
1000
0010
0000
1001
0000
,
0100
0001
0010
0100
1000
0000
0001
0100
0010
1000
0010
0000
0100
0001
0100
0000
,
0000
0001
0000
1000
0110
0000
1001
0000
0000
1000
0000
0001
0110
0000
1001
0001
,
0010
0001
0100
0010
1000
0100
0010
0001
0100
0010
1000
0100
1000
0010
0100
0000
,
0000
1000
0100
1000
0001
0010
0100
1000
0010
0000
0010
0100
0001
1000
0001
1000
,
0100
0001
0000
1000
0010
0000
1001
0000
0010
1000
0100
1000
0010
1000
0100
1000
,
0010
0100
0010
0100
0001
0010
0001
0010
0100
1000
0100
1000
0010
1000
0010
1000
,
1001
0000
0000
0000
1000
0100
1000
0100
0010
0001
0010
0001
1000
0010
1000
0010
1000
0000
1000
0000
1000
0000
1000
0000
1000
0000
1000
0000
1000
0000
1000
0000
,
1001
0000
0010
0000
0000
0010
0000
0000
0010
0000
0000
0010
0000
0000
0010
0000
,
1001
0100
0000
0000
0100
0000
0000
0100
0000
0000
0100
0000
0000
0100
0000
0000
,
0010
0001
1000
0010
0100
0001
1000
0100
,
0010
0000
0001
0100
0010
0000
1000
0100
0010
0000
0001
0100
0010
0000
1000
0100
0010
0001
0010
0001
0010
0100
1000
0100
1000
0000
0000
0000
0110
0000
0000
0000
,
1001
0000
0000
0000
0011
0000
0000
0000
1100
0000
0000
0000
0110
0000
0010
0001
,
0100
0000
0010
1000
0100
0000
0010
0001
0100
0000
0010
1000
0100
0000
0000
0000
,
1001
0000
0000
0000
1010
0000
0000
0000
0101
0000
0000
0000
0110
0000
0100
0001
,
0010
0000
0100
1000
0010
0000
0100
0001
0010
0000
0100
1000
0010
0000
0000
0000
,
1010
0000
0000
0000
1100
0000
0000
0000
0011
0000
0000
0000
0101
0000
0010
1000
,
0001
0000
0010
0100
0001
0000
0100
1000
0001
0000
0100
0010
1000
0000
0000
0000
,
1100
0000
0000
0000
1010
0000
0000
0000
0101
0000
0000
0000
0011
0000
0100
1000
,
0001
0000
0100
0010
0001
0000
0010
1000
0001
0000
0010
0100
1000
0000
0000
0000
,
2002
0000
0000
0000
,
0003
0010
0010
0000
0010
3010
1001
0000
,
0110
0000
0000
0000
0101
0000
0000
0000
1010
0000
0000
0000
0011
0000
1000
0100
,
0001
0000
0100
1000
0010
0000
0100
1000
0100
0000
0001
1000
0010
0000
0000
0000
,
0110
0000
0000
0000
0011
0000
0000
0000
1100
0000
0000
0000
0101
0000
1000
0010
,
0001
0000
0010
1000
0100
0000
0010
1000
0010
0000
0001
1000
0100
0000
0000
0000
,
1001
0000
0000
0000
1000
0010
1000
0010
0100
0001
0100
0001
0010
0001
0010
0001
,
0010
0010
0010
0010
0010
0010
0010
0000
,
1001
0000
0000
0000
,
0000
0000
0000
0000
;
#NOTES:
     dance-single:
     :
     Challenge:
     17:
     :
0000
0000
0000
0000
,
0000
0000
0000
0000
,
0000
0000
0000
0000
,
0000
0000
0000
0000
,
0000
0000
0000
0000
,
2001
0000
0001
0001
0001
0000
0001
0000
,
0001
0001
0001
0001
0001
0001
3001
0001
,
1002
0000
1000
1000
1000
0000
1000
0000
,
1000
1000
1000
1000
1000
1000
1003
1000
,
1001
0000
0001
0100
1000
0000
0210
0000
,
0010
0010
0010
0010
0010
0010
0310
0100
,
0001
0000
1000
0010
0001
0000
0020
0000
,
0100
0100
0100
0100
0100
0100
0130
0010
,
1000
1000
0001
0001
0100
0100
0010
0010
,
2001
0001
0001
0001
0001
0001
0001
3001
,
1000
0010
1000
0010
0100
0001
0100
0001
0010
0001
0010
0001
1000
0100
1000
0100
,
0020
0100
0100
0100
0100
0130
1100
0000
,
1001
0000
0011
0001
0010
0110
1000
0001
,
1001
0000
1010
1000
0010
0110
0001
1000
,
1001
0000
0101
0100
0010
0110
1000
0001
,
1001
0000
0010
1000
0200
0000
0300
0000
,
1001
0000
1100
0001
1100
0001
1100
0001
,
1010
0001
1010
0001
0000
0001
1100
0000
,
1001
0000
0011
1000
0011
1000
0011
1000
,
0101
1000
0101
2000
0000
0000
3000
0000
,
0110
0000
1010
0010
1000
1100
0010
0001
,
0011
0000
0001
0010
2000
0000
3010
0000
,
0110
0000
0011
0010
0100
1100
0010
0100
,
0101
0000
0001
0100
0020
0000
0130
0000
,
1001
0000
0011
1000
0011
1000
0011
1000
,
0101
1000
0101
1000
0000
0010
0100
0000
,
1001
0000
1100
0001
1100
0001
1100
0001
,
1010
0001
1010
0001
0000
0001
0110
0000
,
1001
0000
1010
0100
0001
1010
0100
0001
1001
0000
0101
0010
1000
0101
0010
1000
,
1001
0000
1000
1000
1000
1000
1000
0010
0001
0100
0001
0010
1000
0001
0100
0100
,
0110
0000
0001
0001
1000
1010
0101
1010
0100
0001
0011
1000
0010
0110
0100
0000
,
0110
0000
0000
0000
0000
0000
1000
0000
0000
0000
0000
0100
0000
0000
0000
0001
0000
0000
0000
0000
0010
0000
0000
0000
0110
0000
0000
0000
0000
0000
0010
0000
0000
0000
0000
0001
0000
0000
0000
0100
0000
0000
0000
0000
1000
0000
0000
0000
,
0110
0000
0000
1100
0010
0001
1000
0100
0001
0100
1000
0010
0001
0010
0100
0000
,
0001
0100
1000
0100
0010
0010
0010
0010
1000
0010
0001
1000
0100
0000
1010
0000
,
0001
0100
0010
1000
0001
0011
0110
0011
0001
0100
0010
1000
1010
0000
0101
0000
,
0210
0000
1000
0000
0001
0000
0000
1000
0000
0001
0000
0010
0010
0000
0310
0000
,
0110
0010
1000
0001
0100
1000
0001
1000
0100
0001
0010
1000
0001
1000
0010
0001
,
0011
0100
0000
1000
0010
0001
0011
0000
1000
0100
0001
0010
0100
1000
0001
1000
,
1001
0000
1010
0010
0110
0010
1010
0010
0110
0100
0101
0100
0110
0100
0101
0100
,
1001
0000
0000
0000
0001
0100
0010
1000
0100
0010
0001
0100
0010
1000
0001
0100
0010
0000
0100
0000
0100
0000
0100
0000
0100
0000
0100
0000
0100
0000
0100
0000
,
0120
0000
1000
0000
0000
0001
0000
0000
1000
0000
0000
0001
0000
0000
0130
0000
,
0210
1000
0000
0000
0001
0000
0000
1000
0000
0000
0001
0000
0000
1300
0000
0000
,
0110
1010
0011
0101
1010
0110
1001
0011
,
1010
0000
0100
0001
0010
0000
0100
1000
0010
0000
0100
0001
0010
0000
0100
1000
0010
0000
0010
0000
0010
0000
0010
0000
0010
0000
0010
0000
0110
0000
0000
0000
,
1001
0000
1010
0100
0110
0000
1010
0011
,
1010
0011
1010
0011
1010
0011
0110
0000
,
1001
0000
0011
0010
0110
0000
1100
0101
,
1100
0101
1100
0101
1100
0101
0110
0000
,
1001
0000
0011
0100
1100
0000
1010
1100
,
1010
1100
1010
1100
1010
1100
1001
0000
,
0110
0000
1100
0010
0011
0000
0101
0011
,
0101
0011
0101
0011
0101
0011
1001
0000
,
2002
0000
0000
3003
,
0000
1100
1001
0000
0011
1001
1100
0000
,
0110
0000
1000
0100
0001
0100
0010
0011
,
1100
1010
0101
0011
0101
1010
1100
0000
,
0100
1000
0010
0001
0010
0100
0110
0000
,
1010
0101
0011
0110
1100
0110
1001
0000
,
0110
0000
0000
0000
1000
0100
0010
0001
0100
0010
1000
0001
0100
0010
1000
0002
,
1000
1000
1000
1000
1000
1000
1003
0000
,
0110
0000
0000
0000
,
0000
0000
0000
0000
;
#NOTES:
     dance-double:
     :
     Easy:
     8:
     :
00000000
00000000
00000000
00000000
,
00000000
00000000
00000000
00000000
,
00000000
00000000
00000000
00000000
,
00000000
00000000
00000000
00000000
,
00000000
00000000
00000000
00000000
,
00011000
00000000
00000000
00000000
,
00000000
00000000
00000000
00000000
,
00011000
00000000
00000000
00000000
,
00000000
00000000
00000000
00000000
,
00000100
00000010
00000100
00000000
,
00000010
00000100
00000010
00000000
,
00001000
00010000
00001000
00000000
,
00010000
00001000
00010000
00000000
,
00100000
01000000
00100000
01000000
,
00100000
10000000
00100000
10000000
,
01000000
00100000
00010000
00100000
,
00002000
00000000
00000000
00003000
,
00011000
00000000
00000010
00000000
00000000
00000010
00000000
00000000
,
00011000
00000000
00000100
00000000
00000000
00000100
00000000
00000000
,
00011000
00000000
00000010
00000000
00000000
00000010
00000000
00000000
,
00000100
00000100
00000100
00000000
,
00000001
00000010
00001000
00000010
,
00000001
00000000
00000010
00000000
00001000
00010000
00001000
00000000
,
00010000
00100000
10000000
00100000
,
00010000
00000000
00001000
00000000
00010000
00001000
00010000
00000000
,
00011000
00000000
00100000
00000000
00000000
00100000
00000000
00000000
,
01000000
01000000
01000000
00000000
,
00011000
00000000
01000000
00000000
00000000
01000000
00000000
00000000
,
00100000
00100000
00100000
00000000
,
10000000
00100000
00010000
00100000
,
10000000
00000000
00100000
00000000
00010000
00001000
00010000
00000000
,
00001000
00000010
00000001
00000010
,
00001000
00000000
00010000
00000000
00001000
00010000
00001000
00000000
,
00011000
00000000
01100000
00000000
,
00011000
00000000
00000110
00000000
,
00000001
00000100
00000001
00000100
00001000
00000100
00001000
00000000
,
00010000
01000000
00010000
01000000
10000000
01000000
10000000
00000000
,
10010000
00000000
10000000
00100000
01000000
00001000
00010000
00000000
,
00000100
00000010
00000001
00000000
00000100
00000010
00001000
00000000
,
00000010
00000010
00000010
00000000
00000100
00000100
00000100
00000000
,
00001000
00010000
00001000
00010000
00001000
00001000
00010000
00010000
,
00011000
00000000
01000000
00000000
00010000
00100000
01000000
00000000
,
01100000
00000000
10000000
00000000
01000000
00100000
00010000
00000000
,
00001000
00000100
00000010
00000000
00000001
00000100
00000010
00000000
,
00000100
00001000
00010000
00100000
00010000
00001000
00010000
00000000
,
00022000
00000000
00033000
00000000
,
00022000
00000000
00033000
00000000
,
00010000
01000000
00010000
00000000
00001000
00000100
00001000
00000000
,
00010000
00100000
00010000
00000000
00001000
00000010
00001000
00000000
,
00011000
00000000
01000000
00000000
00100000
00000000
10000000
01000000
,
00100000
01000000
10000000
00000000
00010000
00000000
00000000
00000000
,
01100000
00000000
00010000
00000000
01000000
00000000
00001000
00010000
,
00000100
00010000
00001000
00000000
00000010
00000000
00000000
00000000
,
00000110
00000000
00001000
00000000
00000100
00000000
00000010
00000001
,
00000100
00000001
00000010
00000000
00000100
00000000
00000000
00000000
,
00000110
00000000
00001000
00000000
00000100
00000000
00010000
00001000
,
01000000
00001000
00010000
00000000
00001000
00000000
00000000
00000000
,
00022000
00000000
00000000
00033000
,
00000000
00001000
00010000
00000000
00001000
00000000
00011000
00000000
,
00000100
00000000
00001000
00000000
00000110
00000000
00000001
00000100
,
00000001
00000000
00000100
00001000
00000000
00010000
00001000
00000000
,
01000000
00000000
00010000
00000000
01100000
00000000
10000000
01000000
,
10000000
01000000
01000000
01000000
,
01100000
00000000
00010000
00001000
00010000
00000000
00001000
00010000
,
00001000
00001000
00001000
00001000
,
00011000
00000000
00000000
00000000
,
00000000
00000000
00000000
00000000
;
#NOTES:
     dance-double:
     :
     Medium:
     11:
     :
00000000
00000000
00000000
00000000
,
00000000
00000000
00000000
00000000
,
00000000
00000000
00000000
00000000
,
00000000
00000000
00000000
00000000
,
00000000
00000000
00000000
00000000
,
00011000
00000000
00000000
00000000
,
00000000
00000000
00000000
00000000
,
00011000
00000000
00000000
00000000
,
00000000
00000000
00000000
00000000
,
10000000
00010000
10000000
10000000
,
00010000
00001000
00010000
00010000
,
00001000
00000001
00001000
00001000
,
00010000
00001000
00010000
00010000
,
00100000
10000000
00010000
00000000
01000000
00000000
01000000
00000000
,
00100000
00010000
00001000
00000000
00010000
00000000
00010000
00000000
,
00011000
00000000
00001000
00010000
00000010
00001000
00000001
00000100
,
00000010
00000010
00000010
00000000
00000020
00000000
00000030
00000000
,
00001001
00000000
00000010
00000100
00000000
00000010
00000000
00000100
,
00000010
00000000
00010000
00001000
00000000
00010000
00000000
00001000
,
00010000
00000000
00100000
01000000
00000000
00100000
00000000
01000000
,
00100000
10000000
00010000
10000000
00020000
00000000
00030000
00000000
,
10010000
00000000
10000000
01000000
00100000
00010000
00100000
00001000
,
00010000
00001000
00010000
00000100
00000000
00000100
00000010
00000000
,
00001001
00000000
00000001
00000100
00000010
00001000
00000010
00010000
,
00001000
00010000
00001000
01000000
00000000
01000000
00100000
00000000
,
10010000
00000000
00100000
01000000
00000000
00100000
00000000
01000000
,
00100000
00000000
00001000
00010000
00001000
00000000
00011000
00000000
,
00001000
00000000
00000010
00000100
00000000
00000010
00000000
00000100
,
00000010
00000001
00001000
00000001
00002000
00000000
00003000
00000000
,
00001001
00000000
00000001
00000010
00000100
00001000
00000100
00010000
,
00001000
00010000
00001000
00100000
00000000
00100000
01000000
00000000
,
10010000
00000000
10000000
00100000
01000000
00010000
01000000
00001000
,
00010000
00001000
00010000
00000010
00000000
00000010
00000100
00000000
,
00000110
00000000
00000001
00000100
00000000
00000001
00000000
00000100
00000010
00000000
00001000
00000100
00000000
00001000
00000000
00000100
,
00010000
00000000
00001000
00010000
00001000
00010000
00001000
00000000
00100000
00010000
00100000
00000000
01000000
10000000
01000000
00000000
,
01100000
00000000
10000000
01000000
00000000
00100000
00010000
00100000
00000000
00001000
00010000
00001000
00000000
01000000
00010000
01000000
,
00200000
00300000
00020000
00030000
,
00011000
00000000
00000000
00000010
00001000
00000100
00001000
00000000
00000001
00000000
00000100
00001000
00000100
00000000
00001000
00000000
,
00010000
00100000
00010000
00000000
00100000
00000000
10000000
00000000
01000000
00100000
01000000
00000000
10000000
00000000
00010000
00000000
,
00100000
01000000
00000000
00100000
01000000
00000000
00010000
00000000
00001000
00010000
00000000
00001000
00010000
00000000
00001000
00000000
,
00011000
00000000
00000100
00000000
00000100
00000000
00000000
00000100
00000010
00000100
00000000
00000100
00000010
00000000
00000010
00000000
,
00001001
00000000
00000100
00000000
00001000
00010000
00001000
00000000
,
00011000
00000000
01000000
00000000
00100000
10000000
00010000
00000000
,
10000000
01000000
00100000
00010000
00001000
00000100
00000010
00000001
,
00001001
00000000
00000001
00000010
00000100
00000000
00001000
00000100
00010000
00010000
00010000
00000000
00020000
00000000
00030000
00000000
,
00011000
00000000
01010000
00000000
,
00011000
00000000
00001100
00000000
,
00011000
00010000
00100000
00000000
00011000
00001000
00000010
00000000
,
00001000
00010000
01000000
00000000
00010000
00001000
00000100
00000000
00001000
00010000
00001000
00010000
00001000
00000000
00000000
00000000
,
00011000
00000000
00110000
00000000
10100000
00000000
00010000
01000000
,
10000000
01000000
00010000
01000000
10000000
01000000
00010000
00000000
,
01010000
00000000
00011000
00000000
00001100
00000000
00001000
00000100
,
00000010
00000001
00000010
00000001
00000000
00000001
00001000
00000000
,
00001001
00000000
00000101
00000000
00000011
00000000
00000001
00000100
,
00001000
00000100
00000001
00000100
00001000
00000100
00000001
00000000
,
00000011
00000000
00001010
00000000
00011000
00000000
00100000
00001000
,
00010000
00001000
00010000
00001000
00000000
00001000
01000000
00000000
,
02200000
00000000
00000000
00300000
,
00000000
00100000
00100000
00000000
03100000
00000000
10010000
00000000
,
00010000
10000000
00100000
01000000
00010000
10000000
01000000
00100000
,
01000000
00010000
00001000
00010000
00000100
00001000
00000010
00000000
,
00000100
00000001
00000100
00000010
00001000
00000001
00000010
00000100
,
00010000
00001000
00010000
00001000
01000000
00010000
01000000
00000000
,
10010000
00000000
10000000
00100000
01000000
00010000
00100000
00001000
,
00010000
00010000
00010000
00010000
00000000
00010000
00001000
00000000
,
00011000
00000000
00000000
00000000
,
00000000
00000000
00000000
00000000
;
#NOTES:
     dance-double:
     :
     Hard:
     15:
     :
00000000
00000000
00000000
00000000
,
00000000
00000000
00000000
00000000
,
00000000
00000000
00000000
00000000
,
00000000
00000000
00000000
00000000
,
00000000
00000000
00000000
00000000
,
00011000
00000000
00000000
00000000
,
00000000
00000000
00000000
00000000
,
00011000
00000000
00000000
00000000
,
00000000
00000000
00000000
00000000
,
00001000
00010000
00000100
00010000
,
00001000
00000000
00010000
00000000
00001000
00000000
01000000
00010000
,
00100000
00001000
00010000
00001000
,
00010000
00000000
00000010
00000000
00010000
00000000
00001000
00100000
,
00010000
01000000
00010000
00000000
00100000
00010000
00100000
00000000
,
01000000
10000000
01000000
00000000
10000000
00100000
10000000
00000000
,
10010000
00000000
00000000
00000000
10000000
01000000
00100000
00010000
01000000
00000000
00100000
00010000
00001000
00000000
00000100
00000000
,
00000010
00000010
00000010
00000010
00000010
00000010
00000010
00000000
,
00001001
00000000
00000000
00000000
00000010
00000001
00001000
00000000
00000000
00000000
00000110
00000000
00000000
00000000
00001000
00000100
,
00010000
00000000
00000000
00000000
00001000
00100000
00010000
00000000
00000000
00000000
11000000
00000000
00000000
00000000
01000000
10000000
,
00010000
00000000
00000000
00000000
01000000
00001000
00010000
00000000
00000000
00000000
00011000
00000000
00000000
00000000
00001000
00000100
,
00000010
00000001
00001000
00000000
00000010
00000100
00000001
00000000
00000020
00000000
00000000
00000000
00000130
00000000
00000000
00000000
,
00000110
00000000
00000100
00010000
00001000
00100000
00010000
01000000
,
00001000
00010000
00000100
00001000
00000000
00001000
00000010
00000000
,
00000110
00000000
00000010
00010000
00001000
01000000
00010000
00100000
,
00001000
00010000
00000010
00001000
00000000
00001000
00000100
00000000
,
00000110
00000000
00000000
00000000
00000001
00001000
00000010
00000000
00000000
00000000
00001010
00000000
00000000
00000000
00000100
00010000
,
00001000
00000000
00000000
00000000
00100000
00010000
01000000
00000000
00100000
00000000
01100000
00000000
01100000
00000000
00000000
00000000
,
10010000
00000000
00000000
00000000
10000000
01000000
00100000
00000000
00000000
00000000
01100000
00000000
00000000
00000000
00100000
01000000
,
00010000
00100000
00001000
00000000
00010000
00000010
00000100
00000000
00000020
00000000
00000000
00000000
00000130
00000000
00000000
00000000
,
00000110
00000000
00000010
00010000
00001000
01000000
00010000
00100000
,
00001000
00010000
00000010
00001000
00000000
00001000
00000100
00000000
,
00000110
00000000
00000100
00010000
00001000
00100000
00010000
01000000
,
00001000
00010000
00000100
00001000
00000000
00001000
00000010
00000000
,
00001001
00000000
00000010
00000100
00000100
00000010
00000000
00000100
00001000
00000000
00010000
00001000
00001000
00010000
00000000
00010000
,
00100000
00000000
10000000
00100000
00010000
00100000
10000000
00100000
10000000
01000000
00100000
00010000
01000000
00001000
00010000
00010000
,
00011000
00000000
00001000
00010000
00000100
00001000
00001000
00001000
00001100
00000000
00000011
00000001
00000000
00000101
00000000
00001000
,
00001001
00000000
00000000
00000000
00000110
00000000
00000000
00001000
00000000
00000000
00110000
00000000
00000000
01000000
00000000
00000000
10010000
00000000
00000000
00000000
01100000
00000000
00000000
00010000
00000000
00000000
00001010
00000000
00000000
00000100
00000000
00000000
,
00001001
00000000
00000000
00000010
00000001
00000100
00000010
00000100
00000010
00010000
00001000
00010000
00001000
00000000
00011000
00000000
,
00100000
00010000
01000000
00100000
10000000
00000000
00010000
01000000
10000000
00100000
01000000
00000000
00001000
00010000
00001000
00000000
,
00000000
00001000
00000000
00001000
00000110
00000000
00001001
00000000
00000000
00010000
00000000
00010000
01100000
00000000
10010000
00000000
,
10000000
01000000
10000000
01000000
00100000
00010000
00100000
00010000
00001000
00000100
00001000
00000100
00000010
00000001
00000010
00000000
,
00000000
00000001
00001000
00000001
00000100
00000010
00000100
00000000
00000110
00000000
00000010
00001000
00010000
00000000
01100000
00000000
,
10000000
00100000
00000000
01000000
00010000
00000000
00011000
00000000
00000100
00001000
00000100
00001000
00000100
00000001
00000100
00000001
,
00000010
00000001
00001000
00000010
00000100
00000001
00001000
00000100
00010000
00001000
00100000
00010000
10000000
00100000
01000000
00010000
,
10010000
00000000
00000000
00000000
00100000
00001000
00100000
00001000
00010000
00001000
00010000
00001000
00010000
00000100
00010000
00000100
00001000
00000000
00001000
00000000
00001000
00000000
00001000
00000000
00001000
00000000
00001000
00000000
00001000
00000000
00000000
00000000
,
00000110
00000000
00001000
00000000
00000000
00010000
00000000
00000000
00001000
00000000
00000000
00010000
00000000
00000000
00001000
00000000
,
01100000
00010000
00000000
00000000
00001000
00000000
00000000
00010000
00000000
00000000
00001000
00000000
00000000
00010000
00000000
00000000
,
00001000
00000100
00000010
00000001
00001000
00000010
00000100
00000001
,
00001000
00000000
00000010
00000100
00001000
00000000
00010000
00001000
00100000
00000000
00010000
01000000
00100000
00000000
10000000
01000000
00100000
00010000
00100000
00010000
01000000
00001000
01000000
00001000
00010000
00000000
00000000
00000000
00001000
00000000
00000000
00000000
,
00011000
00000000
00000000
00000000
00001010
00000000
00000000
00000000
00000101
00000000
00000000
00000000
00000110
00000000
00000001
00000010
,
00000100
00000000
00001000
00000010
00000100
00000000
00000001
00000010
00000100
00000000
00001000
00000100
00010000
00000000
00000000
00000000
,
00011000
00000000
00000000
00000000
00110000
00000000
00000000
00000000
11000000
00000000
00000000
00000000
01100000
00000000
10000000
01000000
,
00100000
00000000
00010000
01000000
00100000
00000000
10000000
01000000
00100000
00000000
00010000
00100000
00001000
00000000
00000000
00000000
,
00011000
00000000
00000000
00000000
00001100
00000000
00000000
00000000
00000011
00000000
00000000
00000000
00000110
00000000
00000001
00000100
,
00000010
00000000
00000001
00000010
00000100
00000000
00000001
00000010
00000100
00000000
00001000
00000100
00010000
00000000
00000000
00000000
,
00011000
00000000
00000000
00000000
01010000
00000000
00000000
00000000
10100000
00000000
00000000
00000000
01100000
00000000
10000000
00100000
,
01000000
00000000
10000000
01000000
00100000
00000000
10000000
01000000
00100000
00000000
00010000
00100000
00001000
00000000
00000000
00000000
,
00022000
00000000
00000000
00000000
,
00033000
00010000
00010000
00001000
00010000
00010000
00011000
00000000
,
00001100
00000000
00000000
00000000
00000101
00000000
00000000
00000000
00000011
00000000
00000000
00000000
00000001
00000000
00000100
00000010
,
00001000
00000000
00000100
00010000
00001000
00000000
00100000
00010000
01000000
00000000
00100000
10000000
00010000
00000000
00000000
00000000
,
00110000
00000000
00000000
00000000
10100000
00000000
00000000
00000000
11000000
00000000
00000000
00000000
10000000
00000000
01000000
00100000
,
00010000
00000000
01000000
00001000
00010000
00000000
00000100
00001000
00000010
00000000
00000100
00000001
00000010
00000000
00000000
00000000
,
00001001
00000000
00000000
00000000
00000001
00000100
00000001
00000100
00000010
00001000
00000010
00010000
00001000
00010000
00001000
00010000
,
00001000
00001000
00001000
00001000
00001000
00001000
00001000
00000000
,
00011000
00000000
00000000
00000000
,
00000000
00000000
00000000
00000000
;
#NOTES:
     dance-double:
     :
     Challenge:
     17:
     :
00000000
00000000
00000000
00000000
,
00000000
00000000
00000000
00000000
,
00000000
00000000
00000000
00000000
,
00000000
00000000
00000000
00000000
,
00000000
00000000
00000000
00000000
,
00021000
00000000
00001000
00001000
00001000
00000000
00001000
00000000
,
00001000
00001000
00001000
00001000
00001000
00001000
00031000
00001000
,
00012000
00000000
00010000
00010000
00010000
00000000
00010000
00000000
,
00010000
00010000
00010000
00010000
00010000
00010000
00013000
00010000
,
00011000
00000000
00010000
00100000
01000000
00000000
02100000
00000000
,
00010000
00010000
00010000
00010000
00010000
03010000
00010000
01000000
,
00001000
00000000
00010000
00001000
00000010
00000000
00000210
00000000
,
00001000
00001000
00001000
00001000
00001000
00001300
00001000
00000100
,
00010000
00010000
00001000
00001000
00100000
00100000
00010000
00010000
,
10020000
10000000
10000000
10000000
10000000
10000000
10030000
10000000
,
10000000
00100000
10000000
00100000
01000000
00010000
01000000
00010000
00100000
00001000
00100000
00001000
00010000
00001000
00010000
00002000
,
00010000
00010000
00010000
00010000
00013000
00010000
00010010
00000000
,
00011000
00000000
00101000
00001000
00010000
00110000
01000000
00001000
,
00011000
00000000
00010010
00010000
00001000
00001010
00000100
00010000
,
00011000
00000000
00101000
00001000
00010000
00110000
01000000
00001000
,
00011000
00000000
00010000
00001000
00000020
00000000
00000030
00000000
,
00011000
00000000
00110000
00001000
00110000
00001000
00110000
00001000
,
01010000
00001000
01010000
00001000
00000000
00001000
00110000
00000000
,
00011000
00000000
00001010
00010000
00001010
00010000
00001010
00010000
,
00001100
00010000
00001100
00020000
00000000
00000000
00030000
00000000
,
00011000
00000000
01001000
00001000
00010000
01010000
00100000
00001000
,
00011000
00000000
00100000
00001000
00000200
00000000
00000310
00000000
,
00011000
00000000
00010100
00010000
00001000
00001100
00000010
00010000
,
00011000
00000000
00000010
00010000
02000000
00000000
03100000
00000000
,
10010000
00000000
00110000
10000000
00110000
10000000
00110000
10000000
,
01010000
10000000
01010000
10000000
00000000
00001000
00010000
00000000
,
00001001
00000000
00001010
00000001
00001010
00000001
00001010
00000001
,
00001100
00000001
00001100
00000001
00000000
00000001
00001010
00000000
,
00001001
00000000
00000011
00001000
00000100
00000011
00000100
00010000
00011000
00000000
00101000
00001000
00010000
00110000
01000000
00001000
,
00011000
00000000
00001000
00001000
00001000
00001000
00001000
00100000
00001000
00000010
00001000
00010000
00001000
01000000
00100000
00100000
,
10100000
00000000
10000000
10000000
00010000
00110000
11000000
00110000
00001000
00100000
00110000
10000000
00100000
01100000
01000000
00000000
,
10100000
00000000
00000000
00000000
10000000
00000000
00000000
00010000
00000000
00000000
00000100
00000000
00000000
00000001
00000000
00000000
00000011
00000000
00000000
00000000
00000001
00000000
00000000
00001000
00000000
00000000
01000000
00000000
00000000
10000000
00000000
00000000
,
10100000
00000000
00000000
11000000
00100000
00001000
00000010
00001000
00010000
01000000
10000000
00100000
00010000
00001000
00010000
00000000
,
01000000
00100000
00001000
00000010
00000001
00000001
00000001
00000001
00000010
00001000
00010000
01000000
10000000
00000000
10100000
00000000
,
00000000
00010000
00001000
00000100
00000010
00000110
00001010
00000110
00010000
00001000
00000010
00000100
00000110
00000000
00010100
00000000
,
00021000
00000000
00000100
00000000
01000000
00000000
00000000
00000100
00000000
00000010
00000000
00100000
00100000
00000000
00031000
00000000
,
00011000
00010000
01000000
10000000
00100000
00010000
00100000
10000000
01000000
00010000
00001000
00000100
00000010
00010000
00001000
00000010
,
00000011
00000100
00000000
00010000
00001000
00000100
00000110
00000000
00000001
00000100
00001000
00010000
00001000
00100000
00010000
01000000
,
01100000
00000000
10100000
00100000
01100000
00100000
10100000
00100000
01100000
00100000
10100000
00100000
01100000
00100000
10100000
00100000
,
01100000
00000000
00000000
00000000
00001000
01000000
00001000
00010000
00001000
01000000
00001000
00010000
00001000
01000000
00001000
00010000
00001000
00000000
00001000
00000000
00001000
00000000
00001000
00000000
00001000
00000000
00001000
00000000
00001000
00000000
00001000
00000000
,
00012000
00000000
01000000
00000000
00000000
00000010
00000000
00000000
01000000
00000000
00000000
00000010
00000000
00000000
00013000
00000000
,
00021000
00000100
00000000
00000000
00100000
00000000
00000000
00000100
00000000
00000000
00100000
00000000
00000000
00030100
00000000
00000000
,
00011000
00101000
00110000
01100000
11000000
10100000
01010000
01100000
,
00100000
00000000
01000000
00010000
00100000
00000000
01000000
10000000
00100000
00000000
01000000
00010000
00100000
00000000
01000000
10000000
00010000
00000000
00010000
00000000
00010000
00000000
00010000
00000000
00010000
00000000
00010000
00000000
10010000
00000000
00000000
00000000
,
00011000
00000000
00001001
00000010
00001010
00000000
00001100
00001010
,
00001100
00001010
00001100
00001010
00001100
00001010
00001001
00000000
,
00011000
00000000
10010000
00100000
00110000
00000000
01010000
00110000
,
01010000
00110000
01010000
00110000
01010000
00110000
10010000
00000000
,
00011000
00000000
00001001
00000010
00000011
00000000
00000101
00000011
,
00000101
00000011
00000101
00000011
00000101
00000011
00001001
00000000
,
00011000
00000000
10010000
00100000
10100000
00000000
11000000
10100000
,
11000000
10100000
11000000
10100000
11000000
10100000
10010000
00000000
,
00022000
00033000
00000000
00000000
,
00000000
00011000
00101000
00000000
00010100
00011000
00101000
00000000
,
00011000
00000000
00010000
01000000
10000000
00100000
01000000
01010000
,
00110000
11000000
10100000
01010000
00110000
11000000
10100000
00000000
,
10010000
00000000
10000000
00100000
00010000
00001000
00000100
00000001
,
00000011
00001100
00001010
00000101
00000011
00001100
00001010
00000000
,
00001001
00000000
00000000
00000000
00000001
00000010
00000100
00001000
00000001
00000100
00000001
00000010
00000100
00001000
00000001
00002000
,
00000010
00000010
00000010
00000010
00000010
00000010
00003010
00000000
,
00011000
00000000
00000000
00000000
,
00000000
00000000
00000000
00000000
;
