
//----- song ID: lisp -----//
#TITLE:Lightspeed;
#ARTIST:Tanukichi;
#BANNER:Lightspeed.png;
#BACKGROUND:Lightspeed-bg.png;
#CDTITLE:./CDTitles/DDR A20 PLUS.png;
#MUSIC:Lightspeed.ogg;
#SAMPLESTART:69.196;
#SAMPLELENGTH:15;
#BPMS:0=200;
#BGSTAGE:31;
#NOTES:
     dance-single:
     :
     Beginner:
     4:
     :
0000
0000
0000
0000
,
0000
0000
0000
0000
,
0000
0000
0000
0000
,
0000
0000
0000
0000
,
0000
0000
0000
0000
,
0000
0000
0000
0000
,
0000
0000
0000
0000
,
0000
0000
0000
0000
,
0000
0000
0000
0000
,
0000
0000
0000
0000
,
0001
0000
0001
0000
,
0010
0000
0010
0000
,
0001
0000
0001
0000
,
0100
0000
0000
0000
,
1000
0000
1000
0000
,
0010
0000
0010
0000
,
1000
0000
1000
0000
,
0100
0000
0000
0000
,
1001
0000
0000
0000
,
1001
0000
0000
0000
,
1001
0000
0000
0000
,
1001
0000
0000
0000
,
0001
0000
0010
0000
,
0001
0000
0010
0000
,
0100
0000
1000
0000
,
0100
0000
0000
0000
,
1000
1000
1000
0000
,
0010
0000
0100
0000
,
0001
0000
0010
0000
,
0001
0000
0000
0000
,
0001
0001
0001
0000
,
0010
0000
0100
0000
,
1000
0000
0010
0000
,
1000
0000
0000
0000
,
0100
0100
0100
0000
,
0100
0000
0100
0000
,
1000
0000
0010
0000
,
0001
0000
0000
0000
,
0010
0010
0010
0000
,
0010
0000
0010
0000
,
0001
0000
0100
0000
,
1000
0000
0000
0000
,
2000
0000
0000
0000
,
3000
0000
0000
0000
,
0002
0000
0000
0000
,
0003
0000
0000
0000
,
0020
0000
0000
0000
,
0030
0000
0000
0000
,
0200
0000
0000
0000
,
0300
0000
0000
0000
,
1000
0000
0100
0000
,
1000
0000
0010
0000
,
0100
0000
0001
0000
,
0100
0000
0010
0000
,
0100
0100
0100
0000
,
0010
0010
0010
0000
,
0001
0000
1000
0000
,
1001
0000
0000
0000
,
0001
0001
0001
0000
,
0100
0000
0010
0000
,
0100
0100
0100
0000
,
0001
0000
0010
0000
,
1000
1000
1000
0000
,
0010
0000
0100
0000
,
0010
0010
0010
0000
,
1001
0000
0000
0000
,
0001
0001
0100
0000
,
0010
0000
0010
0000
,
1000
1000
0100
0000
,
0010
0000
0010
0000
,
0001
0001
0010
0000
,
0100
0000
0100
0000
,
1000
1000
0010
0000
,
0100
0000
0100
0000
,
1000
0000
0100
0000
,
0010
0000
0001
0000
,
0001
0000
0100
0000
,
0010
0000
1000
0000
,
1000
0000
0001
0000
,
1000
0000
0001
0000
,
0020
0000
0030
0000
,
0200
0000
0300
0000
,
0001
0001
0100
0000
,
0010
0000
0100
0000
,
1000
1000
0010
0000
,
0100
0000
0010
0000
,
0001
0001
1000
0000
,
1000
1000
0001
0000
,
0000
0000
0000
0000
;
#NOTES:
     dance-single:
     :
     Easy:
     8:
     :
0000
0000
0000
0000
,
0000
0000
0000
0000
,
0000
0000
0000
0000
,
0000
0000
0000
0000
,
0000
0000
0000
0000
,
0000
0000
0000
0000
,
0000
0000
0000
0000
,
0000
0000
0000
0000
,
0000
0000
0000
0000
,
0000
0000
0000
0000
,
0001
0100
0010
0100
,
0001
0010
0100
0000
,
1000
0100
0010
0100
,
1000
0010
0100
0000
,
0001
1000
0001
1000
,
0010
0100
0010
0100
,
0001
0000
1000
0000
0001
1000
0001
0000
,
2002
0000
0000
3003
,
1000
0000
0000
1000
0000
0000
1000
0000
,
0100
0000
0000
0100
0000
0000
0100
0000
,
0010
0000
0000
0010
0000
0000
0010
0000
,
0001
0000
0000
0001
0000
0000
0001
0000
,
0100
0001
0100
0001
,
1000
0010
1000
0010
,
1000
0000
0001
0000
1000
0001
1000
0000
,
2002
0000
0000
3003
,
0001
0001
0100
0100
,
0010
0010
1000
0000
,
1000
1000
0100
0100
,
0010
0001
0010
0000
,
0001
0001
1000
1000
,
0020
0030
0200
0300
,
0010
0010
1000
1000
,
0100
0100
0001
0000
,
0001
0000
0010
0000
0001
0010
0001
0000
,
1000
0010
1000
0000
,
1000
0000
0100
0000
1000
0100
1000
0000
,
0001
0001
0100
0000
,
0010
0000
1000
0000
0010
0100
0010
0000
,
0100
0001
0010
0000
,
0001
0000
1000
0000
0100
0010
0100
0000
,
0010
0001
0010
0001
0010
0000
0000
0000
,
0002
0000
0003
0000
,
0200
0000
0300
0000
,
0020
0000
0030
0000
,
2000
0000
3000
0000
,
0000
1000
0000
1000
,
0000
0001
0000
0001
,
0000
1000
0000
0001
,
0000
1000
0000
0001
,
0100
0010
1000
0100
,
1000
0000
0001
0000
0010
0100
0010
0000
,
0001
0100
0010
0100
,
0001
0000
1000
0000
0100
1000
0100
0000
,
1000
1000
0010
0010
,
0100
0100
0001
0001
,
1000
0000
0001
0000
1000
0001
1000
0000
,
0010
0010
0110
0000
,
1000
0010
0100
0001
,
1000
0001
0010
0100
,
1000
0001
0100
0001
,
0010
0000
0100
0000
1000
0001
1000
0000
,
0010
0100
0010
1000
,
0100
0010
0001
0100
,
0010
1000
0001
0100
,
0010
0000
0110
0000
,
0001
0010
0100
1000
,
0001
1000
0010
0100
,
0001
1000
0100
1000
,
0010
0000
0100
0000
0001
1000
0001
0000
,
0010
0100
0010
0001
,
0100
0010
1000
0100
,
0010
0001
1000
0100
,
0010
0010
0010
0000
,
0001
1000
0001
0010
,
0001
1000
0001
0000
,
1000
0100
1000
0001
,
0010
0010
0010
0000
,
1001
0001
0100
0010
,
2000
3000
0002
0003
,
1000
0100
1000
0100
,
0010
0001
0010
0000
,
0001
0100
0010
0000
1000
0000
0100
0000
,
1000
0001
0010
0100
,
1000
0001
0010
0000
0001
0000
0100
0000
,
0010
0010
0100
0100
,
0010
0000
1000
0000
0100
0010
0001
0000
,
0100
0000
0001
0000
0010
0100
1000
0002
,
0000
0000
0000
0000
,
0000
0000
0000
0000
,
0003
0000
0000
0000
,
0000
0000
0000
0000
;
#NOTES:
     dance-single:
     :
     Medium:
     12:
     :
0000
0000
0000
0000
,
0000
0000
0000
0000
,
0000
0000
0000
0000
,
0000
0000
0000
0000
,
0000
0000
0000
0000
,
0000
0000
0000
0000
,
0000
0000
0000
0000
,
0000
0000
0000
0000
,
0000
0000
0000
0000
,
0000
0000
0000
0000
,
0001
0000
0100
0000
0000
0001
0100
0000
,
0010
0000
1000
0010
0000
0010
1000
0000
,
0100
0000
1000
0000
0000
0100
1000
0000
,
0001
0000
0010
0001
0000
0001
0010
0000
,
0001
0000
1000
0000
0000
0001
1000
0000
,
0010
0000
0100
0010
0000
0010
0100
0000
,
0010
1000
0010
1000
0100
0010
0001
0010
,
0002
0000
0000
0003
,
1000
0000
0000
1100
0000
0000
1010
0000
,
0001
0000
0000
0101
0000
0000
0011
0000
,
0100
0000
0000
0110
0000
0000
1100
0000
,
0010
0000
0000
0110
0000
0000
0101
0000
,
1000
0000
0100
0000
0010
0001
1000
0000
,
0001
0000
0100
0000
0010
1000
0001
0000
,
1000
0001
1000
0001
1000
0001
1000
0001
,
1000
1000
0001
0001
,
1001
0000
0100
0001
0100
0010
0100
0010
,
1000
0010
1000
0010
2000
0000
3000
0000
,
1001
0000
0100
1000
0100
1000
0100
0010
,
0200
0000
0010
0010
0310
0000
0110
0000
,
1001
0000
0001
0010
0100
1000
0100
0010
,
0002
2003
3020
0130
,
0001
0100
0001
0000
1000
0100
1000
0000
,
0001
0010
0001
0000
1000
0010
1000
0000
,
0001
0100
0010
0100
0001
0100
0010
0000
,
1000
0100
0010
0100
1000
0100
0010
0000
,
0001
1000
0100
0010
0001
0010
0100
1000
,
0001
0001
1000
1000
,
0110
0000
0010
1000
0100
1000
0100
0000
,
0110
0000
0010
0001
0100
0001
0100
0000
,
0001
1000
0010
0000
1000
0001
0010
0000
,
0100
0010
0100
0010
0100
0000
0100
0000
,
0000
0010
0000
0010
0000
0001
0000
1000
,
0000
1000
0000
0100
0000
0100
0000
0010
,
0000
0010
0000
0001
0000
0001
0000
0100
,
0000
0010
0000
1000
0000
0010
0000
1000
,
0100
0010
0000
0010
0000
0001
0000
1000
,
0000
1000
0000
0001
0000
0001
0000
0100
,
0000
0000
0000
0001
0000
1000
0000
0001
,
1000
1000
0001
0001
,
1000
0000
0100
0000
1000
0001
0010
0000
,
0001
0000
0100
0000
0001
1000
0010
0000
,
0100
0000
0010
0000
1000
0100
0010
0000
,
0001
0000
0100
0000
0001
0010
0100
0000
,
1000
0100
1000
0100
0010
0001
0010
0000
,
0001
0100
0001
0100
0010
1000
0010
0000
,
1000
0001
1000
0001
0100
0010
0100
0010
,
1000
0000
1000
0000
0100
0100
0100
0000
,
0010
0001
0100
0001
0010
0100
1000
0001
,
0100
0010
1000
0100
1000
0010
0100
0000
,
0001
1000
0100
0010
0100
1000
0010
0100
,
0001
1000
0100
0010
0001
1000
0100
0000
,
1000
0001
0100
0001
1000
0100
0010
0100
,
1000
0001
0100
0001
0010
0100
1000
0000
,
0010
0100
0001
0100
0001
1000
0100
0010
,
0001
0000
0000
0001
0001
0000
1001
0000
,
0100
1000
0010
1000
0100
0010
0001
1000
,
0010
0001
0010
1000
0001
0100
0010
0000
,
1000
0001
0010
0100
0010
0001
0100
0010
,
1000
0100
0001
0100
1000
0001
0010
0000
,
0001
1000
0010
1000
0001
0010
0100
0010
,
0001
0100
1000
0100
0001
1000
0010
0000
,
0100
0010
1000
0001
0010
1000
0010
0001
,
1000
0000
0001
0000
1000
0001
1001
0000
,
0010
1000
0010
0000
1000
0100
0010
0000
,
0001
1000
0001
0100
0001
0000
0110
0000
,
1000
0100
1000
0000
0001
0010
0100
0000
,
1100
0000
1010
0000
0100
0001
0100
0000
,
1001
0000
0010
0100
0010
1000
0010
0000
,
2000
3002
0203
0310
,
1000
0100
0010
0000
0001
0100
0010
0000
,
1000
0100
0001
0000
0001
0100
1000
0000
,
0001
0010
0100
0001
0100
0010
0001
0000
,
1000
0010
0100
1000
0100
0010
1000
0000
,
0001
0100
0010
1000
0100
0010
0001
0000
,
0100
0000
0100
0000
0010
0100
0010
0000
,
1001
0000
0100
1000
0010
0100
0001
0000
,
0100
0001
0010
0100
1000
0010
0100
0002
,
0000
0000
0000
0000
,
0000
0000
0000
0000
,
0003
0000
0000
0000
,
0000
0000
0000
0000
;
#NOTES:
     dance-single:
     :
     Hard:
     16:
     :
0000
0000
0000
0000
,
0000
0000
0000
0000
,
0000
0000
0000
0000
,
0000
0000
0000
0000
,
0000
0000
0000
0000
,
0000
0000
0000
0000
,
0000
0000
0000
0000
,
0000
0000
0000
0000
,
0000
0000
0000
0000
,
0000
0000
0000
0000
,
0001
0000
0110
0000
0000
1000
0010
0000
,
1000
0000
0110
0001
0000
0001
1000
0000
,
0010
0000
1001
0000
0000
0100
1000
0000
,
0010
0000
1001
0010
0000
0010
0001
0000
,
1000
0000
0011
0000
0000
0100
0010
0000
,
1000
0000
0101
1000
0000
1000
0010
0000
,
1000
0000
0010
0000
0100
0000
0001
0000
0010
0001
0010
0001
0010
0001
0010
0001
,
0020
0000
0000
0030
,
0001
0000
1100
1000
0000
1000
1010
0000
,
1001
0000
0101
0001
0000
0001
0011
0000
,
0110
0000
1100
0100
0000
0100
0101
0000
,
1001
0000
0011
0010
0000
0010
1010
0000
,
0001
0100
0010
0000
1000
0100
0010
0000
,
0001
0010
0100
0000
1000
0010
0100
0000
,
0001
0000
0010
0000
0100
0000
1000
0000
0001
1000
0001
1000
0001
1000
0001
1000
,
0001
0001
0100
0100
,
1001
0000
1001
1000
0010
0100
0001
1000
,
0100
0010
0100
0010
0002
0000
0103
0000
,
0110
0000
1001
0001
0100
0010
1000
0010
,
0110
0000
0000
0000
1000
0010
0000
0100
0001
0000
0000
0000
0001
0000
1000
0000
,
0100
0001
0100
1000
0100
0001
0100
1000
,
0010
1000
0100
0010
0001
0100
0020
0000
0000
0130
0000
0000
,
0010
1000
0010
1000
0001
0100
0001
0100
,
0001
0010
0100
1000
0100
0010
0001
0000
,
1001
0000
0000
0000
1000
0000
0001
0000
0100
0001
0100
0000
0010
0000
1000
0000
,
0100
0000
0010
0000
0001
0000
1000
0000
0010
1000
0010
0000
1000
0000
0001
0000
,
0100
0000
0001
0000
0010
0000
0001
0000
1000
0010
1000
0000
0100
0000
1000
0000
,
0010
0000
0010
0000
0010
0010
0010
0000
,
1001
0000
0000
0000
0001
0000
1000
0000
0010
1000
0010
0000
0100
0000
0001
0000
,
0010
0000
0100
0000
1000
0000
0001
0000
0100
0001
0100
0000
0001
0000
1000
0000
,
0010
0000
1000
0000
0100
0000
1000
0000
0001
0100
0001
0000
0010
0000
0001
0000
,
0100
0100
0100
0100
0100
0000
0110
0000
,
0010
1000
0000
1000
0000
1000
0100
0010
,
0000
0010
0000
0010
0001
0100
1000
0100
,
0001
1000
0000
1000
0000
1000
0010
1000
,
0200
0010
0000
0010
0000
0001
0000
0001
,
0300
0100
1000
0001
0100
1000
0100
0010
,
0001
0010
1000
0001
0010
1000
0010
0001
,
0000
0000
0000
0001
1000
0100
0010
0100
,
2000
3020
0230
0302
,
1003
0001
0010
0001
1000
1000
0010
0100
,
0001
1000
0100
1000
0010
0010
0100
0001
,
1000
0001
0010
0100
1000
1000
0001
0100
,
0010
1000
0100
0010
0001
0001
0100
0010
,
1000
0100
0010
0000
0001
0000
1000
0000
0001
0010
0100
0000
1000
0000
0001
0000
,
1000
0010
0100
0000
0001
0000
1000
0000
0001
0100
0010
0000
1000
0000
0001
0000
,
1000
0010
1000
0010
1000
0010
1000
0010
0100
0001
0100
0001
0100
0001
0100
0001
,
0100
0000
0000
0000
0100
0000
0000
0000
0100
0010
0100
0000
0010
0000
0000
0000
,
1000
0001
1000
0000
0100
0000
0010
0000
0001
0000
0100
0000
0001
0000
1000
0000
,
0010
1000
0001
0010
0100
0010
0001
0100
,
0010
1000
0001
0000
1000
0000
0100
0000
0010
0000
0001
0000
1000
0000
0010
0000
,
0100
0010
1000
0001
1000
0100
0010
0001
,
1000
0001
0010
0000
0100
0000
0010
0000
0001
0000
1000
0000
0100
0000
1000
0000
,
0010
0100
0001
1000
0100
1000
0001
0010
,
0001
0100
0001
0000
0010
0000
0001
0000
1000
0000
0100
0000
1000
0000
0010
0000
,
0100
0000
0000
0001
1001
0000
0110
0000
,
1010
0000
1010
0000
1010
0000
0100
0000
0001
1000
0001
0000
1000
0000
0001
0000
,
0010
0100
1000
0000
0001
0000
1000
0000
0010
0100
0010
0000
1000
0000
0001
0000
,
0010
0001
0010
0000
0100
0000
1000
0000
0001
0100
0010
0000
1000
0000
0010
0000
,
0100
0001
1000
0000
0100
0000
0010
0000
0001
1000
0001
0000
1001
0000
0000
0000
,
0001
0010
0001
0000
1000
0000
0100
0000
1000
0010
0100
0000
0001
0000
1000
0000
,
0010
0100
0001
0000
0100
0000
0010
0000
1000
0100
0010
0000
0001
0000
1000
0000
,
0010
1000
0001
0000
1000
0000
0010
0000
0100
0001
1000
0000
0010
0000
0100
0000
,
0010
0000
0010
0000
0100
0000
0100
0000
0010
0100
0010
0100
0010
0000
0000
0000
,
0001
0100
0001
0000
1000
0000
0010
0000
1000
0000
0100
0000
1000
0000
0010
0000
,
0100
0001
1000
0010
0100
0000
0110
0000
,
1000
0001
1000
0000
0010
0000
0100
0000
0010
0000
1000
0000
0001
0000
0010
0000
,
0011
0000
0110
0000
1000
0001
1001
0000
,
0110
0000
0000
0000
0010
0000
1000
0000
0100
0010
0001
0000
1000
0000
0001
0000
,
0100
0010
1000
0100
0010
0001
0200
0000
0000
0310
0000
0000
,
1000
0010
1000
0010
0001
0010
0001
0010
,
1000
0100
0001
0100
1000
0001
1000
0000
,
0101
0101
0101
1000
0100
0010
0001
1000
,
0010
1000
0001
1000
0010
0000
0100
0000
0010
0000
0000
0000
1001
0000
0000
0000
,
0101
0101
0101
0010
1000
0100
0010
0001
,
0100
0000
0100
0000
0100
0100
0100
0000
,
1001
0000
0000
0000
1010
0000
1000
0000
0001
0100
0010
1000
0010
0000
1000
0000
,
0100
0000
0010
0001
1000
0000
0001
0000
0100
0010
1000
0000
0100
0010
0002
0000
,
0000
0000
0000
0000
,
0000
0000
0000
0000
,
0003
0000
0000
0000
,
0000
0000
0000
0000
;
#NOTES:
     dance-single:
     :
     Challenge:
     18:
     :
0000
0000
0000
0000
,
0000
0000
0000
0000
,
0000
0000
0000
0000
,
0000
0000
0000
0000
,
0000
0000
0000
0000
,
0000
0000
0000
0000
,
0000
0000
0000
0000
,
0000
0000
0000
0000
,
0000
0000
0000
0000
,
0000
0000
0000
0000
,
1000
0000
0100
0000
0000
0010
0001
0000
,
0001
0000
0100
0010
0000
0010
1000
0000
,
0001
0000
0100
0000
0000
0010
1000
0000
,
1000
0000
0100
0010
0000
0010
0001
0000
,
0100
0000
0010
0000
0000
0100
0010
0000
,
1000
0000
0001
1000
0000
1000
0001
0000
,
0001
0100
0010
1000
0100
0010
0001
1000
,
2002
0000
0000
3003
,
1000
0000
1000
1000
0000
1000
1000
0000
,
0100
0000
0100
0100
0000
0100
0100
0000
,
0010
0000
0010
0010
0000
0010
0010
0000
,
0001
0000
0001
0001
0000
0001
0001
0000
,
1000
0100
1000
0000
1000
0100
1000
0000
0100
0010
0100
0000
0100
0010
0100
0000
,
0010
0001
0010
0000
0010
0001
0010
0000
0001
1000
0001
0000
0001
1000
0001
0000
,
0001
0100
0010
1000
0100
0001
0100
1000
0010
0001
0010
1000
0100
0001
1000
0010
,
0001
0000
0001
0000
0001
1000
0001
0000
,
1001
0000
0000
0000
0001
0100
0010
0000
0010
1000
0100
0000
0100
1000
0010
0000
,
0010
0100
0001
0000
0001
1000
0100
0000
1100
0000
0000
0000
0101
0000
0001
0000
,
1000
0010
0100
0000
0100
0001
0010
0000
0010
0001
0100
0000
0100
0010
1000
0000
,
1010
0000
0000
0000
1000
0010
0001
0010
2000
0000
0000
0000
3001
0000
1000
0000
,
0110
0000
0000
0000
0001
0010
0100
0000
0100
1000
0010
0000
0010
0100
0001
0000
,
0001
0100
1000
0100
0001
0010
2000
0000
0000
3010
0000
0000
,
1000
0010
0001
1000
0010
0100
0001
0010
,
1000
0001
0100
1000
0010
0100
0110
0000
,
1001
0000
0000
0000
1001
0000
0001
0010
1000
0000
0010
0001
0100
0000
1000
0100
,
0010
0000
0001
0010
1000
0000
0100
0010
0001
0000
1000
0100
0001
0000
1000
0010
,
0100
0000
0001
0100
1000
0000
0001
0010
0100
0000
1000
0100
0001
0000
0100
1000
,
0010
0000
1001
0000
0100
0100
0100
0000
,
0110
0000
0000
0000
1001
0000
1000
0100
0001
0000
0100
1000
0010
0000
0001
0010
,
0100
0000
1000
0100
0010
0000
0001
0010
1000
0000
0001
0010
0100
0000
1000
0010
,
0001
0000
1000
0100
0010
0000
1000
0100
0010
0000
0001
0010
1000
0000
0010
0001
,
0100
0100
0100
0100
0100
0000
0110
0000
,
1000
1010
0000
0101
0000
0001
0100
0110
,
0000
1010
0000
0010
0000
0100
0000
0001
,
0000
0011
0000
1001
0000
1100
0000
2000
,
0000
3020
0000
0230
0000
0302
0000
1003
,
0001
0010
0100
1000
0010
0100
0001
0010
,
1000
0010
0001
1000
0010
0100
0001
2002
,
0000
0000
3003
0001
0000
0001
0000
0001
,
0100
0010
1000
0000
0100
0010
0001
0000
1000
0010
0100
0000
0001
0010
0100
0000
,
1000
0000
1000
0000
0010
1000
0100
0000
1000
0000
1000
0000
0001
1000
0100
0000
,
0010
0000
0010
0000
0001
0010
1000
0000
0010
0000
0010
0000
0001
1000
0010
0000
,
0100
0000
0100
0000
0001
0100
1000
0000
0100
0000
0100
0000
0001
0100
0010
0000
,
1000
0000
0010
0000
0100
0000
0001
0000
1000
0001
1000
0001
1000
0000
0000
0000
,
0001
0010
0001
0000
0010
0100
0010
0000
0100
1000
0100
0000
1000
0010
1000
0000
,
0010
0100
0010
0000
0100
0001
0100
0000
0001
0010
0100
0000
0010
0100
1000
0000
,
0100
1000
0010
0100
0001
0010
0100
1000
0001
0010
0100
1000
0100
0010
0001
1000
,
0001
0000
0000
0000
0001
0000
0000
0000
0001
1000
0001
0000
1001
0000
0000
0000
,
0001
0100
0010
0000
1000
0000
0001
0000
1000
0100
0010
0000
0001
0000
1000
0000
,
0001
0100
0010
1000
0001
0010
0100
0010
0001
1000
0100
0000
0010
0000
0100
0000
,
0010
0001
0100
0000
0001
0000
1000
0000
0010
1000
0100
0000
0010
0000
0100
0000
,
1000
0001
1000
0100
0010
0001
0100
0010
1000
0100
0010
0000
0001
0000
1000
0000
,
0001
1000
0010
0000
1000
0000
0001
0000
1000
0001
0010
0000
0001
0000
1000
0000
,
0001
0100
1000
0100
0001
0010
0100
1000
0100
0001
0100
0000
1000
0000
0001
0000
,
1000
0100
0001
0000
0100
0000
1000
0000
0001
0100
1000
0000
0100
0000
0010
0000
,
0100
0000
0000
0010
0100
0000
0110
0000
,
0010
1000
0100
1000
0010
0000
0100
0000
0001
0010
0001
0100
0001
0000
0010
0000
,
0001
0100
1000
0100
0001
0000
0100
0000
0001
0010
0100
0010
0001
1000
0100
0010
,
0100
1000
0001
0000
1000
0000
0010
0000
0100
0010
1000
0001
0010
0000
0100
0000
,
1000
0001
0010
0100
1000
0000
0001
0000
0100
0010
1000
0001
0010
1000
0010
0001
,
1000
0010
0100
0000
0001
0000
0010
0000
0100
0010
0001
1000
0010
0000
0100
0000
,
0001
0010
1000
0010
0001
0000
1000
0000
0001
0010
1000
0010
0001
1000
0010
0100
,
1000
0100
0001
0000
0010
0000
0100
0000
0010
0001
1000
0010
0100
0000
0010
0000
,
0100
0000
0000
0000
1001
0000
0000
0000
0100
0010
0100
0010
0100
0000
0000
0000
,
1010
0000
0000
0000
0101
0000
0100
0010
1000
0000
0010
1000
0001
0000
0010
0100
,
0001
0000
0100
0010
1000
0000
0010
0000
0011
0000
0000
0000
1100
0000
1000
0000
,
0001
0000
1000
0100
0010
0000
0001
0010
1000
0000
0001
0100
1000
0000
0010
0100
,
0010
0000
1001
0000
0100
0100
0100
0000
,
0011
0000
0000
0000
1100
0000
0100
0010
0001
0000
0100
0010
0001
0000
1000
0100
,
0010
0001
1000
0100
0001
0010
2000
0000
0000
3010
0000
0000
,
0100
1000
0010
0001
0010
0100
0001
0010
,
1000
0010
0001
1000
0100
0100
0100
0000
,
0110
0000
0100
0010
0001
0000
0011
0000
0010
0000
0100
0010
1000
0000
1010
0000
,
0010
0000
0100
1000
0010
0000
0110
0000
1010
0000
0000
0000
0101
0000
0001
0000
,
1100
0000
0100
0010
0001
0000
0011
0000
0010
0000
1000
0010
0100
0000
0110
0000
,
0010
0001
1000
0000
0100
1000
0001
0000
0100
0000
0100
0000
0100
0000
0000
0000
,
0110
0000
0000
0000
1001
0000
0001
0010
0100
0000
1000
0010
0100
0000
0001
0000
,
0100
0010
1000
0001
0100
0000
0010
1000
0001
0100
0010
0000
1000
0001
1000
0000
,
0000
0000
0000
0000
;
#NOTES:
     dance-double:
     :
     Easy:
     8:
     :
00000000
00000000
00000000
00000000
,
00000000
00000000
00000000
00000000
,
00000000
00000000
00000000
00000000
,
00000000
00000000
00000000
00000000
,
00000000
00000000
00000000
00000000
,
00000000
00000000
00000000
00000000
,
00000000
00000000
00000000
00000000
,
00000000
00000000
00000000
00000000
,
00000000
00000000
00000000
00000000
,
00000000
00000000
00000000
00000000
,
00000001
00000010
00000001
00000010
,
00000100
00001000
00000100
00000000
,
00010000
00001000
00010000
00001000
,
01000000
00010000
01000000
00000000
,
00100000
10000000
00100000
10000000
,
00010000
01000000
00010000
00000000
,
00100000
00001000
00100000
00001000
,
00022000
00000000
00000000
00033000
,
00000100
00000000
00000000
00000100
00000000
00000000
00000100
00000000
,
00010000
00000000
00000000
00010000
00000000
00000000
00010000
00000000
,
00000010
00000000
00000000
00000010
00000000
00000000
00000010
00000000
,
00000100
00000000
00000000
00000100
00000000
00000000
00000100
00000000
,
00001000
00010000
00001000
00010000
,
00100000
01000000
00100000
01000000
,
00100000
10000000
00010000
10000000
,
20020000
00000000
00000000
30030000
,
01000000
01000000
00001000
00001000
,
00010000
00001000
00010000
00000000
,
00000010
00000010
00001000
00001000
,
00000001
00000100
00000001
00000000
,
00001000
00001000
00000100
00000100
,
00020000
00030000
00002000
00003000
,
00100000
00100000
00010000
00010000
,
10000000
01000000
10000000
00000000
,
00100000
00000000
00010000
00000000
00100000
00010000
00100000
00000000
,
00001000
00010000
00001000
00000000
,
00010000
00000000
00000100
00000000
00001000
00000100
00001000
00000000
,
00000001
00000001
00000100
00000000
,
00001000
00000000
00010000
00000000
00001000
00010000
00001000
00000000
,
01000000
00010000
00100000
00000000
,
00010000
00000000
10000000
00000000
01000000
00100000
01000000
00000000
,
00100000
00001000
00100000
00001000
00100000
00000000
00000000
00000000
,
00002000
00000000
00003000
00000000
,
00020000
00000000
00030000
00000000
,
00000020
00000000
00000030
00000000
,
00002000
00000000
00003000
00000000
,
00000000
00010000
00000000
00010000
,
00000000
10000000
00000000
10000000
,
00000000
00010000
00000000
00010000
,
00000000
00001000
00000000
00001000
,
00000010
00000100
00000010
00000100
,
00000001
00000010
00000100
00001000
,
00000100
00010000
00000100
00010000
,
00001000
01000000
00010000
00100000
,
01000000
01000000
10000000
10000000
,
00010000
00010000
00100000
00100000
,
00001000
00010000
00000100
00001000
,
00000010
00000010
00000110
00000000
,
00000001
00001000
00000001
00001000
,
00000010
00000100
00001000
00010000
,
00100000
01000000
00100000
01000000
,
00010000
00000000
01000000
00000000
00010000
10000000
00010000
00000000
,
10000000
00010000
10000000
00010000
,
00100000
01000000
00010000
00001000
,
00000010
00000100
00000010
00000100
,
00000010
00000010
00000010
00000000
,
00000001
00000100
00000001
00000000
00000100
00000000
00000010
00000000
,
00010000
00001000
00010000
00001000
,
00100000
00010000
01000000
00100000
,
10000000
01000000
00010000
01000000
,
00100000
00010000
00100000
00000000
00001000
00000000
00010000
00000000
,
00000100
00010000
00000100
00001000
,
00000010
00000100
00000001
00001000
,
00000010
00000010
00000010
00000000
,
00000010
00001000
00000100
00001000
,
00000100
00010000
00001000
00000000
,
00100000
00010000
01000000
00010000
,
00100000
00100000
00100000
00000000
,
10010000
10000000
01000000
00100000
,
00002000
00003000
00020000
00030000
,
00000010
00001000
00000010
00001000
,
00000001
00000100
00000001
00000000
,
00000100
00000010
00000100
00000000
00000010
00000000
00010000
00000000
,
00001000
00100000
00010000
00100000
,
01000000
00100000
01000000
00000000
10000000
00000000
00100000
00000000
,
00010000
00010000
00001000
00001000
,
00010000
00000000
00000100
00000000
00001000
00000010
00000100
00000000
,
00000010
00000000
00010000
00001000
00010000
00000000
00002000
00000000
,
00000000
00000000
00000000
00000000
,
00000000
00000000
00000000
00000000
,
00003000
00000000
00000000
00000000
,
00000000
00000000
00000000
00000000
;
#NOTES:
     dance-double:
     :
     Medium:
     13:
     :
00000000
00000000
00000000
00000000
,
00000000
00000000
00000000
00000000
,
00000000
00000000
00000000
00000000
,
00000000
00000000
00000000
00000000
,
00000000
00000000
00000000
00000000
,
00000000
00000000
00000000
00000000
,
00000000
00000000
00000000
00000000
,
00000000
00000000
00000000
00000000
,
00000000
00000000
00000000
00000000
,
00000000
00000000
00000000
00000000
,
00000001
00000000
00000010
00000000
00000000
00000001
00000100
00000000
,
00000010
00000000
00001000
00000100
00000000
00000100
00010000
00000000
,
00001000
00000000
01000000
00000000
00000000
00010000
00100000
00000000
,
00010000
00000000
10000000
00100000
00000000
00100000
01000000
00000000
,
00010000
00000000
10000000
00000000
00000000
01000000
00100000
00000000
,
00010000
00000000
00100000
00001000
00000000
00001000
00010000
00000000
,
00000100
00001000
00000010
00000000
00000100
00000001
00000010
00000000
,
00000200
00000000
00000000
00000300
,
00000001
00000000
00000000
00000001
00000000
00000000
00000101
00000000
,
00001000
00000000
00000000
00001000
00000000
00000000
00001100
00000000
,
00010000
00000000
00000000
00010000
00000000
00000000
00011000
00000000
,
00001000
00000000
00000000
00001000
00000000
00000000
01001000
00000000
,
00100000
10000000
00100000
00000000
10000000
00000000
01000000
00000000
,
00010000
00001000
00010000
00000000
00001000
00000000
00000010
00000000
,
00000001
00000100
00000001
00000100
00000010
00001000
00000010
00001000
,
00000010
00000010
00000100
00000100
,
00001001
00000000
00001000
00000010
00001000
00000100
00001000
00000100
,
00010000
00001000
00010000
00001000
00020000
00000000
00030000
00000000
,
00011000
00000000
00100000
00010000
01000000
00010000
01000000
00010000
,
02000000
00000000
00100000
00100000
03100000
00000000
01100000
00000000
,
10010000
00000000
10000000
00100000
10000000
01000000
00100000
01000000
,
00020000
00032000
00023000
00031000
,
00000010
00000100
00000010
00000000
00000001
00000010
00000001
00000000
,
00001000
00000100
00001000
00000000
00000010
00000100
00000010
00000000
,
00010000
00001000
00010000
00000100
00010000
00001000
00010000
00000000
,
00001000
01000000
00001000
00010000
00001000
01000000
00001000
00000000
,
00100000
00010000
10000000
01000000
00100000
00001000
00010000
00000000
,
00001000
00001000
00010000
00010000
,
00011000
00000000
00001000
00000010
00000001
00000010
00000001
00000000
,
00001001
00000000
00000001
00000100
00001000
00000100
00001000
00000000
,
00010000
00001000
01000000
00000000
00001000
00010000
00000100
00000000
,
00010000
00001000
00010000
00001000
00010000
00000000
00001000
00000000
,
00000000
01000000
00000000
01000000
00000000
00100000
00000000
10000000
,
00000000
10000000
00000000
01000000
00000000
01000000
00000000
00100000
,
00000000
00100000
00000000
00010000
00000000
00010000
00000000
00001000
,
00000000
00010000
00000000
00001000
00000000
00010000
00000000
00000100
,
00001000
00000010
00000000
00000010
00000000
00000100
00000000
00000001
,
00000000
00000001
00000000
00001000
00000000
00001000
00000000
00000100
,
00000000
00000000
00000000
00001000
00000000
00000010
00000000
00010000
,
00001000
00001000
00010000
00010000
,
00001000
00000000
01000000
00000000
00010000
01000000
00100000
00000000
,
10000000
00000000
01000000
00000000
00100000
00010000
01000000
00000000
,
00100000
00000000
10000000
00000000
00010000
00100000
00001000
00000000
,
00010000
00000000
00000100
00000000
00001000
00000010
00000100
00000000
,
00000001
00000100
00000001
00000100
00000010
00001000
00000010
00000000
,
00010000
00001000
00010000
00001000
01000000
00010000
01000000
00000000
,
00100000
10000000
01000000
00100000
00010000
00100000
00001000
00010000
,
00001000
00000000
00010000
00000000
00001000
00001000
00001000
00000000
,
00010000
00000100
00010000
00001000
00010000
00000100
00001000
00000010
,
00000100
00000001
00001000
00000010
00001000
00000100
00000010
00000001
,
00000100
00000010
00001000
00000100
00010000
00001000
00100000
00001000
,
00010000
00000010
00000100
00001000
00010000
00001000
00010000
00000000
,
00001000
01000000
00001000
00010000
00001000
01000000
00010000
00100000
,
01000000
10000000
00010000
00100000
00010000
01000000
00100000
10000000
,
01000000
00100000
00010000
01000000
00001000
00010000
00000010
00010000
,
00001000
00000000
00000000
00001000
00010000
00000000
00011000
00000000
,
00001000
00000100
00000001
00000010
00000100
00001000
00000001
00000100
,
00000010
00001000
00000100
00010000
00001000
00100000
00001000
00010000
,
00001000
00010000
00000100
00001000
00000010
00000100
00000001
00001000
,
00000100
00000010
00000001
00000010
00000100
00010000
00001000
00000000
,
00010000
01000000
10000000
00100000
01000000
00010000
01000000
00001000
,
00100000
01000000
00010000
00001000
00010000
00000010
00010000
00001000
,
00100000
00001000
01000000
00010000
00100000
01000000
10000000
00010000
,
01000000
00100000
10000000
00100000
00010000
00001000
00010000
00000000
,
00001000
00010000
00001000
00000000
00000100
00001000
00000100
00000000
,
00000001
00000010
00000001
00001000
00000001
00000000
00001001
00000000
,
00001000
00000010
00001000
00000000
00010000
00001000
00010000
00000000
,
01010000
00000000
00110000
00000000
00001000
00010000
00001000
00000000
,
00011000
00000000
00100000
00010000
00100000
01000000
00100000
00000000
,
00020000
20030000
32000000
03010000
,
00001000
00010000
00001000
00000000
00010000
00000100
00001000
00000000
,
00000001
00000100
00001000
00000000
00001000
00000100
00000001
00000000
,
00000010
00000001
00000100
00000010
00001000
00000000
00001100
00000000
,
00010000
00001000
01000000
00010000
00100000
00000000
00110000
00000000
,
10000000
01000000
10000000
01000000
00100000
00001000
00010000
00000000
,
00001000
00000000
00001000
00000000
00010000
00001000
00010000
00000000
,
00011000
00000000
00000100
00001000
00000010
00000100
00000001
00000000
,
00000010
00000001
00000010
00000001
00000100
00001000
00010000
00002000
,
00000000
00000000
00000000
00000000
,
00000000
00000000
00000000
00000000
,
00003000
00000000
00000000
00000000
,
00000000
00000000
00000000
00000000
;
#NOTES:
     dance-double:
     :
     Hard:
     16:
     :
00000000
00000000
00000000
00000000
,
00000000
00000000
00000000
00000000
,
00000000
00000000
00000000
00000000
,
00000000
00000000
00000000
00000000
,
00000000
00000000
00000000
00000000
,
00000000
00000000
00000000
00000000
,
00000000
00000000
00000000
00000000
,
00000000
00000000
00000000
00000000
,
00000000
00000000
00000000
00000000
,
00000000
00000000
00000000
00000000
,
10000000
00000000
01100000
00000000
00000000
00100000
00010000
00000000
,
00100000
00000000
00001000
00010000
00000000
00010000
00001000
00000000
,
00000010
00000000
00001001
00000000
00000000
00000100
00001000
00000000
,
00000010
00000000
00000100
00000001
00000000
00000001
00000100
00000000
,
00000001
00000000
00000110
00000000
00000000
00001000
00010000
00000000
,
00001000
00000000
01000000
00010000
00000000
00010000
00100000
00000000
,
01000000
10000000
00100000
00010000
00001000
00000100
00000001
00001000
,
00000002
00000000
00000000
00000003
,
00001001
00000001
00000100
00000110
00000010
00001000
00001010
00000000
,
00001100
00000100
00010000
00011000
00001000
00100000
00110000
00000000
,
11000000
10000000
00100000
01100000
01000000
00010000
01010000
00000000
,
00110000
00100000
00001000
00011000
00010000
00000010
00001010
00000000
,
00000001
00000100
00000001
00000100
00000010
00001000
00000010
00010000
,
00000100
00010000
00001000
01000000
00010000
01000000
00010000
01000000
,
00100000
00000000
10000000
00000000
00010000
00000000
00100000
00000000
00001000
00010000
00001000
00010000
00001000
00010000
00001000
00010000
,
00001000
00001000
00010000
00010000
,
00011000
00000000
00011000
00001000
00000100
00000001
00000100
00000001
,
00000010
00000100
00001000
00010000
00200000
00000000
01300000
00000000
,
01100000
00000000
10010000
10000000
01000000
00010000
01000000
10000000
,
00100000
00000000
00000000
00000000
01000000
00010000
00000000
00001000
00000010
00000000
00000000
00000000
00000010
00000000
00000000
00000000
,
00001001
00000000
00000001
00000100
00001000
00000100
00000001
00000100
,
00001000
00010000
00001000
00010000
00001000
00010000
00002000
00000000
00000000
00003000
00000000
00000000
,
00010000
00001000
00010000
00001000
00100000
00010000
00100000
00010000
,
10000000
01000000
10000000
01000000
10000000
00100000
10000000
00000000
,
10010000
00000000
00000000
00000000
10000000
00000000
00100000
00000000
01000000
00010000
01000000
00000000
00010000
00000000
00100000
00000000
,
00001000
00000000
00010000
00000000
00001000
00000000
00010000
00000000
00000010
00001000
00000010
00000000
00001000
00000000
00000100
00000000
,
00000010
00000000
00000001
00000000
00000100
00000000
00000010
00000000
00000100
00000001
00000100
00000000
00000010
00000000
00001000
00000000
,
00000100
00000000
00010000
00000000
00001000
00001000
00001000
00000000
,
00011000
00000000
00000000
00000000
01000000
00000000
00010000
00000000
01000000
00100000
01000000
00000000
00100000
00000000
10000000
00000000
,
00010000
00000000
00100000
00000000
01000000
00000000
10000000
00000000
01000000
00010000
01000000
00000000
00100000
00000000
00001000
00000000
,
00010000
00000000
00001000
00000000
00000010
00000000
00000100
00000000
00001000
00000001
00001000
00000000
00000010
00000000
00000100
00000000
,
00000010
00000010
00000010
00000010
00000010
00000000
00000110
00000000
,
00000000
00001010
00000000
00001010
00000000
00000001
00000100
00000010
,
00000000
00001010
00000000
00001010
00000000
00000100
00010000
00001000
,
00000000
00110000
00000000
00110000
00000000
01000000
10000000
01000000
,
00000000
01100000
00000000
01100000
00000000
00110000
00000000
00110000
,
00000000
00001000
00010000
00000100
00001000
00000100
00000001
00000100
,
00001000
00000100
00010000
00001000
01000000
00010000
01000000
10000000
,
00000000
00000000
00000000
10000000
01000000
00010000
01000000
00100000
,
20000000
32000000
03200000
00320000
,
00031000
00000100
00000010
00000001
00000100
00000100
00000001
00001000
,
00000010
00000100
00001000
00010000
00100000
00100000
01000000
00010000
,
00100000
01000000
00010000
00001000
00010000
00100000
00010000
00001000
,
00000100
00001000
00010000
00001000
00000010
00000001
00000100
00000000
,
00000001
00001000
00000001
00000000
00000100
00000000
00000010
00000000
00010000
00001000
00010000
00000000
00001000
00000000
01000000
00000000
,
00100000
01000000
00100000
00000000
10000000
00000000
01000000
00000000
10000000
00010000
10000000
00000000
01000000
00000000
00100000
00000000
,
00010000
01000000
00100000
00000000
00010000
00001000
00000100
00000000
00000010
00001000
00000100
00000000
00000010
00000001
00000010
00000001
,
00000010
00000000
00000000
00000000
00000010
00000000
00000000
00000000
00000010
00000100
00000010
00000000
00000100
00000000
00000000
00000000
,
00001000
00000001
00001000
00000000
00000010
00000000
00001000
00000000
00000100
00000000
00000010
00000000
00000001
00000000
00000100
00000000
,
00000010
00001000
00000100
00001000
00010000
00100000
00010000
01000000
,
00010000
10000000
00010000
00000000
10000000
00000000
00100000
00000000
01000000
00000000
00010000
00000000
00100000
00000000
01000000
00000000
,
00100000
00010000
00100000
00010000
00001000
00000100
00001000
00000100
,
00000010
00000100
00000010
00000000
00000001
00000000
00001000
00000000
00000001
00000000
00000100
00000000
00000010
00000000
00001000
00000000
,
00000100
00000010
00001000
00000010
00001000
00010000
01000000
00010000
,
01000000
00100000
01000000
00000000
10000000
00000000
00010000
00000000
01000000
00000000
00010000
00000000
00001000
00000000
00000010
00000000
,
00001000
00000000
00000000
00000001
00000001
00000000
00001001
00000000
,
00000110
00000000
00000100
00000000
00000100
00000000
00001000
00000000
00000010
00001000
00000010
00000000
00010000
00000000
00001000
00000000
,
00100000
00001000
00010000
00001000
01000000
00010000
00100000
01000000
,
10000000
00100000
10000000
00000000
01000000
00000000
00100000
00000000
00010000
00100000
00010000
00000000
01000000
00000000
00100000
00000000
,
01000000
00010000
00100000
00001000
00010000
00001000
00000010
00000001
,
00000100
00000010
00000100
00000000
00000010
00000000
00001000
00000000
00000100
00000010
00000100
00000000
00000010
00000000
00000001
00000000
,
00000100
00001000
00010000
00100000
01000000
00001000
00010000
01000000
,
00100000
00010000
00100000
00000000
01000000
00000000
10000000
00000000
00100000
01000000
00100000
00000000
10000000
00000000
01000000
00000000
,
00010000
00010000
00001000
00001000
00010000
00001000
00011000
00000000
,
00011000
00000000
00000010
00000100
00000001
00001000
00000100
00000001
,
00000100
00000010
00000001
00000100
00001010
00000000
00011000
00000000
,
01010000
01000000
00100000
10000000
01000000
00010000
01000000
10000000
,
10100000
01010000
00011000
00001010
,
00001001
00000000
00000100
00000001
00001000
00000010
00001000
00000100
,
00010000
00001000
00010000
00001000
00010000
00001000
00020000
00000000
00000000
00030000
00000000
00000000
,
01000000
10000000
01000000
10000000
00100000
00010000
00100000
00010000
,
00001000
00000100
00001000
00000100
00000001
00001000
00000001
00000000
,
00001001
00001001
00001001
00000010
00001000
00000100
00010000
00001000
,
00100000
00010000
00100000
00010000
00100000
00000000
01000000
00000000
10000000
00000000
00000000
00000000
10010000
00000000
00000000
00000000
,
01100000
01100000
01100000
10000000
00010000
00100000
00010000
00001000
,
00000100
00000000
00000100
00000000
00000100
00000100
00000100
00000000
,
00000110
00000000
00000000
00000000
00001001
00000000
00000001
00000000
00000100
00000010
00001000
00000000
00000100
00000000
00010000
00000000
,
00001000
00000000
00100000
00010000
01000000
00000000
00100000
00000000
10000000
00000000
01000000
00000000
00010000
00000000
00002000
00000000
,
00000000
00000000
00000000
00000000
,
00000000
00000000
00000000
00000000
,
00003000
00000000
00000000
00000000
,
00000000
00000000
00000000
00000000
;
#NOTES:
     dance-double:
     :
     Challenge:
     18:
     :
00000000
00000000
00000000
00000000
,
00000000
00000000
00000000
00000000
,
00000000
00000000
00000000
00000000
,
00000000
00000000
00000000
00000000
,
00000000
00000000
00000000
00000000
,
00000000
00000000
00000000
00000000
,
00000000
00000000
00000000
00000000
,
00000000
00000000
00000000
00000000
,
00000000
00000000
00000000
00000000
,
00000000
00000000
00000000
00000000
,
00010000
00001000
00010000
00000010
00001000
00000100
00000010
00000001
,
00000100
00002000
00000000
00103000
00010000
01000000
00001000
00010000
,
01000000
00100000
00010000
10000000
00100000
01000000
00100000
10000000
,
01000000
00020000
00000000
00030010
00001000
00000100
00010000
00001000
,
00000100
00000010
00010000
00001000
01000000
00010000
00100000
01000000
,
10000000
00100000
00020000
00000000
00030100
00001000
00000010
00010000
,
00001000
00000010
00000001
00000100
00000010
00001000
00000100
00001000
,
00000020
00000000
00000000
00000030
,
00010010
00010000
00001000
00100000
00110000
00010000
10000000
01000000
,
01100000
00100000
00001000
00010000
00010100
00000100
00001000
00000001
,
00000101
00000100
00000010
00010000
00011000
00001000
01000000
00010000
,
00110000
00100000
00001000
00010000
00011000
00001000
00010000
00000100
,
00001100
00001000
00001010
00000010
00000110
00000100
00000101
00000001
,
00001001
00001000
00001100
00000100
00000110
00000010
00000011
00000001
,
00001000
00000001
00001000
00000001
00000010
00000100
00001000
00000001
00001000
00000001
00000100
00000010
00001000
00000001
00000010
00000100
,
00001000
00000000
00000000
00000000
,
00001001
00000000
00000000
00000000
00000001
00000100
00000010
00000000
00000100
00000010
00001000
00000000
00000010
00010000
00001000
00000000
,
00010000
00001000
01000000
00000000
00001000
01000000
00010000
00000000
00100000
00000000
00000000
00000000
01000000
00000000
00000000
00000000
,
10000000
01000000
00100000
00000000
01000000
00100000
00010000
00000000
00100000
00001000
00010000
00000000
00001000
00010000
00000100
00000000
,
00001000
00000000
00000000
00000000
00000001
00001000
00000100
00000010
00000001
00000000
00000000
00000000
00001000
00000000
00000010
00000000
,
00000110
00000000
00000000
00000000
00001000
00000001
00000100
00000000
00000010
00001000
00000001
00000000
00001000
00000100
00000010
00000000
,
00000001
00000100
00001000
00010000
01000000
10000000
00100000
00000000
00000000
01000000
00000000
00000000
,
00010000
10000000
01000000
00100000
00010000
01000000
00100000
00010000
,
00001000
00100000
00001000
00000010
00000001
00001000
00001001
00000000
,
00001000
00000100
00000010
00000000
00000100
00001000
00000001
00000000
00000100
00000001
00001000
00000000
00000001
00000010
00000100
00000000
,
00000010
00000100
00001000
00000000
00000100
00010000
00001000
00000000
00010000
00001000
01000000
00000000
00010000
01000000
00100000
00000000
,
10000000
00010000
01000000
00000000
00100000
10000000
00010000
00000000
10000000
01000000
00100000
00000000
01000000
00100000
00010000
00000000
,
10000000
00100000
00010000
00001000
00010000
00000100
00000010
00000000
,
00000011
00000000
00000000
00000000
00000001
00000100
00000010
00000000
00000100
00000010
00001000
00000000
00000010
00010000
00001000
00000000
,
00010000
00001000
00100000
00000000
00010000
00100000
01000000
00000000
00100000
01000000
10000000
00000000
00010000
01000000
00100000
00000000
,
10000000
01000000
00100000
00000000
00010000
01000000
00001000
00000000
00100000
00001000
00010000
00000000
00001000
00010000
00000100
00000000
,
00001000
00000010
00000010
00000010
00000110
00000000
00001010
00000000
,
00001000
00000001
00000000
00000010
00000000
00000100
00000000
00001000
,
00000000
00000010
00000000
00010000
00000000
00001000
00000000
00010000
,
00000000
01000000
00000000
10000000
00000000
00100000
00000000
10000000
,
00000000
00010000
00000000
00001000
00000000
00000001
00000000
00001000
,
00000010
00001000
00000010
00010000
00001000
00100000
00010000
00100000
,
01000000
10000000
00010000
00100000
01000000
10000000
00100000
00020000
,
00030000
00000000
00000001
00000010
00000100
00001000
00000010
00010000
,
00001000
00010000
01000000
10000000
00100000
00010000
00001000
00000100
,
00000010
00000000
00001000
00000000
00000001
00000100
00000010
00000000
00001000
00000000
00000100
00000000
00010000
00001000
00100000
00000000
,
00010000
00000000
10000000
00000000
01000000
00100000
00010000
00000000
01000000
00000000
00001000
00000000
00010000
00000100
00001000
00000000
,
00000001
00000000
00000100
00000000
00000010
00001000
00000001
00000000
00000010
00000000
00000100
00000000
00001000
00000100
00010000
00000000
,
00001000
00000000
01000000
00000000
00010000
00100000
00001000
00000000
00010000
00000000
00000100
00000000
00001000
00000000
00000000
00000000
,
00001100
00000100
00010100
00010000
00011000
00001000
00101000
00100000
,
00110000
00010000
10010000
10000000
10100000
00100000
01100000
01000000
,
00010000
10000000
00010000
10000000
01000000
00100000
00010000
10000000
00010000
10000000
00100000
01000000
00010000
10000000
01000000
00100000
,
00010000
00001000
00000001
00000100
,
00000110
00000000
00000000
00000000
00000001
00001000
00000010
00000000
00000100
00000001
00001000
00000000
00000001
00000010
00000100
00000000
,
00001000
00000001
00000100
00000000
00000010
00010000
00001000
00000000
00010000
00001000
01000000
00000000
00010000
00100000
01000000
00000000
,
10000000
00010000
01000000
00000000
00100000
10000000
00010000
00000000
10000000
01000000
00100000
00000000
00010000
00100000
00001000
00000000
,
00010000
00000100
00001000
00000000
00000100
00000010
00000001
00000000
00001000
00000001
00000100
00000000
00000010
00001000
00000001
00000000
,
00000100
00000001
00000010
00000000
00000100
00001000
00000010
00000000
00010000
00001000
01000000
00000000
00010000
00100000
01000000
00000000
,
10000000
00010000
01000000
00000000
00100000
10000000
00010000
00000000
10000000
01000000
00100000
00000000
00001000
00010000
00000100
00000000
,
00001000
00000100
00000010
00000000
00000001
00000100
00000010
00000000
00001000
00000001
00000100
00000000
00000001
00000010
00000100
00000000
,
00010000
00000000
00001000
00010000
01000000
00000000
11000000
00000000
,
00010000
00000000
00010000
00000000
00010000
00000000
00000000
00000000
10000000
00100000
01000000
00000000
00010000
00100000
00001000
00000000
,
00010000
00000100
00001000
00000000
00000010
00000100
00000001
00000000
00000010
00000100
00001000
00000000
00000010
00010000
00001000
00000000
,
01000000
00010000
00100000
00000000
01000000
10000000
00010000
00000000
10000000
01000000
00100000
00000000
00001000
00010000
00000100
00000000
,
00010000
00001000
00000010
00000000
00000100
00001000
00000001
00000000
00000100
00000010
00001000
00000000
00000100
00010000
00001000
00000000
,
00010000
00001000
01000000
00000000
00001000
00010000
00100000
00000000
01000000
00010000
10000000
00000000
01000000
00100000
00010000
00000000
,
10000000
01000000
00010000
00000000
00001000
00100000
00010000
00000000
00100000
00001000
00010000
00000000
00000100
00010000
00001000
00000000
,
00000010
00000100
00001000
00000000
00000001
00000100
00000010
00000000
00001000
00000001
00000010
00000000
00000001
00000100
00001000
00000000
,
00010000
00000000
00100000
00000000
01000000
00000000
01000000
00000000
00010000
10000000
00010000
10000000
00100000
00000000
00000000
00000000
,
10010000
00000000
00000000
00000000
10000000
01000000
00100000
00000000
00001000
00010000
00000100
00000000
00000010
00000001
00001000
00000000
,
00000001
00000100
00000010
00000000
00010000
00001000
01000000
00000000
00010000
10000000
01000000
00000000
00100000
00001000
00010000
00000000
,
00000100
00001000
00000001
00000000
00000010
00000100
00001000
00000000
00000010
00010000
00001000
00000000
01000000
00100000
10000000
00000000
,
01000000
10000000
00100000
00000000
01000000
00010000
00100000
00000000
01000000
10000000
00100000
00000000
01000000
00010000
00100000
00000000
,
01000000
00000000
00000000
00000000
10000000
01000000
00100000
00000000
00001000
00010000
00000010
00000000
00000100
00000001
00001000
00000000
,
00000001
00000010
00000100
00001000
00000010
00010000
00001000
00000000
00000000
00011000
00000000
00000000
,
00010000
01000000
10000000
01000000
00010000
00001000
00010000
00100000
,
10000000
00100000
00010000
00001000
00010000
01000000
10000000
00000000
,
00010000
00000000
00010000
00000000
00010000
00000000
00000000
00000000
10000000
01000000
00010000
00000000
00001000
00010000
00000100
00000000
,
00000010
00000001
00001000
00000000
00000001
00000100
00001000
00000000
00010000
00001000
01000000
00000000
00100000
10000000
00010000
00000000
,
10000000
01000000
00100000
00000000
00010000
10000000
01000000
00000000
00010000
00001000
00000010
00000000
00000001
00001000
00000100
00000000
,
00000010
00000001
00001000
00000000
00000001
00000100
00001000
00000000
00010000
00100000
10000000
00000000
00010000
01000000
00100000
00000000
,
10000000
00000000
00000000
00000000
10000000
01000000
00010000
00000000
00001000
00000010
00000001
00000000
00000001
00000100
00001000
00000000
,
00010000
00000000
00100000
00000000
10000000
00000000
00100000
00000000
00010000
00000000
00001000
00000000
00010000
00000100
00000010
00000000
,
00000000
00000000
00000000
00000000
;
