
//----- song ID: liva -----//
#TITLE:LIKE A VAMPIRE;
#ARTIST:koyomi,星野奏子 by BEMANI Sound Team "TAKA";
#ARTISTTRANSLIT:koyomi, Kanako Hoshino by BEMANI Sound Team "TAKA";
#BANNER:LIKE A VAMPIRE.png;
#BACKGROUND:LIKE A VAMPIRE-bg.png;
#CDTITLE:./CDTitles/BEMANI 2021 manatsu no utagassen 5 ban shoubu.png;
#MUSIC:LIKE A VAMPIRE.ogg;
#SAMPLESTART:56.495;
#SAMPLELENGTH:15;
#BPMS:0=276;
#NOTES:
     dance-single:
     :
     Beginner:
     3:
     :
0000
0000
0000
0000
,
0000
0000
0000
0000
,
0000
0000
0000
0000
,
0000
0000
0000
0000
,
0000
0000
0000
0000
,
0000
0000
0000
0000
,
0000
0000
0000
0000
,
0000
0000
0000
0000
,
0000
0000
0000
0000
,
0001
0000
0000
0000
,
0010
0000
0000
0000
,
0001
0000
0000
0000
,
0010
0000
0000
0000
,
0100
0000
0000
0000
,
1000
0000
0000
0000
,
0100
0000
0000
0000
,
1000
0000
0000
0000
,
0010
0000
0000
0000
,
1000
0000
0000
0000
,
0100
0000
0000
0000
,
1000
0000
0000
0000
,
0010
0000
0000
0000
,
0100
0000
0000
0000
,
0001
0000
0000
0000
,
0010
0000
0000
0000
,
0002
0000
0000
0000
,
0003
0000
0000
0000
,
0001
0000
0001
0000
,
0001
0000
0000
0000
,
2000
0000
0000
0000
,
3000
0000
0000
0000
,
1000
0000
1000
0000
,
1000
0000
0000
0000
,
0100
0000
0000
0000
,
0010
0000
0000
0000
,
1000
0000
0000
0000
,
0010
0000
0000
0000
,
0100
0000
0000
0000
,
0001
0000
0000
0000
,
0010
0000
0000
0000
,
0001
0000
0000
0000
,
0200
0000
0000
0000
,
0300
0000
0000
0000
,
0100
0000
0100
0000
,
0100
0000
0000
0000
,
0020
0000
0000
0000
,
0030
0000
0000
0000
,
0010
0000
0010
0000
,
0010
0000
0000
0000
,
1000
0000
0000
0000
,
0010
0000
0000
0000
,
0100
0000
0000
0000
,
0001
0000
0000
0000
,
0001
0000
0001
0000
,
0001
0000
0000
0000
,
1000
0000
1000
0000
,
1000
0000
0000
0000
,
0001
0000
0000
0000
,
0010
0000
0000
0000
,
0100
0000
0000
0000
,
1000
0000
0000
0000
,
0010
0000
0000
0000
,
0100
0000
0000
0000
,
1001
0000
0000
0000
,
0000
0000
0000
0000
,
0001
0000
0000
0000
,
0010
0000
0000
0000
,
0100
0000
0100
0000
,
0100
0000
0000
0000
,
0001
0000
0000
0000
,
0100
0000
0000
0000
,
2000
0000
0000
0000
,
3000
0000
0000
0000
,
1000
0000
0000
0000
,
0010
0000
0000
0000
,
0100
0000
0100
0000
,
0100
0000
0000
0000
,
1000
0000
0000
0000
,
0100
0000
0000
0000
,
0001
0000
0000
0000
,
0000
0000
0000
0000
,
0001
0000
0000
0000
,
0100
0000
0000
0000
,
0010
0000
0010
0000
,
0010
0000
0000
0000
,
1000
0000
0000
0000
,
0010
0000
0000
0000
,
1000
0000
1000
0000
,
1000
0000
0000
0000
,
0100
0000
0000
0000
,
0001
0000
0000
0000
,
0010
0000
0000
0000
,
0001
0000
0000
0000
,
1000
0000
0000
0000
,
0010
0000
0000
0000
,
0200
0000
0000
0000
,
0300
0000
0000
0000
,
0010
0000
0010
0000
,
0010
0000
0000
0000
,
2002
0000
0000
0000
,
3003
0000
0000
0000
,
0100
0000
0100
0000
,
0100
0000
0000
0000
,
2002
0000
0000
0000
,
3003
0000
0000
0000
,
1000
0000
0000
0000
,
0010
0000
0000
0000
,
0001
0000
0000
0000
,
0010
0000
0000
0000
,
1000
0000
0000
0000
,
0100
0000
0000
0000
,
0001
0000
0000
0000
,
0000
0000
0000
0000
,
1001
0000
0000
0000
,
0000
0000
0000
0000
,
0000
0000
0000
0000
,
0000
0000
0000
0000
,
1000
0000
0010
0000
,
1000
0000
0000
0000
,
0100
0000
1000
0000
,
0100
0000
0000
0000
,
1000
0000
0000
0000
,
0010
0000
0000
0000
,
0100
0000
0000
0000
,
0001
0000
0000
0000
,
0001
0000
0010
0000
,
0001
0000
0000
0000
,
0100
0000
0001
0000
,
0100
0000
0000
0000
,
0001
0000
0000
0000
,
0010
0000
0000
0000
,
0100
0000
0000
0000
,
1000
0000
1001
0000
,
0000
0000
0000
0000
;
#NOTES:
     dance-single:
     :
     Easy:
     7:
     :
0000
0000
0000
0000
,
0000
0000
0000
0000
,
0000
0000
0000
0000
,
0000
0000
0000
0000
,
0000
0000
0000
0000
,
0000
0000
0000
0000
,
0000
0000
0000
0000
,
0000
0000
0000
0000
,
0000
0000
0000
0000
,
0001
0000
1000
0000
,
0100
0000
0010
0000
,
0001
0000
1000
0000
,
0100
0010
0100
0000
,
1000
0000
0001
0000
,
0100
0000
0010
0000
,
1000
0000
0001
0000
,
0100
0010
0100
0000
,
0002
0000
0000
0000
,
0010
0000
1003
0000
,
2000
0000
0000
0000
,
0010
0000
3001
0000
,
0002
0000
0000
0000
,
0100
0000
1003
0000
,
2000
0000
0000
0000
,
0100
0000
3001
0000
,
0010
0000
0100
0000
,
1000
0000
0001
0000
,
0010
0000
0100
0000
,
1000
0001
1000
0000
,
0010
0000
0100
0000
,
0001
0000
1000
0000
,
0010
0000
0100
0000
,
0001
1000
0001
0000
,
0020
0000
0000
0000
,
0001
0000
0130
0000
,
0200
0000
0000
0000
,
0001
0000
0310
0000
,
0020
0000
0000
0000
,
1000
0000
0130
0000
,
0200
0000
0000
0000
,
0010
0000
1300
0000
,
0001
0000
0100
0000
,
1000
0000
0100
0000
,
0001
0000
0100
0000
,
0010
1000
0010
0000
,
1000
0000
0100
0000
,
0001
0000
0100
0000
,
1000
0000
0100
0000
,
0010
0001
0010
0000
,
1000
0000
1000
0000
,
0100
0000
0100
0000
,
0010
0000
0010
0000
,
0010
0000
0000
0000
,
1001
0000
0000
0000
,
1001
0000
0000
0000
,
0010
0000
0100
0000
,
0010
0100
0010
0000
,
0001
0000
0001
0000
,
0010
0000
0010
0000
,
0100
0000
0100
0000
,
0100
0000
0000
0000
,
1001
0000
0000
0000
,
1001
0000
0000
0000
,
0100
0000
0010
0000
,
0100
0010
0100
0000
,
0001
0000
0001
0000
,
0010
0000
0010
0000
,
1000
0000
1000
0000
,
0100
0000
0100
0000
,
0001
0000
0001
0000
,
0100
0000
0100
0000
,
1000
0000
1000
0000
,
2000
0000
3000
0000
,
1000
0000
1000
0000
,
0010
0000
0010
0000
,
0001
0000
0001
0000
,
0100
0000
0100
0000
,
1000
0000
1000
0000
,
0100
0000
0100
0000
,
0001
0000
0001
0000
,
0002
0000
0003
0000
,
1000
0000
0001
0000
,
1000
0001
1000
0000
,
0010
0000
0020
0000
,
0000
0000
0030
0000
,
0001
0000
1000
0000
,
0001
1000
0001
0000
,
0100
0000
0200
0000
,
0000
0000
0300
0000
,
0010
1000
0010
0000
,
2020
0000
3030
0000
,
0001
0100
0001
0000
,
0202
0000
0303
0000
,
0010
0001
0010
0000
,
0100
1000
0100
0000
,
1000
0000
0000
0001
0000
0000
2002
0000
,
0000
0000
3003
0000
,
0001
0000
0010
0000
,
0100
0000
1000
0000
,
0001
0000
0002
0000
,
0000
0000
0003
0000
,
1000
0000
0010
0000
,
0100
0000
0001
0000
,
1000
0000
2000
0000
,
0000
0000
3000
0000
,
1000
0000
0010
0000
,
1000
0000
0010
0000
,
0001
0000
0010
0000
,
0001
0000
0010
0000
,
1000
0000
0010
0000
,
1000
0000
0100
0000
,
1000
0000
0000
0001
0000
0000
1000
0000
,
0000
0000
0000
0000
,
2002
0000
0000
0000
,
0000
0000
0000
0000
,
0000
0000
0000
0000
,
3003
0000
0000
0000
,
0010
0000
0010
0000
,
0100
0000
0100
0000
,
0001
1000
0001
0000
,
1000
0001
1000
0000
,
0001
0000
0010
0000
,
1000
0000
0100
0000
,
0001
0000
0010
0000
,
1000
0000
0100
0000
,
0001
0000
0001
0000
,
1000
0000
1000
0000
,
0100
0010
0100
0000
,
0010
0100
0010
0000
,
0001
0000
0100
0000
,
1000
0000
0010
0000
,
0001
0000
0100
0000
,
1000
0000
0020
0000
,
0000
0000
0000
0000
,
0000
0000
0000
0000
,
0000
0000
0000
0000
,
0000
0000
0000
0000
,
0000
0000
0000
0000
,
0030
0000
0000
0000
,
0000
0000
0000
0000
;
#NOTES:
     dance-single:
     :
     Medium:
     10:
     :
0000
0000
0000
0000
,
0000
0000
0000
0000
,
0000
0000
0000
0000
,
0000
0000
0000
0000
,
0000
0000
0000
0000
,
0000
0000
0000
0000
,
0000
0000
0000
0000
,
0000
0000
0000
0000
,
0000
0000
0000
0000
,
0001
0000
0100
0000
0010
0000
0000
0010
,
0000
0000
0100
0000
0001
0000
0000
0001
,
0000
0000
1000
0000
0100
0000
0000
0100
,
0000
0010
0100
1000
,
0001
0000
0010
0000
0100
0000
0000
0100
,
0000
0000
1000
0000
0010
0000
0000
0010
,
0000
0000
0100
0000
0001
0000
0000
0001
,
0100
0000
0010
0000
1000
0001
0000
0000
,
2001
0000
0100
0000
,
0001
0001
3001
0000
,
1002
0000
0100
0000
,
1000
1000
1003
0000
,
2010
0000
3001
0000
,
0012
0000
1003
0000
,
0100
0010
1000
0000
,
0100
0010
0001
0000
,
0001
0100
0001
0100
,
0001
1000
0001
0000
,
0001
1000
0001
1000
,
0001
0010
0001
0000
,
1000
0100
1000
0100
,
1000
0001
1000
0000
,
1000
0001
1000
0001
,
1000
0010
1000
0000
,
1020
0000
0001
0000
,
0100
0100
0130
0000
,
0201
0000
1000
0000
,
0010
0010
0310
0000
,
0200
0000
0301
0000
,
0020
0000
1030
0000
,
0100
0010
1000
0000
,
0100
0010
0001
0000
,
0100
0001
0100
0001
,
0100
0010
0100
0000
,
0010
1000
0010
1000
,
0010
0100
0010
0000
,
1000
0100
1000
0100
,
0010
0001
0010
0000
,
0001
0100
0001
0100
,
0001
1000
0001
1000
,
0000
1000
0100
1000
,
0010
0000
0000
0010
0000
0000
0001
0000
,
0100
0000
0000
0100
0000
0000
2000
0000
,
0000
0010
0000
3100
,
0010
0010
1001
0000
,
0010
0010
1001
0000
,
0010
0100
0010
0100
,
0001
1000
0001
1000
,
0000
0001
0100
0001
,
0010
0000
0000
0010
0000
0000
1000
0000
,
0100
0000
0000
0100
0000
0000
0002
0000
,
0000
0010
0000
0103
,
0100
1001
0000
0100
,
0100
1001
0000
0001
,
0010
1000
0010
0002
,
0000
1000
1003
0000
,
1000
0000
0100
0000
0010
0000
0000
0001
,
0000
1000
0000
0000
0001
0000
0000
0000
,
0100
0000
0010
0000
1000
0000
0000
0001
,
0000
1000
0000
0000
0001
0000
0000
0000
,
0100
0000
0010
0000
1000
0000
0000
0100
,
0000
0010
0000
0000
0001
0000
0000
0000
,
0100
0000
0000
0100
0000
0000
0200
0000
,
0000
0010
0000
0310
,
1000
0000
0010
0000
0100
0000
0000
0001
,
0000
0010
0000
0000
0001
0000
0000
0000
,
0100
0000
0010
0000
1000
0000
0000
0100
,
0000
1000
0000
0000
0100
0000
0000
0000
,
0010
0001
1000
0000
,
0010
1000
0001
0000
,
1000
0000
0000
0001
0000
0000
2002
0000
,
0000
0000
3003
0000
,
0100
0010
0100
0010
,
1000
0000
0010
0000
1000
0000
0000
0002
,
0000
0000
0010
0000
,
1000
0000
0103
0000
,
0010
0100
0010
0100
,
0010
0001
0010
0000
,
2000
0000
0100
0000
,
0001
0000
3010
0100
,
0010
0000
0000
0010
0000
0000
0010
0000
,
0000
1000
0001
0000
,
0010
0000
0000
0010
0000
0000
0010
0000
,
0000
0001
1000
0000
,
0001
0100
1000
0000
,
1000
0100
0001
0000
,
0010
0000
0000
0010
0000
0000
0020
0000
,
0000
0000
0030
0000
,
0100
1000
0010
0100
,
0001
0010
0100
1000
,
0001
0000
0000
0002
0000
0000
0000
0000
,
0000
0100
0103
0000
,
0010
0001
0100
0010
,
1000
0100
0010
0001
,
1000
0000
2002
0000
,
0000
0000
3003
0100
,
1000
0000
0000
1000
0000
0000
2020
0000
,
0000
0000
3030
0100
,
0001
0000
0000
0001
0000
0000
0022
0000
,
0000
0000
0033
0001
,
0100
0000
0000
0010
0000
0000
1000
0000
,
0100
0000
0000
0010
0000
0000
0001
0000
,
1000
0000
0000
0001
0000
0000
2000
0000
,
0000
0000
0000
3000
,
0220
0000
0000
0000
,
0000
0000
0000
0000
,
0000
0000
0000
0000
,
0000
0000
0000
0330
,
0010
1000
0010
0001
,
0010
1000
0010
0000
,
0100
1000
0100
0001
,
0100
1000
0100
0000
,
0001
0010
0100
0000
,
1000
0010
0100
0000
,
0001
1000
0001
1000
,
0100
0010
0100
0000
,
0010
0001
0010
1000
,
0010
0001
0010
0000
,
0100
0001
0100
1000
,
0100
0001
0100
0000
,
1000
0010
0100
0000
,
0001
0010
0100
0000
,
1000
0001
1000
0001
,
0100
0000
0010
0000
0100
0020
0000
0000
,
0000
0000
0000
0000
,
0000
0000
0000
0000
,
0000
0000
0000
0000
,
0000
0000
0000
0000
,
0000
0000
0000
0000
,
0030
0000
0000
0000
,
0000
0000
0000
0000
;
#NOTES:
     dance-single:
     :
     Hard:
     13:
     :
0000
0000
0000
0000
,
0000
0000
0000
0000
,
0000
0000
0000
0000
,
0000
0000
0000
0000
,
0000
0000
0000
0000
,
0000
0000
0000
0000
,
0000
0000
0000
0000
,
0000
0000
0000
0000
,
0000
0000
0000
0000
,
0001
0000
0010
0000
0100
0000
1000
0010
,
0000
0010
1000
0000
0100
0000
0010
0001
,
0000
0001
0010
0000
0100
0000
1000
0010
,
0000
0100
0101
1001
,
1000
0000
0100
0000
0010
0000
0001
0100
,
0000
0100
0001
0000
0010
0000
0100
1000
,
0000
1000
0100
0000
0010
0000
0001
0000
,
0010
0100
0010
0000
0001
0000
1000
0000
,
0100
0000
0001
0000
0100
0000
1000
0010
,
0000
0010
0000
0010
0100
0000
0100
0000
,
0001
0000
0100
0000
1000
0000
0100
0001
,
0000
0001
0010
0000
0100
0000
0100
0000
,
1000
0000
0010
0000
0100
0000
0001
1000
,
0000
1000
0000
1000
0001
0000
0010
0000
,
0100
0000
1000
0000
0010
0000
0100
0010
,
0000
0100
0010
0000
1000
0000
0001
0000
,
1000
0000
0010
0000
0100
0001
0100
0000
,
0001
0000
0010
0000
0100
1000
0100
0000
,
1000
0000
0001
0000
0100
0010
0100
0000
,
0010
1000
0100
0001
,
0010
0000
0100
0000
1000
0010
1000
0000
,
0001
0000
0100
0000
0001
0010
0001
0000
,
1000
0000
0100
0000
0010
0001
0100
0000
,
0001
1000
0001
0000
1000
0001
0000
0000
,
0010
0000
1000
0000
0010
0000
0001
0100
,
0000
0100
0000
0100
0010
0000
0010
0000
,
1000
0000
0010
0000
0001
0000
0010
1000
,
0000
1000
0000
1000
0100
0000
0010
0000
,
0001
0000
0100
0000
0010
0000
1000
0001
,
0000
0001
0000
0001
1000
0000
0100
0000
,
0010
0000
0001
0000
0100
0000
0010
0100
,
0000
0010
0100
0000
0001
0000
1000
0000
,
0001
0000
0100
0000
0010
1000
0010
0000
,
1000
0000
0100
0000
0010
0001
0010
0000
,
0001
0000
1000
0000
0010
0100
0010
0000
,
0100
0001
0010
1000
,
0100
0000
0010
0000
0001
0100
0001
0000
,
1000
0000
0010
0000
1000
0100
1000
0000
,
0001
0000
0010
0000
0100
1000
0010
0000
,
1000
0001
1000
0000
0001
1000
0001
0000
,
0000
0000
0010
0100
0010
0000
0100
0000
,
2000
0000
0000
3200
0000
0000
0301
0000
,
2000
0000
0000
3020
0000
0000
0032
0000
,
0000
0010
0000
0103
,
0010
0000
1000
0000
1000
0100
0010
0000
,
0010
0000
0001
0000
0001
0100
0010
0000
,
0010
1000
0100
0001
,
1000
0010
0001
0100
,
0000
0000
0100
0010
0100
0000
0100
0000
,
0002
0000
0000
0203
0000
0000
1300
0000
,
0002
0000
0000
0023
0000
0000
2030
0000
,
0000
0010
0000
3100
,
0010
1001
0000
0100
,
0010
1001
0000
0100
,
0001
0100
1000
0001
,
0000
0001
0010
0100
,
1000
0000
0001
0100
0001
0000
0010
0100
,
0000
0010
0000
0100
0010
0000
0001
0000
,
1000
0000
0001
0010
0001
0000
0100
0010
,
0000
0100
0000
0010
0100
0000
0001
0000
,
1000
0000
0100
0000
0001
0000
0100
1000
,
0000
0001
0000
1000
0001
0000
0100
0000
,
0020
0000
0000
2030
0000
0000
0002
0000
,
3003
0000
1000
0001
1000
0001
1000
0000
,
0001
0000
1000
0010
1000
0000
0100
0010
,
0000
0100
0000
0010
0100
0000
1000
0000
,
0001
0000
1000
0100
1000
0000
0010
0100
,
0000
0010
0000
0100
0010
0000
1000
0000
,
0001
0000
0010
0000
1000
0000
0010
0001
,
0000
1000
0000
0001
1000
0000
0010
0000
,
0200
0000
0000
0302
0000
0000
2000
0000
,
3003
1000
1001
0000
,
0010
0000
1000
0000
0100
0000
0010
0001
,
0000
0100
0001
0000
0010
0000
0100
0000
,
2000
0000
0000
0002
0000
0000
0000
0000
,
3003
0000
0001
1000
0001
0000
0001
0000
,
0010
0000
0001
0000
0100
0000
0010
1000
,
0000
0100
1000
0000
0010
0000
0100
0000
,
0002
0000
2000
0000
,
0000
0000
3003
1000
,
0010
0000
0000
0100
0000
0000
0100
0000
,
1000
0100
1000
0000
0001
0010
0001
0000
,
0010
0000
0000
0100
0000
0000
0100
0000
,
0001
0100
0001
0000
1000
0010
1000
0000
,
0010
0000
0000
1000
0000
0000
1000
0000
,
0100
0000
0000
0001
0000
0000
0001
0000
,
0010
0000
0000
0010
0000
0000
0010
0000
,
0000
1000
0001
1000
0001
0000
1000
0000
,
0010
0000
0100
0000
0001
0000
0010
0100
,
0000
0010
0100
0000
1000
0000
0001
0000
,
0100
1000
0100
0001
,
0010
1000
0010
0001
,
0100
0000
0010
0000
1000
0000
0100
0010
,
0000
0100
0010
0000
0001
0000
1000
0000
,
0010
0001
0010
1000
,
0100
0010
0001
0100
,
0010
0000
0000
1000
0000
0000
1000
0000
,
0100
0001
0100
0000
0010
1000
0010
0000
,
0100
0000
0000
0001
0000
0000
0001
0000
,
0100
1000
0100
0000
0010
0001
0010
0000
,
0100
0000
0000
1000
0000
0000
0010
0000
,
0100
0000
0000
0001
0000
0000
0010
0000
,
0100
0000
0000
1000
0000
0000
2002
0000
,
0000
0000
0000
3003
,
0200
0000
0000
0000
,
0000
0000
0000
0000
,
0000
0000
0000
0000
,
0010
0010
0010
0310
,
0001
0000
0100
0000
0010
1000
0100
0000
,
1000
0000
0100
0000
0010
0001
0100
0000
,
0001
0010
0100
0000
1000
0000
0010
0000
,
0100
0001
1000
0000
0001
0000
0100
0000
,
0010
0000
0100
0000
0001
0010
0001
0000
,
0010
0100
0010
0000
0100
1000
0100
0000
,
1000
0000
0010
1000
0010
0000
0100
0000
,
0010
0100
0001
0000
,
1000
0000
0010
0000
0100
0001
0010
0000
,
0001
0000
0010
0000
0100
1000
0010
0000
,
1000
0100
0010
0000
0001
0000
0100
0000
,
0010
1000
0001
0000
1000
0000
0010
0000
,
0100
0000
0010
0000
1000
0100
1000
0000
,
0100
0010
0100
0000
0010
0001
0010
0000
,
0002
1000
0000
0103
,
0010
1000
0100
0010
0001
0200
0000
0000
,
0000
0000
0000
0000
,
0000
0000
0000
0000
,
0000
0000
0000
0000
,
0000
0000
0000
0000
,
0000
0000
0000
0000
,
0300
0000
0000
0000
,
0000
0000
0000
0000
;
#NOTES:
     dance-double:
     :
     Easy:
     7:
     :
00000000
00000000
00000000
00000000
,
00000000
00000000
00000000
00000000
,
00000000
00000000
00000000
00000000
,
00000000
00000000
00000000
00000000
,
00000000
00000000
00000000
00000000
,
00000000
00000000
00000000
00000000
,
00000000
00000000
00000000
00000000
,
00000000
00000000
00000000
00000000
,
00000000
00000000
00000000
00000000
,
00100000
00000000
10000000
00000000
,
00100000
00000000
01000000
00000000
,
00010000
00000000
00100000
00000000
,
00001000
00010000
00001000
00000000
,
00010000
00000000
00000010
00000000
,
00001000
00000000
00000010
00000000
,
00000100
00000000
00000001
00000000
,
00001000
00000001
00001000
00000000
,
00000020
00000000
00000000
00000000
,
00000100
00000000
00000130
00000000
,
00002000
00000000
00000000
00000000
,
00010000
00000000
00013000
00000000
,
00200000
00000000
00000000
00000000
,
01000000
00000000
01300000
00000000
,
00020000
00000000
00000000
00000000
,
10000000
00000000
10030000
00000000
,
10000000
00000000
01000000
00000000
,
00100000
00000000
00010000
00000000
,
00001000
00000000
00000100
00000000
,
00000010
00000100
00000010
00000000
,
00000001
00000000
00000100
00000000
,
00000010
00000000
00001000
00000000
,
00010000
00000000
01000000
00000000
,
00100000
01000000
00100000
00000000
,
02000000
00000000
00000000
00000000
,
00100000
00000000
03100000
00000000
,
00020000
00000000
00000000
00000000
,
00001000
00000000
00031000
00000000
,
00000200
00000000
00000000
00000000
,
00000010
00000000
00000310
00000000
,
00002000
00000000
00000000
00000000
,
00000001
00000000
00003001
00000000
,
00000001
00000000
00000010
00000000
,
00000100
00000000
00001000
00000000
,
00010000
00000000
00100000
00000000
,
01000000
00100000
01000000
00000000
,
10000000
00000000
00100000
00000000
,
01000000
00000000
00010000
00000000
,
00001000
00000000
00000010
00000000
,
00000100
00000010
00000100
00000000
,
00000001
00000000
00000100
00000000
,
00000001
00000000
00000100
00000000
,
00001000
00000000
00010000
00000000
,
00001000
00000000
00000000
00000000
,
00011000
00000000
00000000
00000000
,
00011000
00000000
00000000
00000000
,
00001000
00000000
00010000
00000000
,
01000000
00100000
01000000
00000000
,
10000000
00000000
00100000
00000000
,
10000000
00000000
00100000
00000000
,
00010000
00000000
00001000
00000000
,
00010000
00000000
00000000
00000000
,
00011000
00000000
00000000
00000000
,
00011000
00000000
00000000
00000000
,
00000100
00000000
00001000
00000000
,
00000001
00000010
00000001
00000000
,
00000100
00000000
00000100
00000000
,
00001000
00000000
00001000
00000000
,
00010000
00000000
00010000
00000000
,
00100000
00000000
00100000
00000000
,
01000000
00000000
00001000
00000000
,
00010000
00000000
00000010
00000000
,
00010000
00000000
00001000
00000000
,
02000000
00000000
03000000
00000000
,
01000000
00000000
01000000
00000000
,
00010000
00000000
00010000
00000000
,
00001000
00000000
00001000
00000000
,
00000010
00000000
00000010
00000000
,
00001000
00000000
00000100
00000000
,
00010000
00000000
00001000
00000000
,
01000000
00000000
00010000
00000000
,
00020000
00000000
00030000
00000000
,
10000000
00000000
01000000
00000000
,
00010000
00000000
00001000
00000000
,
00000010
00000000
00000220
00000000
,
00000000
00000000
00000330
00000000
,
00000001
00000000
00000100
00000000
,
00001000
00000000
00010000
00000000
,
00100000
00000000
02200000
00000000
,
00000000
00000000
03300000
00000000
,
01000000
00010000
01000000
00000000
,
00001000
00100000
00001000
00000000
,
00010000
00000100
00010000
00000000
,
00000010
00001000
00000010
00000000
,
00000100
00000000
00001000
00000000
,
00010000
00000000
00100000
00000000
,
01000000
00000000
00000000
01000000
00000000
00000000
02000000
00000000
,
00000000
00000000
03000000
00000000
,
00100000
10000000
01000000
00000000
,
00100000
00000000
00010000
00000000
,
00100000
00000000
00002000
00000000
,
00000000
00000000
00003000
00000000
,
00000010
00000001
00000100
00000000
,
00000010
00000000
00001000
00000000
,
00000010
00000000
00020000
00000000
,
00000000
00000000
00030000
00000000
,
00001000
00000000
00100000
00000000
,
01000000
00010000
01000000
00000000
,
00010000
00000000
00001000
00000000
,
00000010
00000100
00000010
00000000
,
00000100
00000000
00001000
00000000
,
00010000
00000000
00100000
00000000
,
01000000
00000000
00000000
00100000
00000000
00000000
01000000
00000000
,
00000000
00000000
00000000
00000000
,
20020000
00000000
00000000
00000000
,
00000000
00000000
00000000
00000000
,
00000000
00000000
00000000
00000000
,
30030000
00000000
00000000
00000000
,
10000000
00000000
10000000
00000000
,
01000000
00000000
01000000
00000000
,
00100000
00001000
00010000
00000000
,
00000010
00010000
00001000
00000000
,
00000100
00000000
00000100
00000000
,
00000001
00000000
00000001
00000000
,
00000010
00000100
00000010
00000100
,
00000020
00000000
00000030
00000000
,
00000001
00000000
00000001
00000000
,
00000010
00000000
00000010
00000000
,
00000100
00010000
00001000
00000000
,
01000000
00001000
00010000
00000000
,
00100000
00000000
00100000
00000000
,
10000000
00000000
10000000
00000000
,
01000000
00100000
01000000
00000000
,
00100000
01000000
00200000
00000000
,
00000000
00000000
00000000
00000000
,
00000000
00000000
00000000
00000000
,
00000000
00000000
00000000
00000000
,
00000000
00000000
00000000
00000000
,
00000000
00000000
00000000
00000000
,
00300000
00000000
00000000
00000000
,
00000000
00000000
00000000
00000000
;
#NOTES:
     dance-double:
     :
     Medium:
     10:
     :
00000000
00000000
00000000
00000000
,
00000000
00000000
00000000
00000000
,
00000000
00000000
00000000
00000000
,
00000000
00000000
00000000
00000000
,
00000000
00000000
00000000
00000000
,
00000000
00000000
00000000
00000000
,
00000000
00000000
00000000
00000000
,
00000000
00000000
00000000
00000000
,
00000000
00000000
00000000
00000000
,
10000000
00000000
00100000
00000000
10000000
00000000
00000000
01000000
,
00000000
00000000
00100000
00000000
01000000
00000000
00000000
00100000
,
00000000
00000000
00010000
00000000
00100000
00000000
00000000
00001000
,
00000000
00010000
00001000
00000000
,
00010000
00000000
00000100
00000000
00001000
00000000
00000000
00000010
,
00000000
00000000
00000100
00000000
00000010
00000000
00000000
00001000
,
00000000
00000000
00000001
00000000
00001000
00000000
00000000
00000001
,
00000000
00000100
00000010
00001000
,
00000200
00000000
00000010
00000000
,
00001000
00000000
00010300
00000000
,
00020000
00000000
00000010
00000000
,
00001000
00000000
00130000
00000000
,
00200000
00000000
00010000
00000000
,
01000000
00000000
10300000
00000000
,
20000000
00000000
00100000
00000000
,
00010000
00000000
31000000
00000000
,
10000000
00100000
01000000
00010000
,
00100000
00001000
00010000
00000000
,
00000100
00001000
00000010
00000000
,
00000100
00000001
00000010
00000000
,
00000001
00000100
00000010
00001000
,
00000100
00010000
00001000
00000000
,
01000000
00010000
00100000
00000000
,
01000000
10000000
00010000
00000000
,
00200000
00000000
01000000
00000000
,
00010000
00000000
00301000
00000000
,
00002000
00000000
01000000
00000000
,
00010000
00000000
00003100
00000000
,
00000200
00000000
00010000
00000000
,
00001000
00000000
00000301
00000000
,
00000002
00000000
00000100
00000000
,
00001000
00000000
00000013
00000000
,
00000001
00000100
00000010
00001000
,
00000100
00010000
00001000
00000000
,
00100000
00010000
01000000
00000000
,
00100000
10000000
01000000
00000000
,
10000000
00100000
01000000
00010000
,
00100000
00001000
00010000
00000000
,
00000010
00001000
00000100
00000000
,
00000010
00000001
00000100
00000000
,
00000000
00000100
00000010
00000100
,
00000010
00000000
00000000
00001000
00000000
00000000
00000100
00000000
,
00010000
00000000
00000000
00001000
00000000
00000000
00020000
00000000
,
00000000
00001000
00000000
01030000
,
00100000
00010000
00110000
00000000
,
10000000
01000000
11000000
00000000
,
00100000
00010000
00100000
00010000
,
00001000
00000100
00001000
00000100
,
00000000
00000010
00000100
00000010
,
00000001
00000000
00000000
00000100
00000000
00000000
00000001
00000000
,
00001000
00000000
00000000
00000100
00000000
00000000
00002000
00000000
,
00000000
00000010
00000000
00003100
,
00010000
00011000
00000000
00100000
,
00001000
00011000
00000000
00001000
,
00010000
00100000
00010000
00100000
,
10000000
00010000
10000000
00000000
,
00100000
00000000
01000000
00000000
00100000
00000000
00000000
10000000
,
00000000
00010000
00000000
00000000
00100000
00000000
01000000
00000000
,
00020000
00000000
00001000
00000000
,
00100000
00000000
00001000
00000000
,
00030100
00000000
00001000
00000000
00000010
00000000
00000000
00001000
,
00000000
00000001
00000000
00000000
00000100
00000000
00000000
00000000
,
00000020
00000000
00000001
00000000
,
00000100
00000000
00001030
00000000
,
00000010
00000000
00000100
00000000
00000010
00000000
00000000
00001000
,
00000000
00000001
00000000
00000000
00000001
00000000
00000100
00000000
,
00002000
00000000
00010000
00000000
,
00000010
00000000
00010000
00000000
,
01003000
00000000
00010000
00000000
00100000
00000000
00000000
00010000
,
00000000
10000000
00000000
00000000
01000000
00000000
00000000
00000000
,
00100000
00000000
00000000
01000000
00000000
00000000
02200000
00000000
,
00000000
00000000
03300000
00000000
,
10000000
01000000
00100000
00000000
,
00010000
01000000
00001000
00000000
,
00020000
00000000
00030010
00000000
,
00000020
00000000
00001030
00000000
,
00000001
00000100
00000010
00000000
,
00001000
00000100
00010000
00000000
,
00002000
00000000
00103000
00000000
,
00200000
00000000
00310000
00000000
,
00010000
00000000
00000000
01000000
00000000
00000000
00100000
00000000
,
10000000
01000000
10000000
00000000
,
01000000
00000000
00000000
00100000
00000000
00000000
00010000
00000000
,
00100000
00001000
00010000
00000000
,
00001000
00000100
00000001
00000000
,
00000001
00000010
00001000
00000000
,
00000010
00000000
00000000
00000010
00000000
00000000
00000020
00000000
,
00000000
00000000
00000030
00000000
,
00000001
00000100
00000001
00000100
,
00000010
00000100
00000010
00000000
,
00000100
00001000
00000100
00001000
,
00010000
00001000
00010000
00000000
,
00001000
00100000
00001000
00100000
,
00010000
00100000
00010000
00000000
,
10000000
01000000
10000000
01000000
,
00100000
01000000
00100000
00000000
,
00010000
00000000
00000000
00100000
00000000
00000000
00001000
00000000
,
00000000
00001000
00010000
00000000
,
00000010
00000000
00000000
00001000
00000000
00000000
00000100
00000000
,
00000000
00000100
00000010
00000000
,
00000001
00000000
00000000
00000100
00000000
00000000
00000100
00000000
,
00001000
00000000
00000000
00010000
00000000
00000000
00010000
00000000
,
00100000
00000000
00000000
01000000
00000000
00000000
02200000
00000000
,
00000000
00000000
00000000
03300000
,
20000000
00000000
01000000
00000000
,
01000000
00000000
31000000
00000000
,
00020000
00000000
01000000
00000000
,
01000000
00000000
01030000
00000000
,
01000000
00010000
01000000
00010000
,
00100000
00010000
00100000
00010000
,
00001000
00000100
00001000
00000100
,
00001000
00000010
00001000
00000000
,
00000001
00000010
00001000
00000000
,
00001000
00000010
00000001
00000000
,
00000001
00000100
00001000
00010000
,
00001000
00000100
00000001
00000000
,
00000001
00000010
00000001
00000010
,
00000100
00001000
00000100
00001000
,
00010000
00100000
00010000
00100000
,
00010000
01000000
00010000
00000000
,
10000000
01000000
00010000
00000000
,
00010000
01000000
10000000
00000000
,
10000000
00100000
10000000
00100000
,
00010000
00000000
00001000
00000000
00010000
00002000
00000000
00000000
,
00000000
00000000
00000000
00000000
,
00000000
00000000
00000000
00000000
,
00000000
00000000
00000000
00000000
,
00000000
00000000
00000000
00000000
,
00000000
00000000
00000000
00000000
,
00003000
00000000
00000000
00000000
,
00000000
00000000
00000000
00000000
;
#NOTES:
     dance-double:
     :
     Hard:
     13:
     :
00000000
00000000
00000000
00000000
,
00000000
00000000
00000000
00000000
,
00000000
00000000
00000000
00000000
,
00000000
00000000
00000000
00000000
,
00000000
00000000
00000000
00000000
,
00000000
00000000
00000000
00000000
,
00000000
00000000
00000000
00000000
,
00000000
00000000
00000000
00000000
,
00000000
00000000
00000000
00000000
,
10000000
00000000
00100000
00000000
01000000
00000000
00010000
00100000
,
00000000
00010000
00100000
00000000
00001000
00000000
00010000
00000010
,
00000000
00010000
00000010
00000000
00001000
00000000
00000100
00000010
,
00000000
00000001
00000100
00001000
,
00000100
00000000
00000001
00000000
00000010
00000000
00000100
00010000
,
00000000
00000100
00010000
00000000
00001000
00000000
01000000
00010000
,
00000000
01000000
00010000
00000000
00100000
00000000
01000000
00000000
,
10000000
00010000
10000000
00000000
00100000
00000000
00000000
00000000
,
10000000
00000000
00010000
00000000
01000000
00000000
00100000
10000000
,
00000000
00100000
00000000
10000000
00100000
00000000
00000000
00000000
,
01000000
00000000
00010000
00000000
00100000
00000000
00001000
00010000
,
00000000
00001000
00010000
00000000
00001000
00000000
00000000
00000000
,
00000010
00000000
00000100
00000000
00001000
00000000
00000001
00000100
,
00000000
00000010
00000000
00000100
00000001
00000000
00000000
00000000
,
00000100
00000000
00000010
00000000
00000100
00000000
00001000
00010000
,
00000000
00001000
00010000
00000000
00001000
00000000
00000000
00000000
,
00100000
00000000
00010000
00000000
01000000
00010000
01000000
00000000
,
00100000
00000000
10000000
00000000
01000000
00100000
01000000
00000000
,
00100000
00000000
00001000
00000000
00010000
00001000
00010000
00000000
,
01000000
00010000
00001000
00000010
,
00000001
00000000
00001000
00000000
00000010
00000100
00000010
00000000
,
00001000
00000000
00000100
00000000
00000010
00000001
00000010
00000000
,
00000100
00000000
00010000
00000000
00001000
00010000
00001000
00000000
,
01000000
00000000
00010000
00000000
00100000
01000000
00000000
00000000
,
10000000
00000000
00010000
00000000
00100000
00000000
01000000
10000000
,
00000000
01000000
00000000
10000000
01000000
00000000
00000000
00000000
,
00100000
00000000
00010000
00000000
01000000
00000000
00001000
00010000
,
00000000
00001000
00010000
00000000
00001000
00000000
00000000
00000000
,
00000100
00000000
00000010
00000000
00001000
00000000
00000001
00000010
,
00000000
00000100
00000000
00000010
00000001
00000000
00000000
00000000
,
00000010
00000000
00000100
00000000
00000010
00000000
00001000
00010000
,
00000000
00001000
00010000
00000000
00001000
00000000
00000000
00000000
,
01000000
00000000
00010000
00000000
00100000
00010000
00100000
00000000
,
01000000
00000000
10000000
00000000
00100000
01000000
00100000
00000000
,
01000000
00000000
00001000
00000000
00010000
00001000
00010000
00000000
,
00100000
00010000
00001000
00000100
,
00000001
00000000
00001000
00000000
00000100
00000010
00000100
00000000
,
00001000
00000000
00000010
00000000
00000100
00000001
00000100
00000000
,
00000010
00000000
00010000
00000000
00001000
00010000
00001000
00000000
,
00100000
00000000
00010000
00000000
01000000
00100000
01000000
00000000
,
00000000
00000000
00010000
10000000
00010000
00000000
00010000
00000000
,
00200000
00000000
00000000
02300000
00000000
00000000
03010000
00000000
,
00002000
00000000
00000000
00003020
00000000
00000000
00002030
00000000
,
00000000
00010000
00000000
00003100
,
00000010
00000010
00001010
00000000
,
00010000
00010000
00011000
00000000
,
00100000
10000000
00100000
10000000
,
00010000
01000000
00010000
01000000
,
00000000
00010000
01000000
10000000
,
02000000
00000000
00000000
03020000
00000000
00000000
00130000
00000000
,
00002000
00000000
00000000
00003020
00000000
00000000
00000230
00000000
,
00000000
00000001
00000000
00001300
,
00000010
00000110
00000000
00001000
,
00010000
00011000
00000000
01000000
,
00100000
10000000
01000000
00100000
,
00001000
00000000
00010000
00001000
00010000
00001000
00010000
00000000
,
00000010
00000000
00001000
00000000
00000100
00000000
00000010
00000001
,
00000000
00000001
00000000
00000001
00000100
00000000
00001000
00000000
,
00010000
00001000
00000010
00001000
,
00010000
00100000
00010000
00001000
,
00010000
00000000
01000000
00000000
10000000
00000000
00100000
01000000
,
00000000
01000000
00000000
01000000
00010000
00000000
10000000
00000000
,
02000000
00000000
00000000
03200000
00000000
00000000
00302000
00000000
,
00003000
00000000
00001000
00010000
00001000
00010000
00001000
00000000
,
01000000
00000000
00100000
00000000
00010000
00000000
00001000
00010000
,
00000000
00010000
00000000
00010000
00000100
00000000
00001000
00000000
,
00000010
00000000
00000100
00000000
00001000
00000000
00010000
00001000
,
00000000
00001000
00000000
00001000
01000000
00000000
00010000
00000000
,
00100000
00000000
01000000
00000000
00010000
00000000
00001000
00010000
,
00000000
00001000
00000000
00000100
00000010
00000000
00001000
00000000
,
00000001
00000000
00000000
00001000
00000000
00000000
00002002
00000000
,
00000000
00000000
00003003
00000000
,
00000010
00001000
00000010
00000000
00010000
00000100
00010000
00000000
,
00001000
00100000
00001000
00000000
01000000
00010000
01000000
00000000
,
00100000
00000000
00000000
00200000
00000000
00000000
00000000
00000000
,
00000000
01000000
01300000
00000000
,
01000000
00010000
01000000
00000000
00001000
00100000
00001000
00000000
,
00010000
00000100
00010000
00000000
00000010
00001000
00000010
00000000
,
00002000
00000000
00000002
00000000
,
00000000
00000000
00003003
00000001
,
00000100
00000000
00000001
00000100
00000010
00000000
00001000
00000100
,
00000010
00001000
00010000
01000000
,
10000000
00000000
01000000
00100000
00010000
00000000
01000000
00100000
,
10000000
01000000
00010000
00001000
,
00010000
00000000
00000010
00001000
00000010
00000000
00010000
00000000
,
00001000
00000000
01000000
00010000
01000000
00000000
00001000
00000000
,
00010000
00000000
00000000
00001000
00000000
00000000
00022000
00000000
,
00000000
00000000
00000000
00033000
,
00001000
00000000
00000010
00000000
00000001
00000000
00000100
00000010
,
00000000
00000010
00000100
00000000
00001000
00000000
00010000
00000000
,
00001000
00000000
00000000
00022000
00000000
00000000
00000000
00000000
,
00000000
00000000
00000000
00033000
,
00010000
00000000
00100000
00000000
10000000
00000000
01000000
00100000
,
00000000
00100000
01000000
00000000
00010000
00000000
00001000
00000000
,
00020000
00000000
00002000
00000000
,
00000000
00000000
00033000
00010000
,
00000100
00001000
00000010
00000000
00000100
00000001
00000010
00000000
,
00000100
00001000
00000100
00010000
00001000
00000000
00000000
00000000
,
00100000
00010000
01000000
00000000
00100000
10000000
01000000
00000000
,
00100000
00010000
00100000
00001000
00010000
00000000
00000000
00000000
,
00001000
00000000
00000000
00000010
00000000
00000000
00000001
00000000
,
00000001
00000000
00000000
00000100
00000000
00000000
00001000
00000000
,
00010000
00000000
00000000
00001000
00000000
00000000
00022000
00000000
,
00000000
00000000
00000000
00033000
,
00010000
00000000
00001000
00000000
00010000
00000000
00000000
00100000
,
00000000
01000000
00000000
00000000
00100000
00000000
00000000
00010000
,
00000000
00001000
00000000
00000000
00010000
00000000
00000000
00000100
,
00000000
00000010
00000100
00000000
00000010
00000000
00000110
00000000
,
00000001
00000100
00001000
00000100
,
00000001
00000000
00000010
00000000
00000100
00001000
00000100
00000000
,
00001000
00000100
00010000
00000000
00001000
01000000
00010000
00000000
,
00100000
01000000
10000000
00000000
00100000
00000000
00000000
00000000
,
10000000
00100000
00010000
00100000
,
10000000
01000000
00010000
01000000
,
00100000
00001000
00100000
00001000
00010000
00000100
00010000
00000100
,
00001000
00000010
00001000
00000010
00001000
00000000
00000000
00000000
,
00000001
00000010
00001000
00000010
,
00000001
00000000
00000100
00000000
00000010
00001000
00000010
00000000
,
00001000
00000010
00010000
00000000
00001000
00100000
00010000
00000000
,
01000000
00100000
10000000
00000000
01000000
00000000
00000000
00000000
,
10000000
01000000
00010000
01000000
,
10000000
00100000
00010000
00100000
,
01000000
00001000
01000000
00000000
00001000
00010000
00001000
00000000
,
00000010
00000100
00001000
00000100
00000010
00000002
00000000
00000000
,
00000000
00000000
00000000
00000000
,
00000000
00000000
00000000
00000000
,
00000000
00000000
00000000
00000000
,
00000000
00000000
00000000
00000000
,
00000000
00000000
00000000
00000000
,
00000003
00000000
00000000
00000000
,
00000000
00000000
00000000
00000000
;
