
//----- song ID: jitu -----//
#TITLE:LET'S CHECK YOUR LEVEL!;
#ARTIST:適正レベル測定;
#ARTISTTRANSLIT:Tekisei level sokutei;
#BANNER:LET'S CHECK YOUR LEVEL!.png;
#BACKGROUND:LET'S CHECK YOUR LEVEL!-bg.png;
#CDTITLE:./CDTitles/DDR A20 PLUS.png;
#MUSIC:LET'S CHECK YOUR LEVEL!.ogg;
#SAMPLESTART:61.858;
#SAMPLELENGTH:15;
#BPMS:0=128;
#NOTES:
     dance-single:
     :
     Beginner:
     1:
     :
0000
0000
0000
0000
,
0000
0000
0000
0000
,
0000
0000
0000
0000
,
0000
0000
0000
0000
,
0000
0000
0000
0000
,
0000
0000
0000
0000
,
0000
0000
0000
0000
,
0000
0000
0000
0000
,
0000
0000
0000
0000
,
0001
0000
0000
0000
,
0001
0000
0000
0000
,
1000
0000
0000
0000
,
1000
0000
0000
0000
,
0010
0000
0010
0000
,
0010
0000
0000
0000
,
0100
0000
0100
0000
,
0100
0000
0000
0000
,
0001
0000
1000
0000
,
0001
0000
0000
0000
,
1000
0000
0001
0000
,
1000
0000
0000
0000
,
0001
0001
0001
0000
,
0010
0000
0000
0000
,
1000
1000
1000
0000
,
0010
0000
0000
0000
,
0001
0001
0010
0000
,
0100
0000
0000
0000
,
1000
1000
0010
0000
,
0100
0000
0000
0000
,
0001
0001
0100
0000
,
0010
0000
0000
0000
,
1000
1000
0100
0000
,
0010
0000
0000
0000
,
0001
0001
1000
1000
,
0001
1000
0001
0000
,
1000
1000
0001
0001
,
1000
0001
1000
0000
,
0010
0010
0100
0100
,
0010
0100
0010
0000
,
0100
0100
0010
0010
,
0100
0000
0000
0000
,
0001
0010
0001
0100
,
0001
0010
0001
0001
,
1000
0010
1000
0100
,
1000
0010
1001
0000
,
0001
0100
1000
0100
,
0001
0100
1000
1000
,
0001
0010
1000
0010
,
1001
0000
0000
0000
,
0002
0010
1000
0013
,
2000
0010
0001
3010
,
0002
0100
1000
0103
,
2000
0100
0001
3100
,
0010
1000
0110
1001
,
0010
0001
0110
1001
,
0010
1000
0110
1001
,
0010
0001
0110
1001
,
0000
0000
0000
0000
;
