
//----- song ID: kyos -----//
#TITLE:狂水一華;
#ARTIST:BEMANI Sound Team "HuΣeR Vs. SYUNN" feat.いちか;
#TITLETRANSLIT:Kyousui ichika;
#ARTISTTRANSLIT:BEMANI Sound Team "HuΣeR Vs. SYUNN" feat. Ichika;
#BANNER:Kyousui ichika.png;
#BACKGROUND:Kyousui ichika-ng.png;
#CDTITLE:./CDTitles/DDR A20 PLUS.png;
#MUSIC:Kyousui ichika.ogg;
#SAMPLESTART:62.16;
#SAMPLELENGTH:15;
#BPMS:0=160;
#NOTES:
     dance-single:
     :
     Beginner:
     3:
     :
0000
0000
0000
0000
,
0000
0000
0000
0000
,
0000
0000
0000
0000
,
0000
0000
0000
0000
,
0000
0000
0000
0000
,
0000
0000
0000
0000
,
0001
0000
0001
0000
,
0010
0000
0000
0000
,
0100
0000
0100
0000
,
1000
0000
0000
0000
,
1001
0000
0000
0000
,
1001
0000
0000
0000
,
1001
0000
0000
0000
,
0010
0010
0010
0000
,
1000
0000
0100
0000
,
0010
0000
0001
0000
,
1000
0000
0100
0000
,
0010
0000
0001
0000
,
1001
0000
0000
0000
,
0000
0000
0000
0000
,
0100
0100
0100
0000
,
0100
0000
1000
0000
,
1001
0000
0000
0000
,
1001
0000
0000
0000
,
1001
0000
0000
0000
,
0001
0001
0001
0000
,
0001
0000
0100
0000
,
0001
0000
0100
0000
,
1000
0000
0100
0000
,
1000
1000
1000
0000
,
1000
0000
0010
0000
,
1000
0000
0010
0000
,
0001
0000
0010
0000
,
0001
0001
0001
0000
,
0002
0000
0003
0000
,
0200
0000
0300
0000
,
0020
0000
0030
0000
,
2000
0000
3000
0000
,
2000
0000
3000
0000
,
0200
0000
0300
0000
,
0020
0000
0030
0000
,
0002
0000
0003
0000
,
1000
1000
1000
0000
,
0010
0010
0010
0000
,
0100
0100
0100
0000
,
0001
0001
0001
0000
,
0001
0000
0010
0000
,
1000
0000
0010
0000
,
0001
0000
0100
0000
,
0010
0000
0000
0000
,
1001
0000
0000
0000
,
1001
0000
0000
0000
,
1001
0000
0000
0000
,
1001
0000
0000
0000
,
1000
0000
0010
0000
,
0100
0100
0100
0000
,
0001
0000
0010
0000
,
0100
0100
0100
0000
,
1001
0000
0000
0000
,
0000
0000
0000
0000
,
0100
0100
0100
0000
,
0100
0000
0001
0000
,
1001
0000
0000
0000
,
1001
0000
0000
0000
,
1001
0000
0000
0000
,
0200
0000
0300
0000
,
0001
0000
0010
0000
,
0100
0000
0100
0000
,
1000
0000
0010
0000
,
0100
0100
0100
0000
,
1000
0000
0100
0000
,
0010
0000
0010
0000
,
0001
0000
0100
0000
,
0010
0010
0010
0000
,
2000
0000
3000
0000
,
0002
0000
0003
0000
,
0200
0000
0300
0000
,
0020
0000
0030
0000
,
1001
0000
0000
0000
,
0000
0000
0000
0000
;
#NOTES:
     dance-single:
     :
     Easy:
     7:
     :
0000
0000
0000
0000
,
0000
0000
0000
0000
,
0000
0000
0000
0000
,
0000
0000
0000
0000
,
0000
0000
0000
0000
,
0000
0000
0000
0000
,
0001
1000
0001
1000
,
0100
0010
0100
0000
0010
0000
0000
0000
,
0001
0010
0100
1000
,
0200
0000
0000
0300
,
0010
0000
0010
0000
0001
1000
0001
0000
,
0100
0000
0100
0000
0001
1000
0001
0000
,
0010
0000
0010
0000
0100
1000
0100
0000
,
0010
0001
1000
0010
,
0100
0000
0001
0000
1000
0100
0010
0000
,
0001
0000
0100
0000
0010
1000
0001
0000
,
0100
0010
1000
0001
,
0200
0000
0000
0300
,
2002
0000
0000
0000
,
0000
0000
3003
0000
,
0010
0000
0100
0000
0001
0100
0001
0000
,
1000
0100
0001
0000
,
0000
1000
0000
0011
,
0000
0001
0000
1010
,
0000
1000
0000
1100
,
0001
0100
0001
0000
,
0001
0010
1000
0010
,
0001
1000
0001
0000
,
0001
0100
1000
0100
,
0001
1000
0001
0000
,
1000
0010
0001
0010
,
1000
0001
1000
0000
,
1000
0100
0001
0100
,
1000
0001
1000
0000
,
0001
0001
0010
0010
,
0001
1000
0001
0000
,
1000
1000
0010
0010
,
1000
0100
0010
0000
,
0002
0000
0103
0000
,
2000
0000
3010
0000
,
2000
0000
3001
0000
,
2002
0000
0000
3003
,
1000
1000
1100
0000
,
0010
0010
0011
0000
,
0001
0001
0101
0000
,
1000
1000
1010
0000
,
1001
0000
0110
0000
,
1000
0001
1000
0000
,
0010
0100
0001
0000
,
2002
0000
0000
3003
,
1001
0000
0000
0000
,
0110
0000
0000
0000
,
1001
0000
0000
0000
,
0001
1000
0100
0100
,
0010
0000
0001
0000
0100
0010
1000
0000
,
0100
0000
0010
0000
0001
0100
0010
0000
,
1000
0100
1000
0000
0001
0100
0001
0000
,
0010
0010
0010
0000
,
0220
0000
0000
0000
,
0000
0000
0330
0000
,
0001
1000
0001
0000
0100
0010
0000
0000
,
1000
0000
0000
0001
0000
0000
1000
0000
,
0000
0010
0000
1010
,
0000
0100
0000
0101
,
0000
0010
0000
0011
,
0100
0010
0200
0000
,
0300
0000
0001
0010
0001
0000
1000
0010
,
1000
0000
0001
0100
0010
0000
1000
0000
,
0001
0000
1000
0100
0010
0000
0001
0000
,
1000
1000
0100
0000
,
1001
0000
1000
0010
1000
0000
0001
0010
,
0001
0000
1000
0010
0100
0000
0001
0000
,
1000
0000
0001
0010
0100
0000
1000
0000
,
0100
0100
0100
0000
,
2000
0010
0001
3000
,
0002
0100
1000
0003
,
2000
0010
0001
3000
,
0001
0100
0010
1000
,
1001
0000
0000
0000
,
0000
0000
0000
0000
;
#NOTES:
     dance-single:
     :
     Medium:
     11:
     :
0000
0000
0000
0000
,
0000
0000
0000
0000
,
0000
0000
0000
0000
,
0000
0000
0000
0000
,
0000
0000
0000
0000
,
0000
0000
0000
0000
,
1000
0000
0001
0000
0100
0000
0010
1000
,
0100
0000
0010
0001
0010
0000
0000
0000
,
0001
0000
1000
0100
0001
0000
0100
0000
,
0220
0000
0000
0330
,
0001
0000
0100
0000
0010
0000
0000
0000
1000
0000
0000
0001
0000
0000
1000
0000
,
0000
0000
0010
0000
0100
0000
0000
0000
0001
0000
0000
1000
0000
0000
0001
0000
,
0000
0000
1000
0000
0100
0000
0000
0000
1000
0000
0000
0010
0000
0000
1000
0000
,
0001
0010
0100
1000
0001
0010
0100
0000
,
1000
0100
0010
0100
1000
0100
0010
0000
,
0001
0100
0010
0100
0001
0100
0010
0000
,
1000
0100
0010
0001
0100
0010
1000
0000
,
2002
0000
0000
3003
,
0100
1000
0010
0000
0100
0001
0010
0000
,
0100
1000
0010
0000
0100
0000
0100
0000
,
0001
0100
0001
1000
0010
1000
0000
1000
,
0010
0000
0000
1000
0000
0000
0100
0000
0000
0010
0000
0000
0001
0000
0000
0000
,
0000
1100
0000
0101
,
0000
1100
0000
0101
,
0000
1010
0000
0011
,
0001
0000
0000
0100
0000
0000
0010
0000
0000
1000
0000
0000
0100
0000
0000
0000
,
1000
0000
0000
0010
0001
0000
0000
0010
,
1000
0000
0000
0010
0001
0000
0010
0000
,
1000
0000
0000
0100
0001
0000
0100
0000
,
2000
3020
0230
0302
,
1003
0000
0000
0100
0001
0000
0000
0100
,
1000
0000
0000
0100
0001
0000
0100
0000
,
1000
0000
0000
0010
0001
0000
0010
0000
,
2000
3002
0023
0030
,
0001
0000
1000
0100
1000
0000
0001
0100
,
0001
0000
0000
0010
0100
0000
1000
0000
,
0010
0000
0000
1000
0100
0000
0010
0000
,
0001
0100
1001
0000
,
0010
0000
0001
0000
0100
0000
0010
1000
,
0100
0010
0100
0000
1000
0000
0000
0000
,
0001
0000
0100
0010
0100
0000
0001
0000
,
2002
0000
0000
3003
,
0001
0000
0000
0001
0010
0000
0100
0000
2000
0000
0000
0000
3000
0000
0000
0000
,
1000
0000
0000
1000
0010
0000
0100
0000
0002
0000
0000
0000
0003
0000
0000
0000
,
1000
0000
0001
0100
0010
1000
0100
1000
,
0001
0010
0100
1000
0010
0000
1001
0000
,
0100
0000
0010
0000
0100
0000
1000
0010
,
0100
0001
0100
0010
1000
0000
0000
0000
,
1000
0000
0100
0010
0001
0000
1000
0000
,
2002
0000
0000
3003
,
1100
1100
0000
0000
0010
0000
0100
0000
,
0101
0101
0000
0000
0010
0000
0100
0000
,
1001
1001
0000
0000
1000
0000
0001
0000
,
0110
1001
0100
0010
,
1000
0000
0001
0000
0100
0000
0001
0000
0010
0000
0000
0010
0000
0000
0010
0000
,
0001
0000
1000
0000
0100
0000
1000
0000
0010
0000
0000
0010
0000
0000
0010
0000
,
1000
0100
0010
0001
0100
0010
1000
0010
,
0100
0001
0010
0100
,
2002
0000
0000
0000
,
0000
0000
3003
0000
,
0001
1000
0010
0100
0001
1000
0000
1000
,
0100
0000
0000
0001
0000
0000
0100
0000
0000
1000
0000
0000
0100
0000
0000
0000
,
0000
0011
0000
1010
,
0000
0101
0000
1010
,
0000
0011
0000
1010
,
0100
0000
0000
0010
0000
0000
0100
0000
0020
0000
0000
0000
0130
0000
0000
0000
,
1001
0000
0010
1000
0100
0010
0001
0100
,
0001
1000
0100
1000
0010
0100
0001
1000
,
0100
0010
0001
0100
0010
1000
0100
0010
,
0001
0010
0100
1000
,
0110
0000
0100
0001
1000
0100
0010
0100
,
1000
0001
0100
0010
1000
0100
0010
0001
,
1000
0001
0100
0010
1000
0100
1000
0010
,
0100
0001
2002
3003
,
0001
0010
0100
1000
0010
1000
0100
0000
,
1000
0100
0010
0001
0100
0001
0010
0000
,
0001
0100
0010
1000
0001
0100
0010
1000
,
0100
0010
0001
1000
,
1001
0000
0000
0000
,
0000
0000
0000
0000
;
#NOTES:
     dance-single:
     :
     Hard:
     15:
     :
0000
0000
0000
0000
,
0000
0000
0000
0000
,
0000
0000
0000
0000
,
0000
0000
0000
0000
,
0000
0000
0000
0000
,
0000
0000
0000
0000
,
0002
0000
0000
0003
,
0020
0000
0000
0030
,
2000
0000
0000
3000
,
0200
0000
0000
0300
,
1001
0000
0010
0001
0100
0000
0010
0000
1000
0000
0100
1000
0000
0100
1000
0000
,
1001
0000
0010
1000
0100
0000
0010
0000
0001
0000
0100
0001
0000
0100
0001
0000
,
1001
0000
0100
0001
0010
0000
0100
0000
1000
0000
0010
1000
0000
0010
1000
0000
,
1010
0000
0000
1100
0000
0000
0011
0000
0000
0101
0000
0000
1001
0000
0000
0000
,
0001
0010
0100
0000
0010
0001
0100
0000
0010
1000
0100
0000
1000
0010
0100
0000
,
0001
0100
0010
0000
1000
0100
0010
0000
0001
0100
0010
0000
1000
0100
0010
0000
,
0001
0010
0100
1000
0100
0010
0001
0000
1000
0010
0100
0001
0100
0010
1000
0000
,
0100
0010
0000
0010
0001
0000
0100
0010
0000
0010
1000
0000
1001
0000
0000
0000
,
0220
0000
0000
0000
,
0000
0300
0100
0130
,
0110
0000
0010
1000
0001
0000
0100
0000
0010
0000
0010
0000
0000
0000
0010
0000
,
1000
0000
0000
1100
0000
0000
0001
0000
0000
0101
0000
0000
1001
0000
0000
0000
,
0010
1100
0010
0101
,
0010
1100
0010
0101
,
1000
0110
0001
0110
,
1000
0000
0000
1010
0000
0000
0001
0000
0000
0011
0000
0000
0110
0000
0000
0000
,
1001
0000
1000
0100
0010
0000
1000
0100
,
0010
0000
1000
0100
0010
0001
0100
1000
,
0100
0000
0010
1000
0100
0010
0001
0100
,
0110
1010
0101
0110
,
1001
0000
0001
0100
0010
0000
0001
0100
,
0010
0000
0001
0100
0010
1000
0100
0001
,
0100
0000
0010
0001
0100
0010
1000
0100
,
0110
0011
1100
0110
,
0001
0000
0001
0100
1000
0000
1000
0010
,
0001
0000
0000
0001
0100
0010
1000
0100
,
0010
0000
0000
1000
0010
0001
1000
0100
,
0010
0000
0010
0001
0200
0000
0300
0000
,
0002
0000
0023
0000
2030
0000
3100
0001
,
0010
1000
0010
1000
0100
0000
0000
0000
,
0010
0000
0001
0100
1000
0000
0010
0000
,
0002
0000
0103
0100
,
0001
0000
0000
0001
0010
0000
0100
0000
1000
0010
0100
0001
0100
0000
0000
0000
,
0001
0000
0000
0001
0100
0000
0010
0000
1000
0100
0010
0001
0010
0000
0000
0000
,
0001
0000
0000
0001
1000
0000
0010
0000
0100
0010
1000
0001
1000
0000
0100
0000
,
0010
0001
0100
1000
0100
0000
0110
0000
,
1001
0000
0100
0010
1000
0000
1000
0000
1001
0000
0100
0010
0001
0000
0001
0000
,
1000
0010
1000
0001
0100
0000
0010
0000
0100
0000
0001
1000
0100
0000
0000
0000
,
0010
0000
0001
1000
0100
0000
1000
0000
0010
0000
0000
0000
0100
0000
0000
0000
,
2002
0000
0000
3003
,
1010
1001
0000
0000
0000
0000
0000
0000
,
0011
1001
0000
0000
0000
0000
0000
0000
,
1100
1001
0000
0000
0000
0000
0000
0000
,
0110
1001
0010
0100
,
0010
0000
1000
0100
0010
0000
0001
0000
0100
0010
1000
0000
0001
0000
0100
0000
,
0001
0000
0010
0001
1000
0000
0100
0000
1000
0001
0100
0000
0010
0000
1000
0000
,
0100
0010
0001
1000
0010
0100
0001
1000
0001
0010
0100
0010
0001
1000
0100
0010
,
0001
1000
0010
0001
,
2002
0000
0000
0000
,
0000
0000
3003
0000
,
0001
0000
0010
0001
0100
0000
0010
0000
1000
0000
1000
0000
0000
0000
1000
0000
,
1100
0000
0000
0101
0000
0000
1010
0000
0000
0011
0000
0000
1001
0000
0000
0000
,
0100
1010
0100
0011
,
0100
1010
0100
0011
,
0100
1001
0010
1001
,
1000
0010
0100
0001
0000
1000
0001
0000
0010
0001
0100
0010
1000
0000
0000
0000
,
0110
0000
0000
0000
1000
0010
0100
0001
1000
0001
0010
0100
1000
0000
0000
0000
,
1001
0000
0000
0000
0001
0100
0010
1000
0100
1000
0001
0100
0010
0000
0000
0000
,
1001
0000
0000
0000
0100
0010
1000
0001
0100
0001
0010
0100
1000
0000
0000
0000
,
1100
0000
0000
0000
0011
0000
0000
0000
0100
0001
1000
0010
0100
0001
1000
0010
,
0100
0000
0000
0000
0110
0000
1000
0000
0100
0000
0010
0001
0100
0000
0010
0000
,
1000
0000
0000
0000
0110
0000
0001
0000
0100
0000
0010
1000
0100
0000
0010
0000
,
0001
0100
0001
0010
0100
1000
0010
1000
,
0200
0320
0032
0003
,
0001
0000
0100
1000
0100
0000
0001
0000
0010
0100
1000
0000
0001
0010
0100
0000
,
1000
0000
0100
0001
0100
0000
1000
0000
0010
0100
0001
0000
1000
0010
0100
0000
,
0001
0010
0100
0000
1000
0001
0100
0000
0010
1000
0001
0000
0100
0001
1000
0000
,
0002
0023
2030
3200
,
0301
0000
0000
0000
,
0000
0000
0000
0000
;
#NOTES:
     dance-double:
     :
     Easy:
     7:
     :
00000000
00000000
00000000
00000000
,
00000000
00000000
00000000
00000000
,
00000000
00000000
00000000
00000000
,
00000000
00000000
00000000
00000000
,
00000000
00000000
00000000
00000000
,
00000000
00000000
00000000
00000000
,
00000001
00000010
00000100
00000010
,
00000001
00000100
00000010
00000000
00000100
00000000
00000000
00000000
,
00001000
00010000
00100000
01000000
,
00200000
00000000
00000000
00300000
,
10000000
00000000
10000000
00000000
00010000
00100000
00010000
00000000
,
01000000
00000000
01000000
00000000
00001000
00010000
00001000
00000000
,
00010000
00000000
00010000
00000000
00000010
00001000
00000010
00000000
,
00000100
00000001
00000100
00000010
,
00001000
00000000
00000100
00000000
00010000
00001000
00010000
00000000
,
00001000
00000000
00100000
00000000
00010000
01000000
00010000
00000000
,
01000000
00100000
10000000
01000000
,
00100000
00000000
00001000
00000000
,
00022000
00000000
00000000
00000000
,
00000000
00000000
00033000
00000000
,
00000100
00000000
00000100
00000000
00000010
00000001
00000010
00000000
,
00000001
00000100
00001000
00000000
,
00000000
01000000
00000000
10100000
,
00000000
01000000
00000000
00110000
,
00000000
00001000
00000000
00011000
,
00000010
00001000
00000010
00000000
,
00000100
00000001
00000010
00000001
,
00000100
00000010
00010000
00000000
,
00001000
01000000
10000000
01000000
,
00010000
00100000
00010000
00000000
,
01000000
10000000
00100000
10000000
,
01000000
00100000
00001000
00000000
,
00010000
00000100
00000001
00000100
,
00001000
00000010
00001000
00000000
,
00000010
00000010
00000100
00000100
,
00001000
00010000
00001000
00000000
,
00100000
00100000
01000000
01000000
,
00010000
00001000
00010000
00000000
,
00000020
00000000
00001030
00000000
,
00000200
00000000
00000301
00000000
,
00000100
00001000
00010000
00000000
,
00022000
00000000
00000000
00033000
,
00100000
00100000
00110000
00000000
,
10000000
10000000
11000000
00000000
,
10000000
01000000
00100000
00001000
,
00010000
00000100
00000010
00000000
,
00000001
00000001
00000011
00000000
,
00000100
00000100
00001100
00000000
,
00001000
00000100
00010000
00001000
,
00200000
00000000
00300000
00000000
,
01100000
00000000
00000000
00000000
,
00011000
00000000
00000000
00000000
,
00000110
00000000
00000000
00000000
,
00000010
00000100
00000010
00000010
,
00000001
00000000
00000100
00000000
00000010
00001000
00000010
00000000
,
00010000
00000000
00001000
00000000
01000000
00010000
00100000
00000000
,
01000000
10000000
01000000
00000000
10000000
00100000
10000000
00000000
,
01000000
00010000
00001000
00000000
,
00022000
00000000
00000000
00000000
,
00000000
00000000
00033000
00000000
,
00000010
00001000
00000010
00000000
00000100
00000001
00000000
00000000
,
00000010
00000000
00000000
00000010
00000000
00000000
00000010
00000000
,
00000000
00000100
00000000
00001010
,
00000000
00000100
00000000
00011000
,
00000000
01000000
00000000
00110000
,
01000000
00100000
02000000
00000000
,
03000000
00000000
10000000
01000000
10000000
00000000
00100000
01000000
,
00100000
00000000
01000000
00010000
01000000
00000000
00001000
00000000
,
00010000
00000000
00000100
00001000
00000010
00000000
00000100
00000000
,
00000001
00000000
00000010
00000000
,
00001001
00000000
00000001
00000100
00000001
00000000
00000010
00000100
,
00000010
00000000
00000100
00001000
00000100
00000000
00010000
00000000
,
00001000
00000000
01000000
00010000
00100000
00000000
01000000
00000000
,
00100000
00100000
00100000
00000000
,
00200000
01000000
00310000
00000000
,
00002000
01000000
00013000
00000000
,
00020000
00000100
00031000
00000000
,
00000100
00000010
00000001
00001000
,
00001001
00000000
00000000
00000000
,
00000000
00000000
00000000
00000000
;
#NOTES:
     dance-double:
     :
     Medium:
     11:
     :
00000000
00000000
00000000
00000000
,
00000000
00000000
00000000
00000000
,
00000000
00000000
00000000
00000000
,
00000000
00000000
00000000
00000000
,
00000000
00000000
00000000
00000000
,
00000000
00000000
00000000
00000000
,
10000000
00000000
01000000
00000000
01000000
00000000
00100000
00010000
,
01000000
00000000
00001000
00100000
00010000
00000000
00000000
00000000
,
00001000
00000000
00001000
00000100
00000001
00000000
00000100
00000000
,
00000220
00000000
00000000
00000330
,
00000001
00000000
00000100
00000000
00000010
00000000
00000000
00000000
00001000
00000000
00000000
00001000
00000000
00000000
00001000
00000000
,
00000000
00000000
00010000
00000000
00001000
00000000
00000000
00000000
01000000
00000000
00000000
01000000
00000000
00000000
01000000
00000000
,
00000000
00000000
10000000
00000000
01000000
00000000
00000000
00000000
00100000
00000000
00000000
00100000
00000000
00000000
00100000
00000000
,
00001000
00010000
00000100
00001000
00000010
00000100
00000001
00000000
,
00001000
00000010
00000100
00000010
00001000
00000010
00000100
00001000
,
00010000
00001000
00100000
00001000
00010000
00001000
00100000
00010000
,
10000000
01000000
00100000
00010000
01000000
00001000
00010000
00000000
,
00022000
00000000
00000000
00033000
,
00001000
00000010
00001000
00000000
00000001
00000100
00000001
00000000
,
00000100
00001000
00010000
00000000
00022000
00000000
00033000
00000000
,
01000000
00010000
01000000
00010000
10000000
01000000
00000000
01000000
,
00100000
00000000
00000000
00001000
00000000
00000000
00010000
00000000
00000000
00001000
00000000
00000000
00010000
00000000
00000000
00000000
,
00000000
00001100
00000000
00000110
,
00000000
00001010
00000000
00011000
,
00000000
01010000
00000000
01100000
,
10000000
00000000
00000000
00100000
00000000
00000000
01000000
00000000
00000000
00001000
00000000
00000000
00010000
00000000
00000000
00000000
,
00001000
00000000
00000000
00000010
00000001
00000000
00000000
00000100
,
00001000
00000000
00000000
00010000
00100000
00000000
10000000
00000000
,
00010000
00000000
00000000
10000000
01000000
00000000
00010000
00000000
,
00002000
00023000
00032000
00013000
,
00011000
00000000
00000000
00100000
10000000
00000000
00000000
01000000
,
00010000
00000000
00000000
00001000
00000010
00000000
00000001
00000000
,
00001000
00000000
00000000
00000001
00000100
00000000
00001000
00000000
,
00020000
00032000
00020000
00033000
,
00010000
00000000
00010000
00100000
00010000
00000000
00010000
01000000
,
00010000
00000000
00000000
01000000
00001000
00000000
00010000
00000000
,
00001000
00000000
00000000
00001000
00000010
00000000
00000100
00000000
,
00000001
00000010
00001001
00000000
,
00000001
00000100
00001000
00010000
,
00001000
00010000
00001000
00000000
00011000
00000000
00000000
00000000
,
00100000
00000000
00010000
01000000
10000000
00000000
01000000
00000000
,
20020000
00000000
00000000
30030000
,
10000000
00000000
00000000
10000000
01000000
00000000
00100000
00000000
00020000
00000000
00000000
00000000
00030000
00000000
00000000
00000000
,
00001000
00000000
00000000
00001000
00000100
00000000
00000010
00000000
00000002
00000000
00000000
00000000
00000003
00000000
00000000
00000000
,
00001000
00000000
00000000
00000001
00001000
00000100
00001000
00000000
,
00000100
00000010
00001000
00010000
01000000
00000000
10010000
00000000
,
01000000
00000000
00010000
00000000
01000000
00000000
10000000
00100000
,
01000000
00000000
00001000
00010000
00001000
00000000
00000000
00000000
,
00010000
00000000
00000010
00000100
00000001
00000000
00001000
00000000
,
00002002
00000000
00000000
00003003
,
00000110
00000110
00000000
00000000
00000000
00000000
00000000
00000000
,
00011000
00011000
00000000
00000000
00000000
00000000
00000000
00000000
,
01100000
01100000
00000000
00000000
00000000
00000000
00000000
00000000
,
01100000
10010000
01000000
00100000
,
10000000
00000000
00100000
00000000
10000000
00000000
00100000
00000000
01000000
00000000
00000000
01000000
00000000
00000000
01000000
00000000
,
00010000
00000000
00100000
00000000
00010000
00000000
00100000
00000000
00001000
00000000
00000000
00001000
00000000
00000000
00001000
00000000
,
00010000
00000100
00001000
00000010
00001000
00000100
00000010
00000001
,
00000010
00000100
00010000
00001000
,
00022000
00000000
00000000
00000000
,
00000000
00000000
00033000
00000000
,
00000010
00001000
00000010
00001000
00000001
00000010
00000000
00000010
,
00000100
00000000
00000000
00010000
00000000
00000000
00001000
00000000
00000000
00010000
00000000
00000000
00001000
00000000
00000000
00000000
,
00000000
00110000
00000000
01100000
,
00000000
01010000
00000000
00011000
,
00000000
00001010
00000000
00000110
,
00000001
00000000
00000000
00000100
00000000
00000000
00000010
00000000
00020000
00000000
00000000
00000000
00031000
00000000
00000000
00000000
,
00011000
00000000
00100000
00010000
10000000
00100000
01000000
00100000
,
10000000
01000000
00100000
00010000
00100000
00001000
00010000
00001000
,
00010000
00000100
00001000
00000010
00000100
00000001
00000010
00000001
,
00000100
00000010
00001000
00000100
,
00011000
00000000
00100000
00010000
01000000
00100000
10000000
01000000
,
00100000
01000000
10000000
00010000
01000000
00001000
00010000
00000010
,
00001000
00000100
00010000
00000010
00001000
00000100
00000010
00000001
,
00000010
00000100
00000220
00000330
,
00001000
00000100
00000001
00000100
00001000
00000000
00001001
00000000
,
00000010
00000100
00001000
00010000
00001000
00000000
00011000
00000000
,
01000000
00010000
00100000
01000000
10000000
01000000
10000000
00000000
,
00100000
00010000
00001000
00010000
,
00011000
00000000
00000000
00000000
,
00000000
00000000
00000000
00000000
;
#NOTES:
     dance-double:
     :
     Hard:
     16:
     :
00000000
00000000
00000000
00000000
,
00000000
00000000
00000000
00000000
,
00000000
00000000
00000000
00000000
,
00000000
00000000
00000000
00000000
,
00000000
00000000
00000000
00000000
,
00000000
00000000
00000000
00000000
,
00002000
00000000
00000000
00003000
,
00000020
00000000
00000000
00000030
,
00020000
00000000
00000000
00030000
,
00200000
00000000
00000000
00300000
,
00011000
00000000
00000100
00001000
00000010
00000000
00000100
00000000
00000001
00000000
00000010
00000100
00000000
00000010
00000100
00000000
,
00000110
00000000
00000001
00000100
00000010
00000000
00001000
00000000
00000100
00000000
00010000
00001000
00000000
00010000
00001000
00000000
,
00011000
00000000
00100000
00010000
01000000
00000000
00100000
00000000
10000000
00000000
01000000
00100000
00000000
01000000
00100000
00000000
,
00110000
00000000
00000000
00101000
00000000
00000000
00011000
00000000
00000000
00010100
00000000
00000000
00001100
00000000
00001000
00000000
,
00000100
00000010
00000001
00000000
00000100
00000010
00001000
00000000
00000100
00010000
00001000
00000000
00100000
00001000
00010000
00000000
,
01000000
00100000
00010000
00000000
01000000
00100000
10000000
00000000
01000000
10000000
00100000
00000000
01000000
00001000
00010000
00000000
,
00000100
00001000
00000100
00000010
00000001
00001000
00000010
00000000
00000100
00000010
00001000
00000100
00010000
00001000
00100000
00000000
,
00010000
10000000
00000000
10000000
01000000
00000000
00100000
00001000
00000000
00001000
00010000
00000000
00011000
00000000
00000000
00000000
,
00022000
00000000
00000000
00000000
,
00000000
00003000
00001000
00031000
,
00011000
00000000
00001000
00000010
00000001
00000000
00000001
00000000
00000001
00000000
00000001
00000000
00000000
00000000
00000001
00000000
,
00000100
00000000
00000000
00001000
00000000
00000000
00010000
00000000
00000000
00100000
00000000
00000000
00010000
00000000
00000000
00000000
,
00001000
00011000
01000000
11000000
,
00100000
00110000
00001000
00001010
,
00000001
00000110
00001000
00011000
,
00100000
00000000
00000000
10000000
00000000
00000000
00010000
00000000
00000000
00100000
00000000
00000000
01000000
00000000
00000000
00000000
,
10010000
00000000
10000000
01000000
00100000
00000000
10000000
01000000
,
00100000
00000000
10000000
00100000
01000000
00100000
00010000
00100000
,
00001000
00000000
00010000
00000100
00001000
00000100
00000010
00000100
,
00000001
00000101
00000100
00001100
,
00001001
00000000
00000001
00000100
00000010
00000000
00000001
00000100
,
00000010
00000000
00000001
00000010
00000100
00000010
00001000
00000010
,
00010000
00000000
00001000
01000000
00010000
01000000
00100000
01000000
,
10000000
11000000
01100000
10010000
,
10000000
00000000
10000000
00100000
00010000
00000000
00001000
00000100
,
00000001
00000000
00000000
00001000
00000100
00000001
00000100
00001000
,
00000001
00000000
00000000
00000100
00001000
00010000
00001000
01000000
,
00010000
00000000
00010000
00100000
02000000
00000000
03000000
00000000
,
20000000
00000000
32000000
00000000
03020000
00000000
00031000
00100000
,
00001000
00010000
00000010
00001000
00000100
00000000
00000000
00000000
,
00000010
00000000
00000001
00000100
00001000
00000000
00010000
00000000
,
00022000
00030000
00010000
00013000
,
00100000
00000000
00000000
00001000
00010000
00000000
01000000
00000000
01100000
00000000
00001000
00010000
00001000
00000000
00010000
00000000
,
00000010
00000000
00000000
00010000
00001000
00000000
00000100
00000000
00000110
00000000
00010000
00001000
00010000
00000000
00001000
00000000
,
00100000
00000000
00000000
00100000
00010000
00000000
01000000
00000000
00100000
00000000
10000000
00000000
01000000
00000000
00010000
00000000
,
00011000
00001000
00001010
00000010
00000011
00000000
00001001
00000000
,
00001001
00000000
00000010
00001000
00000100
00000000
00000100
00000000
00010100
00000000
00001000
01000000
00010000
00000000
00010000
00000000
,
00110000
00000000
01000000
10000000
00100000
00000000
01000000
00000000
00100000
00000000
00010000
00001000
00010000
00000000
00000000
00000000
,
00001000
00000000
00001000
00000010
00000001
00000000
00000100
00000000
00001000
00000000
00000000
00000000
00010000
00000000
00000000
00000000
,
00022000
00000000
00000000
00033000
,
00110000
00011000
00000000
00000000
00000000
00000000
00000000
00000000
,
00011000
00001100
00000000
00000000
00000000
00000000
00000000
00000000
,
00000011
00001001
00000000
00000000
00000000
00000000
00000000
00000000
,
00011000
00110000
00100000
01000000
,
10000000
00000000
01000000
00100000
00010000
00000000
01000000
00000000
00100000
10000000
01000000
00000000
00010000
00000000
00001000
00000000
,
00000010
00000000
00000001
00000100
00000010
00000000
00001000
00000000
00000001
00000100
00001000
00000000
00010000
00000000
00100000
00000000
,
10000000
01000000
00100000
00010000
01000000
00100000
01000000
00010000
00100000
00001000
00010000
00000100
00010000
00001000
00000010
00000100
,
00001000
00000001
00001000
00010000
,
00022000
00000000
00000000
00000000
,
00000000
00000000
00033000
00000000
,
00011000
00000000
00010000
00100000
10000000
00000000
10000000
00000000
10000000
00000000
10000000
00000000
00000000
00000000
10000000
00000000
,
01000000
00000000
00000000
00010000
00000000
00000000
00001000
00000000
00000000
00000010
00000000
00000000
00001000
00000000
00000000
00000000
,
00010000
00011000
00000100
00000101
,
00000010
00001010
00010000
00110000
,
10000000
01100000
00010000
00011000
,
00000010
00000001
00001000
00000100
00000000
00001000
00000010
00000000
00000100
00001000
00010000
00100000
01000000
00000000
00000000
00000000
,
10010000
00000000
00000000
00000000
01000000
10000000
00100000
01000000
00010000
00100000
00001000
00010000
00000100
00000000
00000000
00000000
,
00001001
00000000
00000000
00000000
00000010
00000001
00000100
00000010
00001000
00000100
00010000
00001000
00100000
00000000
00000000
00000000
,
10010000
00000000
00000000
00000000
00100000
10000000
01000000
00100000
00001000
00010000
00000010
00001000
00000100
00000000
00000000
00000000
,
00000011
00000000
00000000
00000000
00001100
00000000
00000000
00000000
00000001
00000010
00000100
00001000
00000010
00000100
00001000
00010000
,
00001000
00000000
00000000
00000000
00011000
00000000
01000000
00000000
00010000
00000000
00100000
01000000
10000000
00000000
00100000
00000000
,
01000000
00000000
00000000
00000000
10010000
00000000
01000000
00000000
00010000
00000000
00001000
00010000
00000010
00000000
00000100
00000000
,
00000001
00000010
00001000
00010000
00001000
00000100
00001000
00010000
,
00200000
20300000
30020000
00030000
,
00010000
00000000
01000000
10000000
01000000
00000000
00010000
00000000
00100000
00001000
00010000
00000000
00000100
00001000
00000010
00000000
,
00001000
00000000
00000100
00000001
00000100
00000000
00001000
00000000
00000010
00010000
00001000
00000000
00100000
00010000
01000000
00000000
,
00100000
10000000
01000000
00000000
00100000
01000000
00100000
00000000
00001000
00010000
00000010
00000000
00000100
00000010
00000100
00000000
,
00000002
00000023
00002030
00023000
,
00031000
00000000
00000000
00000000
,
00000000
00000000
00000000
00000000
;
