
//----- song ID: kyoh -----//
#TITLE:共犯ヘヴンズコード;
#ARTIST:D-Evoke(与那嶺雅人/小日向翔 );
#TITLETRANSLIT:Kyouhan heaven's code;
#ARTISTTRANSLIT:D-Evoke (Masato Yonamine / Sho Kohinata);
#BANNER:Kyouhan heaven's code.png;
#BACKGROUND:Kyouhan heaven's code-bg.png;
#CDTITLE:./CDTitles/bm IIDX 25 CANNON BALLERS.png;
#MUSIC:Kyouhan heaven's code.ogg;
#SAMPLESTART:52.056;
#SAMPLELENGTH:15;
#BPMS:0=219;
#NOTES:
     dance-single:
     :
     Beginner:
     2:
     :
0000
0000
0000
0000
,
0000
0000
0000
0000
,
0000
0000
0000
0000
,
0000
0000
0000
0000
,
0000
0000
0000
0000
,
0000
0000
0000
0000
,
1000
0000
0000
0000
,
0000
0000
0000
0000
,
1000
0000
0000
0000
,
0000
0000
0000
0000
,
0001
0000
0000
0000
,
0000
0000
0000
0000
,
1001
0000
0000
0000
,
0000
0000
0000
0000
,
1000
0000
0000
0000
,
0000
0000
0000
0000
,
1000
0000
0000
0000
,
0000
0000
0000
0000
,
0001
0000
0000
0000
,
0000
0000
0000
0000
,
1000
0000
0000
0000
,
0000
0000
0000
0000
,
0001
0000
0000
0000
,
0001
0000
0000
0000
,
1000
0000
0000
0000
,
0000
0000
0000
0000
,
0010
0000
0000
0000
,
0000
0000
0000
0000
,
1001
0000
0000
0000
,
0000
0000
0000
0000
,
1000
0000
0000
0000
,
1000
0000
0000
0000
,
0001
0000
0000
0000
,
0000
0000
0000
0000
,
1000
0000
0000
0000
,
0001
0000
0000
0000
,
1000
0000
0000
0000
,
0000
0000
0000
0000
,
0001
0000
0000
0000
,
0001
0000
0000
0000
,
1000
0000
0000
0000
,
0000
0000
0000
0000
,
0001
0000
0000
0000
,
1000
0000
0000
0000
,
0001
0000
0000
0000
,
0000
0000
0000
0000
,
1001
0000
0000
0000
,
0000
0000
0000
0000
,
1000
0000
0000
0000
,
1000
0000
0000
0000
,
0001
0000
0000
0000
,
0001
0000
0000
0000
,
1000
0000
0001
0000
,
1000
0000
0000
0000
,
0010
0000
0000
0000
,
0000
0000
0000
0000
,
1000
0000
1000
0000
,
1000
0000
0000
0000
,
0001
0000
0001
0000
,
0001
0000
0000
0000
,
0100
0000
0000
0000
,
0000
0000
0000
0000
,
0010
0000
0000
0000
,
0000
0000
0000
0000
,
1000
0000
1000
0000
,
1000
0000
1000
0000
,
0001
0000
0001
0000
,
0001
0000
0000
0000
,
0100
0000
0000
0000
,
0000
0000
0000
0000
,
0010
0000
0000
0000
,
0000
0000
0000
0000
,
1000
0000
1000
0000
,
0001
0000
1000
0000
,
0001
0000
0001
0000
,
1000
0000
0000
0000
,
0100
0000
0000
0000
,
0100
0000
0000
0000
,
0010
0000
0010
0000
,
0010
0000
0000
0000
,
0001
0000
0001
0000
,
0001
0000
0000
0000
,
1000
0000
1000
0000
,
1000
0000
0000
0000
,
0010
0000
0010
0000
,
0010
0000
0000
0000
,
0100
0000
0000
0000
,
1001
0000
0000
0000
,
0100
0000
0000
0000
,
0000
0000
0000
0000
,
0100
0000
0000
0000
,
0000
0000
0000
0000
,
0010
0000
0000
0000
,
0000
0000
0000
0000
,
0010
0000
0000
0000
,
0000
0000
0000
0000
,
1000
0000
0000
0000
,
0100
0000
0000
0000
,
0001
0000
0000
0000
,
0000
0000
0000
0000
0000
0000
0000
0000
0000
0000
0000
1001
,
0000
0000
0000
0000
;
#NOTES:
     dance-single:
     :
     Easy:
     4:
     :
0000
0000
0000
0000
,
0000
0000
0000
0000
,
0000
0000
0000
0000
,
0000
0000
0000
0000
,
0000
0000
0000
0000
,
0000
0000
0000
0000
,
1000
0000
0000
0000
,
1000
0000
0000
0000
,
0001
0000
0000
0000
,
0001
0000
0000
0000
,
0010
0000
0000
0000
,
0010
0000
0000
0000
,
0100
0000
0000
0000
,
1001
0000
0000
0000
,
1000
0000
0000
0000
,
1000
0000
0000
0000
,
0001
0000
0000
0000
,
0001
0000
0000
0000
,
0010
0000
0000
0000
,
0010
0000
0000
0000
,
0100
0000
0000
0000
,
1001
0000
0000
0000
,
0001
0000
0001
0000
,
0100
0000
0000
0000
,
1000
0000
1000
0000
,
0100
0000
0000
0000
,
0010
0000
0000
0000
,
0100
0000
0000
0000
,
0010
0000
0000
0000
,
1001
0000
0000
0000
,
1000
0000
1000
0000
,
1000
0000
0000
0000
,
0001
0000
0001
0000
,
0001
0000
0000
0000
,
0200
0000
0000
0300
,
0000
0000
0000
0000
,
0020
0000
0000
0030
,
0000
0000
0000
0000
,
1000
0000
0001
0000
,
1000
0000
0000
0000
,
0001
0000
1000
0000
,
0001
0000
0000
0000
,
0010
0000
0010
0000
,
0010
0000
0000
0000
,
0200
0000
0000
0300
,
0000
0000
0000
0000
,
2002
0000
0000
3003
,
0000
0000
0000
0000
,
1000
0000
1000
0000
,
0001
0000
0000
0000
,
1000
0000
0100
0000
,
0001
0000
0100
0000
,
1000
0000
1000
0000
,
0001
0000
0000
0000
,
1000
0000
0100
0000
,
0001
0000
0100
0000
,
1000
0000
1000
0000
,
0001
0000
0000
0000
,
0001
0000
0100
0000
,
1000
0000
0100
0000
,
0002
0000
0000
0000
,
0000
0000
0003
0000
,
2000
0000
0000
0000
,
0000
0000
3000
0000
,
0001
0000
0100
0000
,
0001
0001
0100
0000
,
1000
0000
0100
0000
,
1000
1000
0100
0000
,
0001
0000
0100
0000
,
1001
0000
0000
0000
,
0001
0000
0100
0000
,
1000
0000
0100
0000
,
0001
0000
0010
0000
,
0001
0001
0010
0000
,
1000
0000
0010
0000
,
1000
1000
0010
0000
,
0001
0000
0100
0000
,
1000
0000
0100
0000
,
0001
0001
0100
0000
,
1000
1000
0100
0000
,
0010
0000
0100
0000
,
0010
0000
1001
0000
,
0001
0000
1000
0000
,
0001
0000
0110
0000
,
0000
0010
0000
0010
,
0000
0010
0000
0010
,
0010
0000
0000
0000
,
1001
0000
0000
0000
,
0001
0000
0000
0000
,
1000
0000
0000
0000
,
0001
0000
0000
0000
,
1000
0000
0000
0000
,
0010
0000
0000
0000
,
0100
0000
0000
0000
,
0010
0000
0000
0000
,
0010
0000
0000
0000
,
0110
0000
0000
0000
,
1001
0000
0000
0000
,
1001
0000
0000
0000
,
0000
0000
0000
0000
0000
0000
0000
0000
0000
0000
0000
1001
,
0000
0000
0000
0000
;
#NOTES:
     dance-single:
     :
     Medium:
     10:
     :
0000
0000
0000
0000
,
0000
0000
0000
0000
,
0000
0000
0000
0000
,
0000
0000
0000
0000
,
0000
0000
0000
0000
,
0000
1001
0000
0000
,
2000
0100
3002
0100
,
2003
0100
3002
0103
,
0001
0100
1000
0100
,
0010
0010
0100
0000
,
0100
0000
0000
0000
0000
1010
0000
0000
0000
0000
0000
0000
,
0010
0000
0000
0000
0000
0101
0000
0000
0000
0000
0000
0000
,
0001
0100
1000
0010
,
0001
0000
1000
0000
0000
1000
0000
0000
0000
0000
0000
0000
,
1000
0010
0000
1000
,
0100
0010
0000
0010
,
0100
0010
0000
0010
,
0100
1000
0000
1000
,
0000
0001
0010
0100
,
1000
1000
0010
0010
,
1000
0100
0010
0001
,
1000
1001
0000
0000
,
0001
0010
0000
0001
,
0100
0010
0000
0010
,
0100
0010
0000
0010
,
0100
0001
0000
0001
,
0000
0001
0010
0100
,
1000
1000
0100
0100
,
1001
0000
0000
0000
0000
0000
0000
0000
0000
0000
0000
0002
,
0000
0000
0003
0000
,
1000
0100
0020
1030
,
0200
1300
0020
1030
,
0200
0000
0000
0000
0000
0000
0000
0000
0000
0000
0000
0020
,
0000
0000
0000
0000
0330
0000
0000
0000
0001
0000
0000
0001
,
0000
0100
1000
0100
,
0001
0000
0000
0100
0000
0000
0010
0000
1000
0000
0000
0200
,
0000
0000
0000
0000
0000
0000
0000
0000
0000
0000
0000
2000
,
0000
0000
0000
0000
3300
0000
0000
0000
1000
0000
0000
0010
,
0000
0000
0100
0000
,
0110
0000
0000
0000
0000
0110
0000
0000
0001
0000
0000
0010
,
0000
0001
0100
0000
,
0110
0000
0000
0000
0000
0110
0000
0000
0000
0000
0000
0000
,
1000
0000
0200
0000
,
0001
0000
1300
0000
,
0001
0001
1000
0001
,
1000
0000
0000
1000
0000
0001
1000
0000
0001
0000
0000
0200
,
0000
0000
0000
0300
,
0000
0000
0000
0000
0000
0000
0000
0000
0000
0000
0000
0010
,
0000
0000
0010
1000
0000
0000
0001
0000
0000
0000
0000
0010
,
0000
0000
0010
0001
0000
0000
1000
0000
0000
0000
0000
0000
,
1000
1000
1000
0000
,
0001
0001
0001
0000
,
1000
1000
0100
0000
,
0010
0010
0001
0000
,
1001
0000
0000
0000
0000
0000
0000
0000
0000
0001
0000
0200
,
0000
0000
0000
0000
0000
0000
0300
0000
0000
0000
0000
0001
,
0000
0000
0100
1000
0000
0000
0100
0000
0000
0001
0000
1000
,
0000
0000
0100
0001
0000
0000
0100
0000
0000
1000
0000
0000
,
0002
0010
1003
0000
,
1000
0001
0010
0100
,
2000
0000
0000
3000
,
0001
0000
1000
0000
,
0001
0001
0100
0000
,
0010
0000
0000
0010
0000
0000
1000
0000
0000
0000
0000
0010
,
0000
0000
0010
1000
0000
0000
0001
0000
0000
0000
0000
0010
,
0000
0000
0010
0001
0000
0000
1000
0000
0000
0000
0000
0001
,
0000
0000
0001
1000
0000
0000
0001
0000
0000
0000
0000
1000
,
0000
0000
1000
0001
0000
0000
1000
0000
0000
0000
0000
0000
,
0001
0001
1000
0000
,
0001
1000
0010
0100
,
0001
0000
1000
0000
0001
0000
1000
0000
0001
0000
0000
0200
,
0000
0000
0000
0000
0000
0000
0300
0000
0000
0000
0000
0001
,
0000
0000
0100
1000
0000
0000
0100
0000
0000
0001
0000
1000
,
0000
0000
0100
0001
0000
0000
0100
0000
0000
1000
0000
0000
,
0002
0010
1003
0000
,
1000
0001
0010
0100
,
2000
0000
0000
3000
,
0001
0001
0100
0001
,
1000
1000
0010
1000
,
0001
0001
1000
0000
,
0001
0000
1010
0000
,
1000
0000
0011
0000
,
0001
0000
1010
0000
,
1000
0000
0011
0000
,
0000
0011
0000
0011
,
0001
0010
0100
1000
,
0010
0000
0000
0000
0000
0000
0000
0000
0000
0000
0000
1001
,
0000
0000
0000
0000
,
0000
0001
0000
0100
,
0000
1000
0000
0100
,
0001
0001
0100
0100
,
1000
1000
0100
0000
,
0010
0100
0000
1000
,
0000
0100
0000
0001
,
0000
0010
0000
0000
,
0011
1001
1100
0000
,
1010
1001
0101
0000
,
0011
1001
1100
0000
,
0001
1000
0100
1000
0001
0100
,
0001
0000
0100
0000
1000
0000
0100
0000
0000
0000
0000
2002
,
0000
0000
0000
0000
,
0000
0000
0000
3003
,
0000
0000
0000
0000
;
#NOTES:
     dance-single:
     :
     Hard:
     13:
     :
0000
0000
0000
0000
,
0000
0000
0000
0000
,
0000
0000
0000
0000
,
0000
0000
0000
0000
,
0001
0000
0100
0000
1000
0000
1000
0000
0000
0100
0000
0001
,
0000
0000
0000
1001
0000
0000
0000
0000
0000
0000
0000
0001
,
0000
0000
0001
0100
0000
0000
1000
0000
1000
0100
0000
0000
,
0001
0000
0001
0100
0000
0000
1000
0000
1000
0100
0000
0000
,
0110
0000
0000
0001
0000
0000
1000
0000
0100
0000
0000
0010
,
0000
0000
0001
0000
0000
1000
0000
0000
0100
0000
0000
0000
,
0100
0000
0010
0000
0000
0011
0000
0000
0001
0010
0000
0000
,
0010
0000
0100
0000
0000
1100
0000
0000
0100
0000
0000
1000
,
0000
0000
1000
0100
0000
0000
0001
0000
0000
0010
0000
0000
,
1000
0000
0001
0000
0000
1001
0000
0000
0000
0000
0000
1000
,
0000
0000
0000
0100
0000
0000
0010
0000
0001
0000
0000
0001
,
0000
0000
0100
0000
0000
1000
0000
0000
0100
0010
0000
0001
,
0010
0000
0000
0100
0000
0000
0010
0000
1000
0000
0000
0100
,
0000
0000
0010
0000
0000
0001
0000
0000
1000
0000
0000
1001
,
0000
0000
0000
0001
0000
0000
0100
0000
0010
0000
0000
1000
,
0000
1000
0100
0010
,
0001
0000
0000
0010
0000
0000
1000
0000
0010
0000
0000
0001
,
0000
0000
0000
1001
0000
0000
0000
0000
0000
0000
0000
1000
,
0000
0000
1000
0100
0000
0100
0010
0000
0010
0001
0000
0000
,
0001
0000
0001
0100
0000
0100
0010
0000
0010
0100
0000
0000
,
0001
0000
0001
1000
0000
1000
0010
0000
0010
0100
0000
0000
,
0010
0000
0010
1000
0000
0001
0000
0000
0000
0000
0000
0000
,
1000
0000
0000
0001
0000
0100
0000
0000
0010
0100
0000
0000
,
0010
0000
0000
0001
0000
0010
0000
0000
1000
0100
0000
0000
,
0010
0000
1000
0000
0001
0000
0100
0000
0000
0010
0000
1000
,
0000
0000
0001
0100
0000
1000
0000
0000
0001
0100
0000
1000
,
0000
0000
0100
0010
0000
0000
0200
0000
0000
0001
0000
0000
,
0320
0001
0230
0001
,
0320
0000
0000
0000
0000
0000
0000
0000
0000
0000
0000
0200
,
0000
0000
0000
0000
0330
0000
0000
0000
1000
0001
0000
0100
,
0000
1000
0100
0001
,
0100
0000
0000
0100
0000
0000
0001
0000
0010
0000
0000
0100
,
0000
0000
0000
1000
0000
0000
0010
0000
1000
0000
0000
1000
,
0000
0000
0001
0100
0000
0001
0000
0000
1000
0100
0000
0001
,
0000
0100
1000
0100
,
1100
0000
0000
0000
0000
0110
0000
0000
1000
0100
0000
0020
,
0000
1000
0230
1300
,
1100
0000
0000
0000
0000
0110
0000
0000
0001
1000
0000
0010
,
0000
0000
0000
0100
0000
0001
0000
0000
0000
0000
0000
0000
,
0001
0000
0000
0010
0000
0000
0100
0000
1000
0000
0000
0001
,
0000
0000
0010
0001
0000
0000
0010
0000
0001
0010
0000
0000
,
0100
0000
1000
0100
0000
0000
1000
0000
0100
0000
0000
0010
,
0100
0000
1000
0100
0000
0010
0100
0000
0001
0100
0000
0010
,
0100
0000
1000
0001
0000
0000
1000
0000
0000
0000
0000
1010
,
0000
0000
0010
1000
0000
1000
0001
0000
0010
0000
0000
0011
,
0000
0000
0010
0001
0000
0001
1000
0000
0010
0000
0000
1000
,
0000
0000
1000
0001
0000
1000
0001
0000
0100
0000
0000
0020
,
0000
0000
0030
0000
,
2000
0000
0000
0001
0000
0000
0100
0000
0000
3001
0000
0100
,
0020
1000
0100
1030
,
0001
0000
0100
0000
1000
0000
0100
0000
0000
0010
0000
0200
,
0000
0000
0000
0000
0000
0000
0300
0000
0000
0000
0000
0001
,
0000
0000
0100
1000
0000
0100
0001
0000
1000
0000
0000
1000
,
0000
0000
0100
0001
0000
0100
1000
0000
0001
0000
0000
1000
,
0002
0000
0000
0010
0000
0000
1003
0000
0000
0000
0000
1000
,
0000
0000
0001
0100
0000
0010
0000
0000
1000
0001
0000
0100
,
0000
0000
0010
0100
0000
0000
0001
0000
0000
1000
0000
0100
,
0000
0000
0010
0001
0000
0000
1000
0000
0000
0100
0000
0000
,
2000
0000
0000
0000
0000
0000
3020
0000
0000
0000
0000
0230
,
0000
0000
0000
0300
0000
1001
0000
0000
0000
0000
0000
1010
,
0000
0000
0010
1000
0000
1000
0001
0000
0010
0000
0000
0011
,
0000
0000
0010
0001
0000
0001
1000
0000
0010
0000
0000
1000
,
0000
0000
1000
0001
0000
1000
0001
0000
0100
0000
0000
0020
,
0000
0000
0030
0000
,
0100
0000
0000
0100
0000
0000
0001
0000
0100
0000
0000
0010
,
0000
0010
0100
0001
,
1000
0000
0100
0000
0001
0000
0100
0000
1000
0000
0000
2002
,
0000
0000
0000
0000
0000
0000
3003
0000
0000
0000
0000
0001
,
0000
0000
0100
1000
0000
0100
0001
0000
1000
0000
0000
1000
,
0000
0000
0100
0001
0000
0100
1000
0000
0001
0000
0000
1000
,
0002
0000
0000
0010
0000
0000
1003
0000
0000
0000
0000
0001
,
0000
0000
1000
0100
0000
0010
0000
0000
0001
0000
0000
2000
,
0000
0000
0000
0000
0000
0000
3000
0000
0001
1000
0000
0001
,
0000
1000
0100
1000
,
0001
0000
0000
0100
0000
0000
0001
0000
0100
0000
0000
1000
,
0100
0000
0000
0001
0000
0000
1000
0000
0000
0000
0000
0001
,
0000
0000
0000
0010
0000
0010
1000
0000
0000
1000
0000
0000
,
0010
0000
0000
0010
0000
0001
0000
0000
0001
0010
0000
0001
,
0000
0000
0000
0010
0000
0010
1000
0000
0000
1000
0000
0000
,
0010
0000
0010
0000
0000
0001
0000
0000
0000
0000
0000
0001
,
0000
0011
0010
0110
,
0100
1100
1000
1001
,
0001
0000
1000
0000
0001
0000
0010
0000
0000
0100
0000
1000
,
0000
0000
0000
0000
0000
1001
0000
0000
0000
0000
0000
0000
,
1000
0000
0000
0010
0000
0000
1000
0000
0001
0100
0000
0001
,
0000
0000
1000
0100
0000
1000
0000
0000
0001
0010
0000
0001
,
0000
0000
0000
0001
0000
1000
0001
0000
0010
0000
0000
0011
,
0000
0000
0001
1000
0000
0001
0100
0000
0000
0010
0000
0000
,
0100
0000
0000
0110
0000
0000
0001
0000
1000
0100
0000
1000
,
0000
0000
0001
0100
0000
0001
0000
0000
1000
0010
0000
1000
,
0000
0000
0000
1000
0000
0001
1000
0000
0010
0000
0000
0010
,
0000
0000
0010
1000
0000
0100
0010
0000
0000
0100
0000
0010
,
0000
0000
0010
0001
0000
0100
0010
0000
0000
0100
0000
0010
,
0000
0000
0010
1000
0000
0100
0010
0000
0100
0000
1000
0000
,
0001
1000
1001
1000
0001
0011
,
0001
0000
1000
0000
1100
0000
0000
0000
0000
0000
0000
2002
,
0000
0000
0000
0000
,
0000
0000
0000
0000
,
0000
0000
0000
0000
,
0000
0000
0000
0000
,
3003
0000
0000
0000
,
0000
0000
0000
0000
;
#NOTES:
     dance-double:
     :
     Easy:
     5:
     :
00000000
00000000
00000000
00000000
,
00000000
00000000
00000000
00000000
,
00000000
00000000
00000000
00000000
,
00000000
00000000
00000000
00000000
,
00000000
00000000
00000000
00000000
,
00000000
00000000
00000000
00000000
,
00200000
00000000
00010000
00000000
,
00302000
00000000
00010000
00000000
,
00203000
00000000
00010000
00000000
,
00302000
00000000
00013000
00000000
,
00011000
00000000
00000000
00000000
,
00010010
00000000
00000000
00000000
,
00001000
00000000
01000000
00000000
,
01001000
00000000
00000000
00000000
,
00001000
00000000
00000000
00000000
,
00010000
00000000
00000000
00000000
,
00100000
00000000
00000000
00000000
,
10000000
00000000
00000000
00000000
,
01000000
00000000
00000000
00000000
,
00010000
00000000
00000000
00000000
,
00001000
00000000
00000000
00000000
,
00010000
00000000
00000000
00000000
,
00001000
00000000
00001000
00000000
,
00000010
00000000
00000000
00000000
,
00000001
00000000
00000001
00000000
,
00000100
00000000
00000000
00000000
,
00001000
00000000
00000000
00000000
,
00010000
00000000
00000000
00000000
,
00100000
00000000
00000000
00000000
,
10010000
00000000
00000000
00000000
,
10000000
00000000
10000000
00000000
,
00010000
00000000
00000000
00000000
,
00100000
00000000
00100000
00000000
,
00001000
00000000
00000000
00000000
,
00020000
00000000
00000000
00030000
,
00000000
00000000
00000000
00000000
,
00000200
00000000
00000000
00000300
,
00000000
00000000
00000000
00000000
,
00000010
00000000
00000001
00000000
,
00001000
00000000
00000000
00000000
,
00000010
00000000
00010000
00000000
,
00001000
00000000
00000000
00000000
,
00001000
00000000
00001000
00000000
,
00100000
00000000
00000000
00000000
,
02000000
00000000
00000000
03000000
,
00000000
00000000
00000000
00000000
,
00020000
00000000
00000000
00030000
,
00000000
00000000
00000000
00000000
,
00001000
00000000
00010000
00000000
,
00000100
00000000
00000000
00000000
,
00010000
00000000
00001000
00000000
,
01000000
00000000
00000000
00000000
,
01000000
00000000
00001000
00000000
,
00010000
00000000
00000010
00000000
,
00010000
00000000
00001000
00000000
,
00011000
00000000
00000000
00000000
,
01000000
00000000
00010000
00000000
,
01000000
00000000
00001000
00000000
,
00010000
00000000
00000100
00000000
,
00010000
00000000
00001000
00000000
,
00020000
00000000
00000000
00000000
,
00000000
00000000
00030000
00000000
,
00002000
00000000
00000000
00000000
,
00000000
00000000
00003000
00000000
,
00001000
00010000
00001000
00000000
,
00010000
00001000
00010000
00000000
,
00010000
00000000
01000000
00000000
,
10000000
00000000
01000000
00000000
,
00010000
00000000
00010000
00000000
,
00001000
00000000
00000000
00000000
,
00010000
00000000
00001000
00000000
,
00000100
00000000
00001000
00000000
,
00010000
00001000
00100000
00000000
,
00001000
00010000
00000010
00000000
,
00010000
00000000
00001000
00000000
,
00000100
00000000
00001000
00000000
,
00010000
00000000
00010000
00000000
,
00100000
00000000
00100000
00000000
,
10000000
00000000
01000000
00000000
,
00010000
00000000
00001000
00000000
,
00010000
00001000
00100000
00000000
,
00001000
00010000
00000100
00000000
,
00010000
00001000
01000000
00000000
,
00001000
00010000
00000010
00000000
,
00010000
00001000
00010000
00001000
,
00010000
00001000
00010000
00001000
,
01000000
00000000
00000000
00000000
,
00011000
00000000
00000000
00000000
,
00010000
00000000
00000000
00000000
,
00100000
00000000
00000000
00000000
,
10000000
00000000
00000000
00000000
,
01000000
00000000
00000000
00000000
,
00010000
00000000
00000000
00000000
,
00001000
00000000
00000000
00000000
,
00000010
00000000
00000000
00000000
,
00000110
00000000
00000000
00000000
,
00010100
00000000
00000000
00000000
,
00011000
00000000
00000000
00000000
,
00100000
00000000
00001000
00000000
,
00010000
00000000
00000000
00000000
00000000
00000000
00000100
00000000
00000000
00000000
00000000
00010100
,
00000000
00000000
00000000
00000000
;
#NOTES:
     dance-double:
     :
     Medium:
     11:
     :
00000000
00000000
00000000
00000000
,
00000000
00000000
00000000
00000000
,
00000000
00000000
00000000
00000000
,
00000000
00000000
00000000
00000000
,
00010000
00000000
01000000
00000000
10000000
00000000
00100000
00000000
00000000
00010000
00000000
00001000
,
00000000
00000000
00000000
00010010
00000000
00000000
00000000
00000000
00000000
00000000
00000000
00020010
,
00000000
00001000
00030020
00001000
,
00020030
00001000
00030020
00001030
,
00000010
00000000
00000000
00010000
00000000
00000000
00000010
00000000
00001000
00000000
00000000
00000001
,
00000000
00000000
00000010
00000000
00000000
00000001
00000000
00000000
00001000
00000000
00000000
00000000
,
00010010
00000000
00000000
00001000
00000000
01000000
00000000
00000000
00000000
00000000
00000000
00000000
,
01001000
00000000
00000000
00010000
00000000
00000010
00000000
00000000
00000000
00000000
00000000
00000010
,
00000000
00000000
00000010
00001000
00000000
00000000
00010000
00000000
00000000
00100000
00000000
00000000
,
00000000
00000000
00101000
00000000
00000000
00101000
00000000
00000000
00000000
00000000
00000000
00000000
,
00000000
00001000
00000000
00010000
,
00000000
01000000
00000000
00100000
,
00000000
00001000
00000000
00010000
,
00000000
01000000
00000000
00100000
,
00000000
00010000
00000000
00001000
,
00000000
00000100
00000000
00000010
,
00000000
00000001
00000000
00001000
,
00000000
00000000
00000000
00001001
00000000
00000000
00000000
00000000
00000000
00000000
00000000
00000001
,
00000000
00000000
00000000
00000100
00000000
00000000
00000010
00000000
00000100
00000000
00000000
00000010
,
00000000
00000000
00000000
00001000
00000000
00000000
00000010
00000000
00010000
00000000
00000000
00001000
,
00000000
00000000
00000000
01000000
00000000
00000000
00010000
00000000
01000000
00000000
00000000
00100000
,
00000000
00000000
10000000
00000000
00000000
00010000
00000000
00000000
10000000
00000000
00000000
00000000
,
00000000
00000000
00000000
00010000
00000000
00000000
00100000
00000000
00010000
00000000
00000000
00100000
,
00000000
00001000
00010000
00000100
,
00000010
00000000
00000001
00000000
00001000
00000000
00000100
00000000
00000000
00000010
00000000
00000001
,
00000000
00000000
00000000
00000000
00000000
00001000
00000000
00000000
00000000
00000000
00000000
00000020
,
00000000
00001000
00020030
00001000
,
00030200
00001000
00000320
00001000
,
00000230
00000000
00000000
00001000
00000000
00000000
00000320
00000000
00000000
00000000
00000000
00000130
,
00000000
00000000
00000000
00000000
00000000
00000000
00000000
00000000
00000010
00000000
00000000
00000010
,
00000000
00000001
00001000
00000100
,
00010000
00000000
00000000
00000100
00000000
00000000
00020000
00000000
00001000
00000000
00000000
00130000
,
00000000
00000000
00000000
10000000
00000000
00000000
00010000
00000000
00100000
00000000
00000000
00001000
,
00000000
00000000
00000000
00000000
00000000
00000000
00000000
00000000
00001000
00000000
00000000
00100000
,
00000000
00010000
00001000
00000100
,
00002000
00000000
00000000
00000000
00000000
00003010
00000000
00000000
00010000
00000000
00000000
00000010
,
00000000
00001000
00010000
01000000
,
00020000
00000000
00000000
00000000
00000000
00130000
00000000
00000000
00001000
00000000
00000000
00100000
,
00000000
00000000
00000000
00001000
00000000
00000010
00000000
00000000
00000000
00000000
00000000
00000000
,
00000010
00000000
00000000
00001000
00000000
00000000
00100000
00000000
00010000
00000000
00000000
10000000
,
00000000
00000000
00020000
00000000
,
00032000
00000000
00003020
00000000
,
00020030
00000000
00000000
00000000
,
00000000
00000000
00000000
00000000
00000000
00000000
00030000
00000000
00000000
00000000
00000000
00001000
,
00000000
00000000
00001000
00010000
00000000
00000000
00000100
00000000
00000000
00000000
00000000
00010000
,
00000000
00000000
00010000
00001000
00000000
00000000
01000000
00000000
00000000
00000000
00000000
01000000
,
00000000
00000000
01000000
00001000
00000000
00000000
01000000
00000000
00000000
00000000
00000000
00002000
,
00000000
00000000
00003000
00000000
,
01000000
00000000
00000000
00001000
00000000
00000000
01000000
00000000
00000000
00001000
00000000
00010000
,
00000010
00010000
00000010
00010000
,
00001000
00000000
00010000
00000000
00001000
00000000
00010000
00000000
00000000
00001000
00000000
02000000
,
00000000
00000000
00000000
00000000
00000000
00000000
03000000
00000000
00000000
00000000
00000000
01000000
,
00000000
00000000
00010000
01000000
00000000
00000000
00001000
00000000
00010000
00000000
00000000
00000100
,
00000000
00000000
00001000
00000100
00000000
00000000
00010000
00000000
00001000
00000000
00000000
00000000
,
00000010
00000000
00000000
00001000
00000000
00000000
00100000
00000000
00000000
00000000
00000000
00100000
,
00000000
00000000
00001000
00000000
00000000
00010000
00000000
00000000
00000100
00000000
00000000
00000001
,
00000000
00000100
00000010
00000001
,
00001000
00000100
00010000
00000100
,
00000010
00000000
00000000
00000000
00000000
00000000
00001000
00000000
00000000
00000000
00000000
00010000
,
00000000
00000000
00000000
00000000
00000000
00101000
00000000
00000000
00000000
00000000
00000000
00001000
,
00000000
00000000
00001000
00010000
00000000
00000000
00000100
00000000
00000000
00000000
00000000
00010000
,
00000000
00000000
00010000
00001000
00000000
00000000
01000000
00000000
00000000
00000000
00000000
01000000
,
00000000
00000000
01000000
00001000
00000000
00000000
00010000
00000000
00000000
00000000
00000000
00000020
,
00000000
00000000
00000030
00000000
,
00000100
00000000
00000000
00000000
00000000
00000000
00000100
00000000
00000000
00000000
00000000
00001000
,
00000000
00000000
00010000
00001000
,
00010000
00000000
00000100
00000000
00010000
00000000
00000100
00000000
00010000
00000000
00000000
00001000
,
00000000
00000000
00000000
00000000
00000000
00000000
00000000
00000000
00000000
00000000
00000000
01000000
,
00000000
00000000
00010000
01000000
00000000
00000000
00001000
00000000
00010000
00000000
00000000
00000100
,
00000000
00000000
00001000
00000100
00000000
00000000
00010000
00000000
00001000
00000000
00000000
00000000
,
00000010
00000000
00000000
00001000
00000000
00000000
00100000
00000000
00000000
00000000
00000000
00100000
,
00000000
00000000
00001000
00000000
00000000
00010000
00000000
00000000
00000010
00000000
00000000
00001000
,
00000000
00000001
00000010
00000100
,
00010000
00001000
00100000
01000000
,
10000000
00000000
00000000
01000000
00000000
00000000
00010000
00000000
00001000
00000000
00000000
00020000
,
00000000
00000000
00000000
00000000
00000000
00000000
00030000
00000000
00000000
00000000
00000000
00000100
,
00000000
00000000
00000000
00010000
00000000
00001000
00100000
00000000
00000000
00000000
00000000
00000000
,
00001000
00000000
00000000
00010000
00000000
00000100
00000000
00000000
00001000
00000000
00000000
00000010
,
00000000
00000000
00000000
00010000
00000000
00001000
01000000
00000000
00000000
00000000
00000000
00000000
,
00001000
00000000
00000000
00010000
00000000
00000010
00000000
00000000
00000000
00000000
00000000
00000000
,
00000000
00011000
00000000
00010010
,
00000000
00011000
00000000
01001000
,
01000000
00000000
00001000
00000000
00010000
00000000
00000010
00000000
00000000
00001000
00000000
00000100
,
00000000
00000000
00000000
00000000
00000000
00010100
00000000
00000000
00000000
00000000
00000000
00000000
,
00002000
00010000
00023000
00000010
,
00030000
00010010
00000000
00011000
,
00000000
00002000
00000000
00003100
,
00000000
00000200
00000000
00000301
,
00000010
00001000
00010000
00000000
,
01200000
00000000
02000000
00300000
,
00200000
00000000
00000000
03000000
00000000
00000000
00000000
00000000
00300000
00000000
00000000
00020000
,
00000000
00000000
00031000
00000000
00000000
00001000
00000010
00000000
00000000
00000000
00000000
00002000
,
00000000
00000000
00013000
00000000
00000000
00010000
00100000
00000000
00000000
00000000
00000000
00020000
,
00000000
00000000
00031000
00000000
00000000
00001000
00000010
00000000
00000000
00000000
00000000
00000000
,
00002001
00000000
00000000
00003000
00000100
00000000
00020000
00000000
00000000
00030000
00001000
00000000
,
00200000
00000000
00000000
00300000
00010000
00000000
10000000
00000000
00000000
00000000
00000000
00020000
,
00000000
00000000
00000000
00000000
,
00000000
00000000
00000000
00000000
,
00000000
00000000
00000000
00000000
,
00000000
00000000
00000000
00000000
,
00030000
00000000
00000000
00000000
,
00000000
00000000
00000000
00000000
;
#NOTES:
     dance-double:
     :
     Hard:
     14:
     :
00000000
00000000
00000000
00000000
,
00000000
00000000
00000000
00000000
,
00000000
00000000
00000000
00000000
,
00000000
00000000
00000000
00000000
,
00100000
00000000
00001000
00000000
00000010
00000000
00001000
00000000
00000000
00010000
00000000
01000000
,
00000000
00000000
00000000
10010000
00000000
00000000
00000000
00000000
00000000
00000000
00000000
10000000
,
00000000
00000000
10000000
01000000
00000000
00000000
00100000
00000000
00001000
00000000
00000000
00010000
,
00000000
00000010
00000100
00000001
,
00000001
00000000
00000000
00000010
00000000
00000000
00000100
00000000
00010000
00000000
00000000
00001000
,
00000000
00000000
00100000
00000000
00000000
01000000
00000000
00000000
10000000
00000000
00000000
00000000
,
10000000
00000000
00010000
00000000
00000000
01010000
00000000
00000000
01000000
00001000
00000000
00000000
,
00010000
00000000
00000010
00000000
00000000
00010010
00000000
00000000
00001010
00000000
00000000
00000010
,
00000000
00000000
00000100
00001000
00000000
00000000
00010000
00000000
00000000
01000000
00000000
00000000
,
00100000
00000000
01100000
00000000
00000000
01100000
00000000
00000000
00000000
00000000
00000000
00010000
,
00000000
00001000
00001000
00000010
,
00000010
00000100
00000100
00010000
,
00001000
01000000
01000000
00100000
,
00100000
00000000
00000000
00010000
00000000
00000000
00010000
00000000
00001000
00000000
00000000
00011000
,
00000000
00000000
00000000
00001000
00000000
00000000
00000100
00000000
00000010
00000000
00000000
00010000
,
00000000
00001000
00010000
01000000
,
00100000
00000000
00000000
00001000
00000000
00000000
00010000
00000000
00001000
00000000
00000000
00000100
,
00000000
00000000
00000000
00001001
00000000
00000000
00000000
00000000
00000000
00000000
00000000
00001000
,
00000000
00000000
00000010
00001000
00000000
00000000
00000010
00000000
00010000
00000010
00000000
00000000
,
00010000
00000000
00001000
00010000
00000000
00000000
00001000
00000000
01000000
00001000
00000000
00000000
,
00010000
00000000
00001000
00010000
00000000
00000000
00001000
00000000
00100000
00001000
00000000
00000000
,
00010000
00000000
00000100
00010000
00000000
00000100
00000000
00000000
00000000
00000000
00000000
00000000
,
00001000
00000000
00000000
00000001
00000000
00000100
00000000
00000000
00000010
00000100
00000000
00000000
,
00000010
00000000
00000000
00010000
00000000
00000010
00000000
00000000
00001000
00000100
00000000
00000000
,
00000010
00000000
00001000
00000000
00010000
00000000
01000000
00000000
00000000
00100000
00000000
00001000
,
00000000
00000000
01000000
00001000
00000000
00010000
00000000
00000000
00000100
00010000
00000000
00001000
,
00000000
00000000
00000000
02000000
00000000
00000000
00001000
00000000
00000000
03010000
00000000
10000000
,
00010000
00000000
00000000
00020000
00000000
00000000
10000000
00000000
00000000
01030000
00000000
00001000
,
00010000
00000000
00000000
00020000
00000000
00000000
00001000
00000000
00000000
00030010
00000000
00001000
,
00000010
00000000
00000000
00000020
00000000
00000000
00000130
00000000
00000001
00001000
00000000
00000001
,
00000200
00000000
00000000
00000001
00000000
00000000
00000010
00000000
00000000
00001300
00000000
00001000
,
00010000
00000000
00000000
00001000
00000000
00000000
00020000
00000000
00100000
00000000
00000000
00030010
,
00000000
00000000
00000000
00000010
00000000
00000000
00001000
00000000
00000100
00000000
00000000
00010000
,
00000000
00000000
00001000
00100000
00000000
00001000
00000000
00000000
00010000
00000100
00000000
00001000
,
00000000
00000100
00010000
00001000
,
00010000
00000000
00000000
00001000
00000000
01000000
00000000
00000000
00001000
01000000
00000000
00010000
,
00000000
01000000
00001000
00010000
,
00001000
00000000
00000000
00010000
00000000
00000100
00000000
00000000
00010000
00001000
00000000
00000010
,
00000000
00000000
00000000
00000001
00000000
00000100
00000000
00000000
00000000
00000000
00000000
00000000
,
00000100
00000000
00000000
00001000
00000000
00000000
00010000
00000000
01000000
00000000
00000000
10000000
,
00000000
00000000
00010000
01000000
00000000
00000000
00001000
00000000
01000000
00001000
00000000
00000000
,
00010000
00000000
00001000
00010000
00000000
00000000
00000010
00000000
00010000
00000010
00000000
00000000
,
00001000
00000010
00000000
00000100
00000010
00000000
00000001
00000010
00000000
00000100
00000010
00000000
,
00001000
00000010
00000000
00010000
00000000
00000000
00001000
00000000
00000000
00000000
00000000
00011000
,
00000000
00000000
00010000
00001000
00000000
00010000
00000100
00000000
00010000
00000000
00000000
00011000
,
00000000
00000000
00001000
00010000
00000000
00001000
01000000
00000000
00001000
00000000
00000000
01000000
,
00000000
00000000
01000000
00001000
00000000
01000000
00001000
00000000
00010000
00000000
00000000
00000010
,
00000000
00000000
00000010
00010000
00000000
00000010
00010000
00000000
00001000
00000000
00000000
00001000
,
02000000
00000000
00000000
00001000
00000000
00000000
00010000
00000000
00000000
03001000
00000000
00010000
,
00000020
00000000
00000000
00001000
00000000
00000000
00010000
00000000
00000000
00001030
00000000
00000001
,
00001000
00000000
00000100
00000000
00010000
00000000
00001000
00000000
00000000
00100000
00000000
01000000
,
00000000
00000000
01000000
00010000
00000000
00000000
00001000
00000000
00000000
00010000
00000000
01000000
,
00000000
00000000
10000000
01000000
00000000
10000000
01000000
00000000
10000000
00000000
00000000
00010000
,
00000000
00000000
01010000
00000000
00000000
01010000
00000000
00000000
01000000
00001000
00000000
00010000
,
00000000
00000000
00000000
00000100
00000000
00000000
00001000
00000000
00000001
00000000
00000000
00000010
,
00000000
00000000
00000001
00000100
00000000
00000010
00000000
00000000
00001000
00010000
00000000
01000000
,
00000000
00000000
00100000
01000000
00000000
00000000
00010000
00000000
00000000
01000000
00000000
00010000
,
00000000
00000000
01000000
00001000
00000000
00000000
00010000
00000000
00000000
00000010
00000000
00000000
,
00002000
00000000
00000000
00000000
00000000
00000000
00003020
00000000
00000000
00000000
00000000
00020030
,
00000000
00000000
00000000
00000000
00000000
00030100
00000000
00000000
00000000
00000000
00000000
00011000
,
00000000
00000000
00010000
00001000
00000000
00010000
00000100
00000000
00010000
00000000
00000000
00011000
,
00000000
00000000
00001000
00010000
00000000
00001000
01000000
00000000
00001000
00000000
00000000
01000000
,
00000000
00000000
01000000
00001000
00000000
01000000
00001000
00000000
00010000
00000000
00000000
00000010
,
00000000
00000000
00000010
00010000
00000000
00000010
00010000
00000000
00001000
00000000
00000000
00000000
,
00200000
00000000
00000000
00000000
00000000
00000000
00320000
00000000
00000000
00000000
00000000
00032000
,
00000000
00000000
00003200
00000300
,
00010100
00000000
00000100
00000000
00010000
00000000
00001000
00000000
00100000
00000000
00000000
00101000
,
00000000
00000000
00100000
00000000
00001000
00000000
00010000
00000000
00001000
00000000
00000000
00000100
,
00000000
00000000
00000001
00000100
00000000
00000001
00000100
00000000
00000001
00000000
00000000
00001000
,
00000000
00000000
00001100
00000000
00000000
00001100
00000000
00000000
00000100
00010000
00000000
00001000
,
00000000
00000000
00000000
01000000
00000000
00000000
00010000
00000000
10000000
00000000
00000000
00100000
,
00000000
00000000
10000000
00100000
00000000
00010000
00000000
00000000
00010010
00000000
00000000
00001010
,
00000000
00000000
00001000
00000001
00000000
00000000
00000010
00000000
00000000
00000100
00000000
00000000
,
00010000
00000000
00001000
00010000
00000000
00000000
01000000
00000000
00000000
00100000
00000000
00000000
,
00010000
00000000
10000000
00100000
00000000
00000000
01000000
00000000
00001000
00000000
00000000
00010000
,
00000000
00000000
00000000
00000100
00000000
00000000
00000010
00000000
00000000
00000000
00000000
00000100
,
00000000
00000000
00000000
00010000
00000000
00000100
00001000
00000000
00000000
00000100
00000000
00020000
,
00001000
00000000
00000000
00032000
00000000
00103000
00000000
00000000
00001000
00010000
00000000
00000010
,
00000000
00000000
00000000
00010000
00000000
00000010
00001000
00000000
00000000
00000010
00000000
00020000
,
00001000
00000000
00032000
00000000
00000000
01003000
00000000
00000000
00000000
00000000
00000000
00010000
,
00000000
01100000
00010000
00110000
,
00001000
00011000
00000100
00001100
,
00000001
00000000
00000100
00000000
00001000
00000000
00010000
00000000
00000000
01000000
00000000
10000000
,
00000000
00000000
00000000
00000000
00000000
10010000
00000000
00000000
00000000
00000000
00000000
00000000
,
00010000
00000000
00000000
01000000
00000000
00000000
00100000
00000000
01000000
20000000
00000000
31000000
,
00000000
00000000
01000000
00200000
00000000
01300000
00000000
00000000
01000000
00020000
00000000
01030000
,
00000000
00000000
01000000
00001000
00000000
01000000
00001000
00000000
00010000
00000000
00000000
00000010
,
00000000
00000000
00010000
00001000
00000000
00000100
00000001
00000000
00000000
00001000
00000000
00000000
,
00001000
00000000
00000000
00000100
00000000
00000000
00000010
00000000
00000100
00000002
00000000
00000103
,
00000000
00000000
00000100
00000020
00000000
00000130
00000000
00000000
00000100
00002000
00000000
00003100
,
00000000
00000000
00000100
00010000
00000000
00001000
01000000
00000000
00010000
00000000
00000000
10000000
,
00000000
00000000
01000000
00100000
00000000
01000000
00020000
00000000
00000000
01030000
00000000
00010000
,
00000000
00000000
00001000
00010000
00000000
00001000
00000200
00000000
00000000
00001300
00000000
00000100
,
00000000
00000000
00000001
00000100
00000000
00000001
00000010
00000000
00000001
00000000
00001000
00000000
,
00000001
00000010
00001000
00000010
00001000
00010000
,
00001000
00000000
00010000
00000000
01000000
00000000
10000000
00000000
00000000
00000000
00000000
20020000
,
00000000
00000000
00000000
00000000
,
00000000
00000000
00000000
00000000
,
00000000
00000000
00000000
00000000
,
00000000
00000000
00000000
00000000
,
30030000
00000000
00000000
00000000
,
00000000
00000000
00000000
00000000
;
