
//----- song ID: kkkr -----//
#TITLE:ここからよろしく大作戦143;
#ARTIST:BEMANI Sound Team "あさき隊";
#TITLETRANSLIT:Koko kara yoroshiku daisakusen 143;
#ARTISTTRANSLIT:BEMANI Sound Team "Asaki-tai";
#CDTITLE:./CDTitles/DDR A20 PLUS.png;
#MUSIC:Koko kara yoroshiku daisakusen 143.ogg;
#SAMPLESTART:24.503;
#SAMPLELENGTH:15;
#BPMS:0=184;
#NOTES:
     dance-single:
     :
     Beginner:
     3:
     :
0000
0000
0000
0000
,
0000
0000
0000
0000
,
0000
0000
0000
0000
,
0001
0000
0001
0000
,
1000
0000
0100
0000
,
0010
0000
0010
0000
,
0001
0000
0100
0000
,
0001
0000
0001
0000
,
0010
0000
0100
0000
,
1000
0000
0000
0000
,
0010
0000
0100
0000
,
0001
0000
0001
0000
,
0100
0000
1000
0000
,
1000
0000
1000
0000
,
0100
0000
0001
0000
,
0010
0000
1000
0000
,
1000
0000
0001
0000
,
0100
0000
0100
0000
,
1000
0000
0001
0000
,
1001
0000
0000
0000
,
0110
0000
0000
0000
,
0001
0000
0010
0000
,
0100
0000
0100
0000
,
0100
0000
0010
0000
,
0001
0000
0100
0000
,
0100
0000
1000
0000
,
0010
0000
0001
0000
,
1000
0000
0000
0000
,
0100
0000
0000
0000
,
1000
0000
0001
0000
,
0010
0000
0000
0000
,
1000
0000
0000
0000
,
0001
0000
0000
0000
,
0010
0010
0010
0000
,
0020
0000
0030
0000
,
0001
0000
0001
0000
,
1000
0000
1000
0000
,
0010
0000
0100
0000
,
0010
0000
0000
0000
,
0010
0000
0001
0000
,
1000
0000
0010
0000
,
0100
0000
0000
0000
,
0100
0000
0000
0000
,
1000
0000
1000
0000
,
0100
0000
0010
0000
,
0001
0000
0001
0000
,
0010
0000
0100
0000
,
2000
0000
3000
0000
,
0010
0000
0100
0000
,
2000
0000
3000
0000
,
0100
0000
0100
0000
,
0001
0000
0001
0000
,
1000
0000
0000
0000
,
0100
0000
0010
0000
,
0100
0000
0010
0000
,
1001
0000
0000
0000
,
0110
0000
0000
0000
,
1001
0000
0000
0000
,
0110
0000
0000
0000
,
0020
0000
0030
0000
,
0200
0000
0300
0000
,
0020
0000
0030
0000
,
1000
0000
1000
0000
,
2000
0000
3000
0000
,
0020
0000
0030
0000
,
0100
0000
0000
0000
,
0100
0000
0000
0000
,
0110
0000
0000
0000
,
0001
0000
0000
0000
,
0010
0000
0000
0000
,
1000
0000
0100
0000
,
0001
0000
1000
0000
,
0100
0000
0000
0000
,
0001
0000
0001
0000
,
1000
0000
1000
0000
,
0001
0000
0010
0000
,
0100
0000
1000
0000
,
0100
0000
0100
0000
,
0001
0000
0010
0000
,
0001
0000
0010
0000
,
1001
0000
0000
0000
,
0010
0000
0001
0000
,
0010
0000
1000
0000
,
0001
0000
0010
0000
,
1000
0000
0010
0000
,
0110
0000
0000
0000
,
0001
0000
0000
0000
,
0100
0000
0000
0000
,
1001
0000
0000
0000
,
0001
0000
0001
0000
,
0010
0000
0010
0000
,
0100
0000
0100
0000
,
1000
0000
0100
0000
,
0001
0000
0001
0000
,
0010
0000
1000
0000
,
0001
0000
1000
0000
,
0010
0000
0100
0100
,
0000
0000
0000
0000
;
#NOTES:
     dance-single:
     :
     Easy:
     6:
     :
0000
0000
0000
0000
,
0000
0000
0000
0000
,
0000
0000
0000
0000
,
1000
0100
1000
0000
,
0001
0001
0010
0010
,
0100
0010
0100
0000
,
1000
1000
0010
0010
,
1000
0001
1000
0000
,
0100
0100
0010
0010
,
0001
0000
1000
0000
,
0010
0000
0100
0100
,
1000
0100
1000
0000
,
0010
0001
0010
0000
,
0001
0100
0001
0000
,
0010
1000
0010
0000
,
0110
0000
0001
0010
,
0001
0001
1000
1000
,
0010
0100
0010
0100
,
0001
0001
1000
1000
,
1001
0000
0110
0000
,
0100
0100
1001
0000
,
1000
1000
0100
0100
,
0010
0100
0010
0100
,
0010
0001
0100
0010
,
1000
0100
0010
0100
,
0010
0010
0001
0001
,
0100
0100
1000
0000
,
0001
0000
0100
0000
,
0010
0000
1000
0000
,
0001
0001
1000
1000
,
0100
0010
0100
0000
,
0002
0000
0000
0003
0000
0000
2000
0000
,
0000
3000
0000
0000
0001
0000
0000
0000
,
0100
0100
0010
0010
,
0220
0000
0330
0000
,
1000
0100
1000
1000
,
0001
0010
0001
0001
,
0100
0100
0010
0010
,
0100
0010
0100
0000
,
0100
0010
1000
1000
,
0001
0010
0100
0100
,
0010
0000
0001
0000
0000
1000
0000
2000
,
0000
0000
3000
0000
,
0001
0100
0001
0100
,
0010
1000
0100
0100
,
1000
0010
1000
0010
,
0100
0001
0010
0010
,
0002
0000
2003
0000
,
3100
0100
0010
0010
,
0002
0000
2003
0000
,
3010
0100
0010
0010
,
1000
0100
1000
0000
,
0001
0100
0001
0000
,
0010
1000
0100
0000
,
0010
0001
0100
0000
,
1000
0000
1001
0000
,
0010
0000
0110
0000
,
0001
0000
1001
0000
,
0100
0000
0110
0000
,
0020
0000
0000
0030
,
0002
0000
1003
1000
,
0020
0000
0230
0000
,
0302
0000
1003
1000
,
0002
0000
0000
0013
,
0200
0000
0310
0000
,
0000
1000
0000
0000
1000
0000
0000
0001
,
0000
0001
0100
0000
,
0110
0000
0000
0000
,
1000
0000
0000
0000
,
0100
0000
0000
0000
,
0001
0000
0000
0000
,
2000
0000
3002
0000
,
0013
0010
0000
0000
,
1000
0010
1000
1000
,
0001
0100
0001
0001
,
1000
1000
0100
0100
,
0010
0010
0001
0100
,
0010
1000
0010
0010
,
1000
0001
0100
0100
,
0001
0000
1000
0000
0000
0010
0000
0020
,
0000
0000
0030
0000
,
0100
0001
1000
1000
,
0100
0010
0001
0001
,
1000
0010
0100
0100
,
0001
0010
0100
0100
,
0110
0000
0001
0000
,
1000
1000
0001
0001
,
0010
0000
0100
0000
,
0110
0000
0000
0000
,
1000
0010
1000
0000
,
0100
0010
0100
0100
,
0010
0001
0010
0000
,
0001
0100
0010
0010
,
1000
0001
1000
0000
,
0100
0010
0001
0001
,
1000
0000
0001
0000
,
0100
0001
0010
0110
,
0000
0000
0000
0000
;
#NOTES:
     dance-single:
     :
     Medium:
     9:
     :
0000
0000
0000
0000
,
0000
0000
0000
0000
,
0000
0000
0000
0000
,
0001
0010
0001
0000
,
0100
0000
0010
0000
0100
0001
0100
0000
,
0010
1000
0010
0000
,
1000
0000
0100
0000
0010
0100
0010
0000
,
0001
1000
0001
0000
,
0100
0000
0010
0000
1000
0100
1000
0000
,
0000
0010
0100
0000
0001
0001
0000
0010
,
0000
0100
0100
0000
1000
0000
0010
0000
,
0100
0001
0100
0001
,
1000
0100
1000
0000
0100
0000
0010
0000
,
0001
0010
0001
1000
,
0010
0100
0010
0000
0100
0000
0001
0000
,
1001
0000
0100
0010
,
1000
1000
0001
0001
,
0100
0010
0100
0010
,
1000
0100
1000
0000
0001
0100
0001
0000
,
1001
0000
0110
0000
,
0010
1000
0010
0000
1001
0000
0000
0000
,
0001
0001
0010
0010
,
0110
0100
1001
0010
,
0100
0010
1000
0100
,
0010
0001
0010
0100
,
1000
1000
0001
0001
,
0010
0001
0010
0000
0100
1000
0100
0000
,
0000
1000
0000
0000
0001
0000
0001
0000
,
0010
0000
0110
0000
0000
0000
1000
0100
,
1000
0000
0001
0100
0001
0000
0010
0100
,
0010
0110
0000
0000
,
1000
0000
0000
1000
0000
0000
1000
0000
,
0000
0001
0000
0000
0001
0000
0000
0000
,
0010
0010
0100
0100
,
0220
0000
0330
0000
,
0001
0000
0010
0000
0001
0010
0001
0000
,
1000
0000
0100
0000
1000
0100
1000
0000
,
0010
0010
0100
0100
,
0010
0100
0010
0000
1000
0001
1000
0000
,
0010
0000
0100
0000
0001
0100
0001
0000
,
1000
0000
0100
0000
0010
0100
0010
0000
,
0100
0000
1000
0000
0000
0001
0000
0001
,
0000
0100
0000
0100
0000
0000
0110
0000
,
1000
1000
0100
0100
,
0010
0000
0001
0000
0010
0001
0010
0000
,
0001
0001
0100
0100
,
0010
0000
1000
0000
0010
1000
0010
0000
,
0200
0000
0302
0000
,
0013
0010
0100
0100
,
2000
0000
3002
0000
,
0103
0000
0010
0000
0100
0010
0100
0000
,
0001
0000
0010
0000
0001
0001
0000
0000
,
1000
0000
0010
0010
0000
0000
0000
0000
,
0100
0001
0010
0001
,
0000
1000
0010
1000
0010
0000
0100
0000
,
0001
0001
0011
0000
,
1000
1000
1010
0000
,
0001
0001
1001
0000
,
0100
0100
0101
0000
,
0200
0000
0000
0000
0000
0310
0000
0000
,
2000
0000
0000
0000
3001
0010
0001
0000
,
0200
0320
2030
3002
,
0023
0000
0000
0000
0031
0100
0001
0000
,
2000
0000
0000
3200
,
0320
0032
0203
0320
,
1030
1000
0000
0001
0001
0000
1000
1000
,
0000
0001
0001
0000
0010
0000
0000
0000
,
0110
0000
0000
0000
0000
0000
0000
0001
,
0000
0000
0000
0000
0000
0000
0000
0010
,
0000
0000
0000
0000
0000
0000
0000
1000
,
0000
0010
0010
0100
,
0002
0000
0000
0000
2003
0000
0000
3100
,
0000
0100
0000
0000
,
0001
0000
0100
0000
0001
0010
0001
0000
,
1000
0000
0010
0000
1000
0100
1000
0000
,
0001
0100
0001
0000
0010
0100
0010
0000
,
0100
1000
0100
0000
1000
0000
0010
0000
,
0100
0000
0001
0000
0100
0010
0100
0000
,
0001
0000
1000
0000
0010
0100
0010
0000
,
1000
0000
1000
0000
0000
0010
0000
0110
,
0000
0001
0000
1001
0000
0000
0100
0000
,
0010
0000
1000
0000
0001
1000
0001
0000
,
0010
0000
0100
0000
1000
0100
1000
0000
,
0001
0000
0100
0000
0010
0100
0010
0000
,
1000
0000
0100
0000
0010
0100
0010
0000
,
0110
0000
1000
0000
,
0001
0010
0001
0100
,
0020
0000
2030
0000
,
3100
0000
0000
0000
0010
0001
1000
0000
,
0001
0100
0001
0000
,
0010
0000
0100
0000
0010
0001
0010
0000
,
0100
1000
0100
0000
,
1000
0000
0010
0000
0100
0010
0100
0000
,
0001
1000
0001
0000
,
0010
0000
0100
0000
1000
0010
1000
0000
,
0000
0001
0001
0000
0010
0010
0000
0001
,
0000
1000
1000
0000
0010
0000
0110
0000
,
0000
0000
0000
0000
;
#NOTES:
     dance-single:
     :
     Hard:
     11:
     :
0000
0000
0000
0000
,
0000
0000
0000
0000
,
0000
0000
0000
0000
,
1010
0000
0100
0000
0110
0000
0000
0001
,
0000
0010
0001
0000
1000
0100
1000
0000
,
0101
0000
0010
0000
0110
0000
0000
1000
,
0000
0010
1000
0000
0001
0100
0001
0000
,
1010
0000
0001
0000
0101
0000
0000
0010
,
0000
0100
0010
0000
0001
0100
0010
0100
,
0000
0010
1000
0100
0010
0010
0000
0001
,
0000
0100
0001
0000
0110
0000
1010
0000
,
0100
0000
0010
0001
0010
0000
0100
0000
,
1000
0010
1000
0000
0100
0000
1000
0010
,
0100
0000
0001
0100
0001
0010
0100
0000
,
1000
0010
1000
0000
0011
0000
0101
0000
,
1010
0000
0100
0001
,
0010
0001
1000
0000
0010
0100
0001
0000
,
1000
0100
0010
0000
0001
0100
0010
0000
,
1000
0100
1000
0100
0010
0000
0110
0000
,
0001
0100
0001
0000
1000
0100
1000
0000
,
0010
0100
0001
0100
0010
0000
1010
0000
,
0100
1000
0010
1000
0100
0000
0010
0000
,
0011
0101
1100
1010
,
0100
0001
0100
0000
0010
0000
1000
0000
,
0100
0010
0100
0000
1000
0000
0001
0000
,
0100
0010
0100
0000
0001
0010
0001
0000
,
1000
0010
0100
0001
0010
0001
0100
0000
,
0000
1010
0000
0000
1100
0000
0101
0000
,
0010
0000
1000
1000
0000
0000
0001
0100
,
1000
0000
0001
0100
1000
0000
0001
0100
,
1000
0000
0001
0001
0000
0000
0000
0000
,
1010
0000
0000
0110
0000
0000
1010
0000
,
0000
0101
0000
0000
0011
0000
0000
0000
,
0100
0100
0100
0110
,
2002
0000
0000
0000
3003
0010
0100
0010
,
1000
0000
0100
0000
0010
0001
0100
0000
,
0010
1000
0010
0000
0100
0010
0100
0000
,
0001
0000
0010
0000
0100
1000
0100
0000
,
0010
0001
0010
0100
1000
0000
0010
0000
,
0100
0001
0010
0000
0100
1000
0010
0000
,
0100
0001
0010
0001
1000
0010
0100
0000
,
0001
0000
0010
0100
0000
0010
0000
0010
,
0000
0001
0100
0001
0000
0000
1001
0000
,
1000
0100
1000
0000
0001
0100
0001
0000
,
0010
0000
0100
0000
1000
0010
0100
0000
,
0001
0010
0001
0000
1000
0010
1000
0000
,
0001
0000
0100
0000
0010
1000
0001
0000
,
0200
0000
0320
0000
,
1030
1000
0001
0001
,
0020
0000
0230
0000
,
0300
0010
0000
1000
0001
0100
0001
0100
,
0000
0010
0010
0010
1000
0100
0000
0010
,
0010
0010
0001
0100
0000
0010
1000
0010
,
1000
0100
0000
0010
0010
0010
0001
1000
,
0000
0100
0010
0100
1000
0000
0010
0000
,
0100
0100
0000
0001
1000
1000
0000
0110
,
0000
0101
0000
0011
0000
1000
0100
0100
,
0010
0010
0000
0001
0100
0100
0000
0110
,
0000
0001
0010
0001
1000
0100
0010
0001
,
2000
0000
0000
0000
0000
3100
0000
0010
,
0200
0000
0000
0310
0001
0010
0100
1000
,
0020
0230
0302
2003
,
3200
0000
0000
0000
0310
0001
0010
0001
,
2000
0000
0000
3002
,
0023
0230
2300
3200
,
0320
0001
0030
0200
0010
0300
2000
0100
,
3000
0020
0001
0030
0100
0000
0010
0000
,
0110
0000
0000
0000
0000
0000
0000
1000
,
0100
0000
0000
0000
0000
0000
0000
0001
,
0100
0000
0000
0000
0000
0000
0000
0010
,
0100
1100
0101
0011
,
2000
0000
0000
0000
3020
0000
0000
0130
,
0000
0001
0001
0000
1000
0100
1000
0100
,
0000
0010
0001
0010
0100
1000
0000
0010
,
0000
1000
0100
0010
0001
0010
0000
0100
,
0000
1000
0010
0100
0001
0100
0000
1010
,
0000
0001
0001
0000
0000
0010
0001
0010
,
0000
0100
1000
0100
0010
0001
0000
0100
,
0000
0010
0100
0001
1000
0100
0000
0010
,
0000
0000
0001
0100
0000
1100
0000
1010
,
0000
0100
0001
0100
0000
0010
1000
0100
,
0000
0000
0010
0000
0001
0010
0000
0100
,
0000
1000
0010
1000
0000
0001
0100
0010
,
0000
0000
1000
0000
0100
0010
0000
0001
,
0000
0101
0000
1000
0000
1010
0000
0000
,
0110
0000
0001
0000
,
1000
1100
0001
0011
,
2000
0000
3200
0000
,
0300
1000
0000
0010
0100
0010
0100
0001
,
0011
0000
0100
0000
1100
0000
0000
0010
,
0000
1000
0010
0000
0100
0001
0100
0001
,
1001
0000
0010
0000
0110
0000
0000
0100
,
0000
0001
0100
0000
0010
1000
0010
0000
,
0101
0000
0010
0000
0011
0000
0000
1000
,
0000
0100
1000
0000
0010
0100
0001
0100
,
0000
0010
0100
0001
1000
0100
0000
0010
,
0000
0100
0010
0001
0101
0000
1001
0000
,
0000
0000
0000
0000
;
#NOTES:
     dance-double:
     :
     Easy:
     6:
     :
00000000
00000000
00000000
00000000
,
00000000
00000000
00000000
00000000
,
00000000
00000000
00000000
00000000
,
00001000
00010000
00001000
00000000
,
01000000
01000000
00010000
00010000
,
10000000
00100000
10000000
00000000
,
01000000
01000000
00010000
00010000
,
00001000
00010000
00001000
00000000
,
00000100
00000100
00000001
00000001
,
00000010
00000000
00000100
00000000
,
00001000
00000000
00000010
00000010
,
00010000
00001000
00010000
00000000
,
00001000
00100000
00010000
00000000
,
10000000
01000000
10000000
00000000
,
00100000
01000000
00010000
00000000
,
00011000
00000000
00000100
00001000
,
00000100
00000100
00000010
00000010
,
00000001
00000100
00000001
00000100
,
00001000
00001000
00010000
00010000
,
00011000
00000000
01100000
00000000
,
10000000
10000000
10010000
00000000
,
00100000
00100000
01000000
01000000
,
00010000
00100000
00001000
00010000
,
00001000
00010000
00000010
00001000
,
00000001
00000010
00000001
00001000
,
00000100
00000100
00010000
00010000
,
00001000
00001000
00100000
00000000
,
00010000
00000000
10000000
00000000
,
00100000
00000000
00010000
00000000
,
00010000
00001000
00001000
00000010
,
00000010
00000100
00000010
00000000
,
00000002
00000000
00000000
00000003
00000000
00000000
00000200
00000000
,
00000000
00000300
00000000
00000000
00001000
00000000
00000000
00000000
,
00010000
00010000
00001000
00001000
,
00022000
00000000
00033000
00000000
,
01000000
00010000
01000000
01000000
,
00100000
10000000
00100000
00100000
,
00010000
00010000
00001000
00001000
,
00010000
00001000
00010000
00000000
,
00010000
00000100
00000100
00000010
,
00000001
00000100
00000100
00001000
,
00010000
00000000
00001000
00000000
00000000
00010000
00000000
00020000
,
00000000
00000000
00030000
00000000
,
01000000
00100000
01000000
10000000
,
00100000
01000000
00010000
00010000
,
00100000
00001000
00010000
00000100
,
00001000
00000010
00000100
00000100
,
00000002
00000000
00002003
00000000
,
00003100
00000000
00010000
00000000
,
00002000
00000000
00023000
00000000
,
00031000
01000000
00010000
00010000
,
10000000
00100000
10000000
00000000
,
01000000
00010000
00000000
00000000
,
00001000
00000100
00000001
00000000
,
00000010
00000100
00001000
00000000
,
00000001
00000000
00001001
00000000
,
00001000
00000000
00011000
00000000
,
00010000
00000000
10010000
00000000
,
01000000
00000000
01100000
00000000
,
20000000
00000000
00000000
30000000
,
00200000
00000000
00310000
00010000
,
00002000
00000000
00023000
00000000
,
00032000
00000000
00003010
00000010
,
00000002
00000000
00000000
00000103
,
00002000
00000000
00023000
00000000
,
00000000
00031000
00000000
00000000
00001000
00000000
00000000
00010000
,
00000000
00010000
00100000
00000000
,
01100000
00000000
00000000
00000000
,
10000000
00000000
00000000
00000000
,
01000000
00000000
00000000
00000000
,
00010000
00000000
00000000
00000000
,
00000200
00000000
00020300
00000000
,
00031000
00001000
00000000
00000000
,
00100000
00010000
01000000
01000000
,
00100000
10000000
01000000
01000000
,
00100000
00100000
00010000
00010000
,
01000000
01000000
00001000
00010000
,
00000100
00001000
00000010
00000010
,
00000100
00000001
00000010
00000010
,
00000110
00000000
00010000
00000000
00000000
00001000
00000000
00002000
,
00000000
00000000
00003000
00000000
,
00100000
00010000
01000000
01000000
,
10000000
00100000
00010000
00010000
,
00001000
00000010
00000100
00000100
,
00001000
00000001
00000100
00000100
,
00000110
00000000
00001000
00000000
,
00000100
00000100
00010000
00010000
,
00001000
00000000
00100000
00000000
,
10010000
00000000
00000000
00000000
,
00100000
01000000
00100000
00000000
,
10000000
01000000
00010000
00010000
,
00001000
00010000
00001000
00000000
,
00000100
00000001
00000010
00000010
,
00000100
00001000
00000100
00000000
,
00010000
00001000
00100000
00100000
,
00010000
00000000
10000000
00000000
,
01000000
00010000
00001000
00011000
,
00000000
00000000
00000000
00000000
;
#NOTES:
     dance-double:
     :
     Medium:
     9:
     :
00000000
00000000
00000000
00000000
,
00000000
00000000
00000000
00000000
,
00000000
00000000
00000000
00000000
,
10000000
01000000
10000000
00000000
,
00010000
00000000
00100000
00000000
00001000
00010000
00001000
00000000
,
00000100
00000010
00000100
00000000
,
00000001
00000000
00000010
00000000
00000001
00000010
00000001
00000000
,
00001000
00000100
00001000
00000000
,
00000010
00000000
00010000
00000000
00001000
00010000
00001000
00000000
,
00000000
00100000
00010000
00000000
10000000
10000000
00000000
00100000
,
00000000
01000000
01000000
00000000
00010000
00000000
00100000
00000000
,
00001000
00010000
00001000
00010000
,
00000100
00001000
00000100
00000000
00000010
00000000
00000001
00000000
,
00000100
00000001
00000100
00001000
,
00010000
00001000
00010000
00000000
00100000
00000000
10000000
00000000
,
10010000
00000000
01000000
00010000
,
00001000
00001000
00010000
00010000
,
00001000
00000100
00000001
00000100
,
00001000
00000100
00001000
00000000
00000010
00010000
00000010
00000000
,
00011000
00000000
01100000
00000000
,
10000000
01000000
10000000
00000000
10010000
00000000
00000000
00000000
,
00010000
00010000
00100000
00100000
,
00001000
00001000
00010000
00000010
,
00001000
00000100
00000010
00000001
,
00000100
00001000
00010000
01000000
,
10000000
10000000
00100000
00100000
,
01000000
00010000
01000000
00000000
00001000
00010000
00001000
00000000
,
00000000
00000010
00000000
00000000
00000001
00000000
00000001
00000000
,
00001000
00000000
00001001
00000000
00000000
00000000
00000010
00001000
,
00000010
00000000
00010000
00001000
00010000
00000000
00001000
01000000
,
00001000
00100000
00000000
00000000
,
10000000
00000000
00000000
00100000
00000000
00000000
00010000
00000000
,
00000000
00001000
00000000
00000000
00000010
00000000
00000000
00000000
,
00000001
00000100
00001000
00010000
,
00022000
00000000
00033000
00000000
,
00001000
00000000
00010000
00000000
01000000
00100000
01000000
00000000
,
10000000
00000000
00010000
00000000
01000000
00100000
01000000
00000000
,
00010000
00010000
00100000
00100000
,
00001000
00010000
00001000
00000000
00010000
00001000
00010000
00000000
,
00000010
00000000
00001000
00000000
00000001
00000010
00000001
00000000
,
00000100
00000000
00000001
00000000
00001000
00000100
00001000
00000000
,
00000100
00000000
00010000
00000000
00000000
00001000
00000000
00001000
,
00000000
00010000
00000000
00010000
00000000
00000000
00011000
00000000
,
00100000
00100000
10000000
10000000
,
01000000
00000000
00010000
00000000
00001000
00010000
00001000
00000000
,
00000100
00000100
00000001
00000001
,
00000010
00000000
00000001
00000000
00000100
00000010
00000100
00000000
,
00000002
00000000
00002003
00000000
,
00003100
00000100
00010000
00010000
,
00002000
00000000
00023000
00000000
,
00031000
00000000
00100000
00000000
00010000
01000000
00010000
00000000
,
10000000
00000000
00100000
00000000
01000000
01000000
00000000
00000000
,
00001000
00000000
00010000
00010000
00000000
00000000
00000000
00000000
,
00000100
00001000
00000100
00000010
,
00000000
00000001
00000100
00000001
00000100
00000000
00001000
00000000
,
00010000
00010000
00011000
00000000
,
00100000
00100000
01100000
00000000
,
10000000
10000000
10010000
00000000
,
00001000
00001000
00011000
00000000
,
00000020
00000000
00000000
00000000
00000000
00000130
00000000
00000000
,
00000002
00000000
00000000
00000000
00001003
00000100
00001000
00000000
,
00000200
00020300
00032000
02003000
,
03020000
00000000
00000000
00000000
10030000
01000000
10000000
00000000
,
00200000
00000000
00000000
20300000
,
32000000
03020000
00032000
00003200
,
00000301
00000001
00000000
00001000
00001000
00000000
00000100
00000100
,
00000000
00010000
00010000
00000000
00001000
00000000
00000000
00000000
,
00011000
00000000
00000000
00000000
00000000
00000000
00000000
01000000
,
00000000
00000000
00000000
00000000
00000000
00000000
00000000
00000100
,
00000000
00000000
00000000
00000000
00000000
00000000
00000000
00010000
,
00000000
00000010
00000010
00001000
,
00000200
00000000
00000000
00000000
00020300
00000000
00000000
00031000
,
00000000
00001000
00000000
00000000
,
01000000
00000000
00010000
00000000
10000000
00100000
10000000
00000000
,
01000000
00000000
00100000
00000000
00010000
01000000
00010000
00000000
,
00100000
00001000
00100000
00000000
00001000
00010000
00001000
00000000
,
00010000
00000100
00010000
00000000
00000010
00000000
00001000
00000000
,
00000001
00000000
00000010
00000000
00000100
00001000
00000100
00000000
,
00010000
00000000
00001000
00000000
00010000
00001000
00010000
00000000
,
00100000
00000000
00100000
00000000
00000000
10000000
00000000
10010000
,
00000000
00100000
00000000
01100000
00000000
00000000
00010000
00000000
,
10000000
00000000
01000000
00000000
00010000
00001000
00010000
00000000
,
00001000
00000000
00000100
00000000
00000001
00000100
00000001
00000000
,
00000010
00000000
00000001
00000000
00000100
00001000
00000100
00000000
,
00001000
00000000
00010000
00000000
00001000
00010000
00001000
00000000
,
00011000
00000000
01000000
00000000
,
10000000
00100000
10000000
00100000
,
01000000
00000000
00001000
00000000
,
00000000
00010000
00000000
00000010
00001000
00000000
00000001
00000000
,
00000010
00000100
00000010
00000000
,
00000001
00000000
00001000
00000000
00000100
00001000
00000100
00000000
,
00010000
00001000
00010000
00000000
,
00001000
00000000
01000000
00000000
00010000
01000000
00010000
00000000
,
10000000
01000000
10000000
00000000
,
00100000
00000000
00010000
00000000
00001000
00010000
00001000
00000000
,
00000000
00010000
00010000
00000000
00000010
00000010
00000000
00001000
,
00000000
00000001
00000001
00000000
00000100
00000000
00001001
00000000
,
00000000
00000000
00000000
00000000
;
#NOTES:
     dance-double:
     :
     Hard:
     11:
     :
00000000
00000000
00000000
00000000
,
00000000
00000000
00000000
00000000
,
00000000
00000000
00000000
00000000
,
00000101
00000000
00000010
00000000
00001010
00000000
00000000
00000100
,
00000000
00001000
00010000
00000000
00100000
01000000
00100000
00000000
,
11000000
00000000
00100000
00000000
00110000
00000000
00000000
01000000
,
00000000
00010000
00001000
00000000
00000100
00000010
00000100
00000000
,
00001001
00000000
00000100
00000000
00001100
00000000
00000000
00010000
,
00000000
00001000
00010000
00000000
00001000
01000000
00010000
01000000
,
00000000
00100000
10000000
01000000
00010000
00010000
00000000
00001000
,
00000000
00000100
00000001
00000000
00000110
00000000
00001010
00000000
,
00010000
00000000
00001000
00010000
00001000
00000000
00100000
00000000
,
00010000
01000000
00010000
00000000
10000000
00000000
00100000
10000000
,
01000000
00000000
00100000
00010000
01000000
00001000
00010000
00000000
,
00000010
00001000
00000010
00000000
00000100
00000000
00000001
00000000
,
00001100
00000000
00000001
00000010
,
00001000
00010000
00001000
00000000
00010000
00100000
01000000
00000000
,
00010000
10000000
00100000
00000000
01000000
00010000
00100000
00000000
,
00001000
00010000
00001000
00010000
00000010
00000000
00000110
00000000
,
00001000
00000100
00001000
00000000
00000010
00010000
00000010
00000000
,
00010000
00001000
01000000
00001000
00010000
00000000
00011000
00000000
,
00100000
10000000
00100000
01000000
00010000
00000000
00100000
00000000
,
00011000
00001100
00000101
00000011
,
00000100
00001000
00000100
00000000
00010000
00000000
00001000
00000000
,
00100000
00010000
00100000
00000000
00010000
00000000
10000000
00000000
,
00100000
10000000
00100000
00000000
10000000
01000000
10000000
00000000
,
01000000
00010000
00001000
00000100
00000001
00000100
00001000
00000000
,
00000000
00011000
00000000
00000000
00110000
00000000
10100000
00000000
,
01000000
00000000
00100000
00100000
00000000
00000000
10000000
01000000
,
00010000
00000000
01000000
00010000
00001000
00000000
00010000
00001000
,
00000100
00000000
00000001
00000001
00000000
00000000
00000000
00000000
,
00001010
00000000
00000000
00011000
00000000
00000000
01010000
00000000
,
00000000
11000000
00000000
00000000
10100000
00000000
00000000
00000000
,
00010000
00100000
00001000
00010000
,
00022000
00000000
00000000
00000000
00033000
00000100
00001000
00000001
,
00001000
00000000
00000010
00000000
00000100
00000001
00000010
00000000
,
00000100
00001000
00000100
00000000
00010000
00001000
00010000
00000000
,
00001000
00000000
00100000
00000000
00010000
01000000
00010000
00000000
,
10000000
00100000
00010000
00001000
00000010
00000000
00000100
00000000
,
00001000
00000001
00000100
00000000
00000010
00001000
00000100
00000000
,
00010000
00001000
00100000
00010000
01000000
00100000
10000000
00000000
,
01000000
00000000
00010000
00001000
00000000
00000100
00000000
00000100
,
00000000
00000001
00000010
00000001
00000000
00000000
00001100
00000000
,
00010000
00001000
00010000
00000000
00001000
00010000
00001000
00000000
,
01000000
00000000
00010000
00000000
00100000
01000000
10000000
00000000
,
00010000
01000000
00010000
00000000
00100000
00001000
00100000
00000000
,
00001000
00000000
00010000
00000000
00000010
00001000
00000100
00000000
,
00000020
00000000
00000032
00000000
,
00000103
00001000
00010000
00001000
,
00020000
00000000
00032000
00000000
,
00003000
01000000
00000000
00010000
10000000
00100000
10000000
00100000
,
00000000
01000000
01000000
01000000
00010000
00100000
00000000
00001000
,
00001000
00001000
00010000
00000010
00000000
00001000
00000100
00001000
,
00000001
00000010
00000000
00000001
00000001
00000001
00000100
00001000
,
00000000
00010000
01000000
10000000
01000000
00000000
00100000
00000000
,
00010000
00010000
00000000
01000000
00001000
00001000
00000000
00011000
,
00000000
00001010
00000000
00000011
00000000
00000100
00000010
00000010
,
00001000
00001000
00000000
00000100
00010000
00010000
00000000
00011000
,
00000000
01000000
00010000
01000000
00100000
10000000
01000000
00010000
,
00002000
00000000
00000000
00000000
00000000
00003100
00000000
00000001
,
00002000
00000000
00000000
00003100
00000010
00000001
00000100
00000010
,
00002000
00003200
00020300
00032000
,
02003000
00000000
00000000
00000000
03100000
10000000
01000000
00010000
,
00002000
00000000
00000000
00023000
,
00030200
00002300
00003002
00000023
,
00000230
00001000
00000300
00020000
00001000
00030000
00200000
00010000
,
00300000
02000000
10000000
03000000
00100000
00000000
00010000
00000000
,
10010000
00000000
00000000
00000000
00000000
00000000
00000000
00001000
,
00010000
00000000
00000000
00000000
00000000
00000000
00000000
00000001
,
00000010
00000000
00000000
00000000
00000000
00000000
00000000
00000100
,
00001000
00001010
00011000
00001100
,
00000020
00000000
00000000
00000000
00000230
00000000
00000000
00001300
,
00000000
00000010
00000010
00000000
00010000
00001000
00010000
00001000
,
00000000
00100000
00010000
10000000
00100000
01000000
00000000
00001000
,
00000000
00010000
00000010
00001000
00000100
00000010
00000000
00000001
,
00000000
00001000
00000100
00010000
00001000
00010000
00000000
00011000
,
00000000
01000000
01000000
00000000
00000000
00010000
00100000
00010000
,
00000000
10000000
01000000
00010000
00001000
00000100
00000000
00000001
,
00000000
00000010
00001000
00010000
00100000
10000000
00000000
01000000
,
00000000
00000000
00010000
00001000
00000000
00011000
00000000
00001100
,
00000000
00000010
00000001
00000010
00000000
00000100
00001000
00000001
,
00000000
00000000
00000100
00000000
00001000
00010000
00000000
00001000
,
00000000
00100000
00010000
00100000
00000000
00010000
10000000
00100000
,
00000000
00000000
01000000
00000000
00010000
00100000
00000000
00001000
,
00000000
00011000
00000000
00000010
00000000
00001010
00000000
00000000
,
00001001
00000000
00000100
00000000
,
00010000
00011000
01000000
01010000
,
00200000
00000000
20300000
00000000
,
30000000
01000000
00000000
00010000
00001000
00010000
00000100
00001000
,
00000001
00000000
00000010
00000000
00000110
00000000
00000000
00000001
,
00000000
00000100
00001000
00000000
00010000
00001000
00100000
00010000
,
10000000
00000000
01000000
00000000
01100000
00000000
00000000
10000000
,
00000000
01000000
00010000
00000000
00001000
00010000
00001000
00000000
,
00011000
00000000
00000010
00000000
00001010
00000000
00000000
00000100
,
00000000
00000001
00000010
00000000
00000001
00000100
00001000
00010000
,
00000000
00001000
00010000
00100000
10000000
00010000
00000000
10000000
,
00000000
01000000
00010000
00001000
00010000
00000000
00011000
00000000
,
00000000
00000000
00000000
00000000
;
