
//----- song ID: koii -----//
#TITLE:恋;
#ARTIST:星野 源;
#TITLETRANSLIT:Koi;
#ARTISTTRANSLIT:Gen Hoshino;
#BANNER:Koi.png;
#BACKGROUND:Koi-bg.png;
#CDTITLE:./CDTitles/DDR A20 PLUS.png;
#MUSIC:Koi.ogg;
#SAMPLESTART:50.17;
#SAMPLELENGTH:15;
#DISPLAYBPM:158;
#BPMS:0=157.5,4=158;
#NOTES:
     dance-single:
     :
     Beginner:
     1:
     :
0000
0000
0000
0000
,
0000
0000
0000
0000
,
0000
0000
0000
0000
,
0000
0000
0000
0000
,
0000
0000
0000
0000
,
1000
0000
0000
0000
,
1000
0000
0000
0000
,
0001
0000
0000
0000
,
0001
0000
0000
0000
,
0010
0000
0000
0000
,
0010
0000
0000
0000
,
0001
0000
0000
0000
,
1000
0000
0000
0000
,
0100
0000
0000
0000
,
0100
0000
0000
0000
,
0010
0000
0000
0000
,
1001
0000
0000
0000
,
0010
0000
0000
0000
,
0001
0000
0000
0000
,
1000
0000
0000
0000
,
0001
0000
0000
0000
,
0010
0000
0000
0000
,
1000
0000
0000
0000
,
0001
0000
0000
0000
,
1001
0000
0000
0000
,
2000
0000
0000
0000
,
3000
0000
0000
0000
,
0020
0000
0000
0000
,
0030
0000
0000
0000
,
0002
0000
0000
0000
,
0003
0000
0000
0000
,
0100
0000
0100
0000
,
0100
0000
0000
0000
,
1000
0000
0000
0000
,
1000
0000
1000
0000
,
0001
0000
0000
0000
,
0001
0000
0001
0000
,
1000
0000
0000
0000
,
1000
0000
1000
0000
,
0001
0000
0000
0000
,
1000
0000
0000
0000
,
0010
0000
0000
0000
,
0010
0000
0010
0000
,
0100
0000
0000
0000
,
0100
0000
0100
0000
,
0010
0000
0000
0000
,
0010
0000
0010
0000
,
0001
0000
0000
0000
,
1000
0000
0000
0000
,
0001
0000
0000
0000
,
1001
0000
0000
0000
,
0000
0000
0000
0000
,
1001
0000
0000
0000
,
0000
0000
0000
0000
,
1001
0000
0000
0000
,
0001
0000
0000
0000
,
1000
0000
1000
0000
,
2000
0000
3000
0000
,
0001
0000
0000
0000
,
1000
0000
0000
0000
,
0001
0000
0001
0000
,
0002
0000
0003
0000
,
0000
0000
0000
0000
;
#NOTES:
     dance-single:
     :
     Easy:
     3:
     :
0000
0000
0000
0000
,
0000
0000
0000
0000
,
0000
0000
0000
0000
,
0000
0000
0000
0000
,
0000
0000
0000
0000
,
0001
0000
0001
0000
,
1000
0000
1000
0000
,
0010
0010
0010
0000
,
1001
0000
0000
0000
,
0010
0000
1000
0000
,
0001
0000
0000
0000
,
1000
1000
1000
0000
,
0001
0001
0001
0000
,
0010
0000
0001
0000
,
1000
0000
1000
0000
,
0010
0000
0100
0000
,
2002
0000
3003
0000
,
1000
0000
0100
0000
,
0010
0000
0000
0000
,
0001
0001
0001
0000
,
1000
1000
1000
0000
,
0001
0000
0100
0000
,
0010
0000
1000
0000
,
0001
0000
1000
0000
,
2002
0000
3003
0000
,
0002
0000
0003
0000
,
0020
0000
0030
0000
,
2000
0000
3000
0000
,
0200
0000
0300
0000
,
0002
0000
0003
0000
,
0200
0000
0300
0000
,
1000
0000
0001
0000
,
1001
0000
0000
0000
,
0001
0000
1000
0000
,
0001
0001
0001
0000
,
1000
0000
0001
0000
,
1000
1000
1000
0000
,
0001
0000
1000
0000
,
0001
0001
0001
0000
,
0010
0000
0000
0000
,
0100
0000
0000
0000
,
0010
0000
0100
0000
,
0010
0010
0010
0000
,
0100
0000
0010
0000
,
0100
0100
0100
0000
,
0010
0000
0100
0000
,
0010
0010
0010
0000
,
2002
0000
3003
0000
,
0220
0000
0330
0000
,
0001
0000
1000
0000
,
2002
0000
3003
0000
,
0010
0000
0100
0000
,
2002
0000
3003
0000
,
0010
0000
0100
0000
,
1001
0000
0000
0000
,
0010
0000
0000
0000
,
0001
0000
0001
0000
,
0100
0100
0100
0000
,
1000
0000
0000
0000
,
0010
0000
0000
0000
,
1000
0000
1000
0000
,
0100
0100
0100
0000
,
0000
0000
0000
0000
;
#NOTES:
     dance-single:
     :
     Medium:
     8:
     :
0000
0000
0000
0000
,
0000
0000
0000
0000
,
0000
0000
0000
0000
,
0000
0000
0000
0000
,
0000
0000
0000
0000
,
0110
0000
0000
1000
0100
0000
0010
0000
,
0110
0000
0000
0001
0100
0000
0010
0000
,
1000
0000
0001
0000
0100
0000
0000
0101
,
0000
1100
0000
0202
0000
0000
0303
0000
,
0010
0000
1000
0000
0001
0100
0001
0000
,
1000
0010
0001
0100
,
0010
0000
1000
0001
1000
0000
0100
0000
,
0010
0000
0001
1000
0001
0000
0000
0000
,
0010
0000
0001
0000
1000
0100
1000
0000
,
0001
0010
1000
0100
,
0001
0101
1000
1100
,
2002
0000
3003
0000
,
0001
0000
0100
0000
0010
1000
0100
0000
,
2000
0010
0001
3100
,
1000
0000
0100
0010
0100
0000
1000
0000
,
0001
0000
0100
0010
0100
0000
0000
0000
,
1000
0000
0100
0000
0010
0001
0100
0000
,
0002
0010
1000
0103
,
0001
0010
0001
0000
1000
0010
1000
0000
,
0220
0000
0330
0000
,
1000
0000
0000
0100
0100
0000
0000
0010
,
0010
0000
0000
0001
0001
0000
1000
0000
,
0001
0000
0000
0100
0100
0000
0000
0010
,
0010
0000
0000
1000
1000
0000
0001
0000
,
0010
0000
0000
0100
0100
0000
0000
1000
,
1000
0010
0100
0001
,
1001
0000
0110
0000
1001
0000
0000
0010
,
0000
0010
0000
0020
0000
0000
0030
0000
,
1000
0100
0010
0000
0001
0000
1000
0000
,
0101
1100
0101
0000
,
1000
0010
0100
0000
0001
0000
1000
0000
,
0011
1010
0011
1010
,
0001
0100
0010
0000
1000
0000
0001
0000
,
1100
0000
0101
0000
1100
0000
0000
0010
,
0000
0000
0001
0000
0100
0000
0000
0010
,
0000
0010
0000
0010
0200
0000
0300
0000
,
0001
0100
0010
0000
0100
0000
0001
0000
,
2010
0001
3100
0000
,
0001
0010
0100
0000
0010
0000
0001
0000
,
2010
3001
0012
1003
,
1000
0100
0010
0000
0100
0000
1000
0000
,
0012
0000
1000
0000
0103
0000
0000
0010
,
0000
0000
1000
0000
0001
0001
0000
0010
,
0000
0000
0001
0000
1000
1000
0000
0010
,
0000
0000
1000
0000
0100
0010
0100
0000
,
2002
0000
3003
0000
,
0010
0000
0001
0000
0100
0010
0100
0000
,
2002
0000
3003
0000
,
0010
0000
1000
0000
0100
0010
0100
0000
,
2000
0010
0010
0010
,
3002
0010
0010
0010
,
2003
0010
3002
0013
,
0100
0000
0000
0000
0100
0000
0000
0100
0000
0000
0000
0000
0000
0000
0000
0000
,
0002
0100
0100
0100
,
2003
0100
0100
0100
,
3002
0100
2003
3100
,
0010
0000
0000
0000
0010
0000
0000
0010
0000
0000
0000
0000
0000
0000
0000
0000
,
0000
0000
0000
0000
;
#NOTES:
     dance-single:
     :
     Hard:
     11:
     :
0000
0000
0000
0000
,
0000
0000
0000
0000
,
0000
0000
0000
0000
,
0000
0000
0000
0000
,
0000
0000
0000
0000
,
0110
0000
0000
0001
0100
0010
1000
0001
,
1001
0000
0000
1000
0100
0010
0001
1000
,
0101
0000
1100
0000
0011
0000
0000
1200
,
0000
0001
0000
1300
0000
0001
0100
0000
,
0010
0000
1000
0000
0100
0010
0001
1000
,
0001
0000
0100
0010
0000
0010
1000
0000
,
0001
0100
1000
0100
0001
0000
1001
0000
,
1000
0100
0001
0100
1000
0000
1001
0000
,
0010
0000
0001
0000
0100
0010
1000
0001
,
1000
0000
0100
0010
0000
0010
0001
0000
,
1000
0010
0001
0010
1000
0100
0001
0100
,
1000
0000
0001
0000
0000
0110
0000
0000
,
1020
0000
0130
0000
1000
0100
0001
0000
,
0010
0000
0100
1000
0000
1000
0010
0000
,
0001
0010
1000
0100
0001
0000
0110
0000
,
1000
0010
0001
0100
1000
0000
1001
0000
,
0021
0000
0130
0000
0001
0100
1000
0000
,
0010
0000
0100
0001
0000
0001
0010
0000
,
0100
0010
0001
0010
1000
0010
0001
0100
,
0010
0000
0100
0000
0000
1001
0000
0000
,
0101
0000
0100
0010
1000
0000
1000
0100
,
0010
0000
0010
0001
1000
0000
0001
0000
,
1100
0000
0100
0010
0001
0000
0001
0100
,
0010
0000
0010
1000
0001
0000
1000
0000
,
0110
0000
1000
0010
0001
0000
0001
0010
,
1000
0100
0010
0001
,
1100
0000
0101
0000
1100
0000
0020
0100
,
0000
0100
0000
0100
0000
0130
0010
0000
,
1000
0100
0010
0001
1000
0000
0001
0100
,
0120
0000
0001
0000
1030
0001
0001
0000
,
1000
0010
0100
0001
1000
0000
0100
0010
,
0011
0101
1100
1010
,
0001
0100
0010
1000
0001
0000
1000
0100
,
0120
0000
1000
0000
0031
1000
1000
0010
,
0000
0000
1000
0000
0001
0000
0010
0001
,
0000
1000
0010
0100
0001
0000
1000
0000
,
0001
0100
1000
0100
0001
0000
0010
0100
,
0210
0000
0001
0000
1300
0001
0001
0000
,
1000
0010
0001
0010
1000
0000
0010
0100
,
0101
0011
1010
1100
,
0001
0010
1000
0010
0001
0000
0100
0010
,
0120
0000
0001
0000
1030
0001
0001
0020
,
0000
1030
0010
0001
0100
0010
0000
0120
,
0000
0031
0010
1000
0100
0010
0000
1002
,
0000
0103
0010
1000
0100
0010
0001
1000
,
0002
0000
2000
3003
,
0010
1000
0100
1000
0010
1000
0001
0010
,
0200
0000
0020
0330
,
0001
0010
0100
0010
0001
0000
0000
0000
,
2100
0000
0001
0000
3010
1000
0100
0000
,
0102
0000
1000
0000
0013
0001
0100
0000
,
0010
1000
0100
0000
0010
0001
0100
0000
,
0110
0000
0000
0000
1001
0000
0000
0110
0000
0000
0000
0000
0000
0000
0000
0000
,
1020
0000
0031
0000
1000
0100
0001
0000
,
0021
0000
1030
0000
0001
0100
1000
0000
,
0001
0100
1000
0000
1000
0100
0001
0000
,
0110
0000
0000
0000
1001
0000
0000
0110
0000
0000
0000
0000
0000
0000
0000
0000
,
0000
0000
0000
0000
;
#NOTES:
     dance-double:
     :
     Easy:
     3:
     :
00000000
00000000
00000000
00000000
,
00000000
00000000
00000000
00000000
,
00000000
00000000
00000000
00000000
,
00000000
00000000
00000000
00000000
,
00000000
00000000
00000000
00000000
,
00001000
00000000
00001000
00000000
,
00010000
00000000
00010000
00000000
,
00001000
00000000
00010000
00000000
,
00011000
00000000
00000000
00000000
,
00010000
00000000
00100000
00000000
,
10000000
00000000
00000000
00000000
,
10000000
00000000
01000000
00000000
,
00010000
00000000
00001000
00000000
,
00010000
00000000
00001000
00000000
,
00000010
00000000
00000001
00000000
,
00001000
00000000
00000001
00000000
,
00002002
00000000
00003003
00000000
,
00000010
00000000
00000001
00000000
,
00000100
00000000
00000000
00000000
,
00001000
00001000
00001000
00000000
,
00010000
00010000
00010000
00000000
,
00100000
00000000
10000000
00000000
,
00010000
00000000
01000000
00000000
,
00001000
00000000
00010000
00000000
,
00022000
00000000
00033000
00000000
,
00000200
00000000
00000300
00000000
,
00000020
00000000
00000030
00000000
,
00000002
00000000
00000003
00000000
,
00000200
00000000
00000300
00000000
,
00002000
00000000
00003000
00000000
,
00020000
00000000
00030000
00000000
,
00100000
00000000
01000000
00000000
,
10010000
00000000
00000000
00000000
,
00100000
00000000
10000000
00000000
,
01000000
01000000
01000000
00000000
,
00100000
00000000
00010000
00000000
,
01000000
01000000
01000000
00000000
,
00001000
00000000
00010000
00000000
,
00001000
00001000
00001000
00000000
,
00010000
00000000
00000000
00000000
,
00001000
00000000
00000000
00000000
,
00000010
00000000
00001000
00000000
,
00000100
00000100
00000100
00000000
,
00000010
00000000
00000001
00000000
,
00000100
00000100
00000100
00000000
,
00001000
00000000
00010000
00000000
,
00001000
00001000
00001000
00000000
,
00022000
00000000
00033000
00000000
,
00022000
00000000
00033000
00000000
,
00010000
00000000
00001000
00000000
,
00022000
00000000
00033000
00000000
,
00100000
00000000
01000000
00000000
,
20020000
00000000
30030000
00000000
,
01000000
00000000
00100000
00000000
,
10010000
00000000
00000000
00000000
,
10000000
00000000
00000000
00000000
,
01000000
00000000
01000000
00000000
,
00010000
00010000
00010000
00000000
,
00001000
00000000
00000000
00000000
,
00000010
00000000
00000000
00000000
,
00000001
00000000
00000001
00000000
,
00000100
00000100
00000100
00000000
,
00000000
00000000
00000000
00000000
;
#NOTES:
     dance-double:
     :
     Medium:
     8:
     :
00000000
00000000
00000000
00000000
,
00000000
00000000
00000000
00000000
,
00000000
00000000
00000000
00000000
,
00000000
00000000
00000000
00000000
,
00000000
00000000
00000000
00000000
,
00000001
00000000
00000000
00000100
00000010
00000000
00000100
00000000
,
00001000
00000000
00000000
00010000
01000000
00000000
10000000
00000000
,
00100000
00000000
10000000
00000000
00010000
00000000
00000000
01100000
,
00000000
00110000
00000000
00022000
00000000
00000000
00033000
00000000
,
00000010
00000000
00001000
00000000
00000100
00000010
00000100
00000000
,
00000010
00000001
00000100
00000010
,
00010000
00000000
00001000
00010000
00001000
00000000
00100000
00000000
,
00001000
00000000
00010000
00001000
00010000
00000000
00000000
00000000
,
00100000
00000000
00010000
00000000
01000000
00100000
01000000
00000000
,
00100000
10000000
01000000
00100000
,
00010000
00011000
00000010
00000110
,
00002002
00000000
00003003
00000000
,
00000001
00000000
00000100
00000000
00000010
00010000
00001000
00000000
,
00020000
00000010
00001000
00030100
,
00010000
00000000
00000010
00001000
00000100
00000000
00010000
00000000
,
00001000
00000000
00100000
00010000
01000000
00000000
00000000
00000000
,
10000000
00000000
01000000
00000000
00100000
00001000
00010000
00000000
,
00002000
00100000
00010000
01003000
,
00001000
00010000
00000010
00000000
00001000
00000001
00000010
00000000
,
00000220
00000000
00000330
00000000
,
00000001
00000000
00000000
00000001
00000100
00000000
00000000
00000100
,
00001000
00000000
00000000
00001000
00010000
00000000
00100000
00000000
,
10000000
00000000
00000000
10000000
01000000
00000000
00000000
01000000
,
00010000
00000000
00000000
00010000
00001000
00000000
00000010
00000000
,
00000001
00000000
00000000
00000001
00000100
00000000
00000000
00000100
,
00001000
00010000
00100000
10000000
,
10010000
00000000
01100000
00000000
10010000
00000000
00000000
01000000
,
00000000
01000000
00000000
02000000
00000000
00000000
03000000
00000000
,
00100000
10000000
01000000
00000000
00100000
00000000
00010000
00000000
,
00001000
00000100
00000110
00000000
,
00000010
00000001
00000100
00000000
00000010
00000000
00001000
00000000
,
00010000
01010000
10000000
11000000
,
00100000
10000000
01000000
00000000
00100000
00000000
00010000
00000000
,
00001000
00000000
00000100
00000000
00000110
00000000
00000000
00000010
,
00000000
00000000
00000001
00000000
00000100
00000000
00000000
00000010
,
00000000
00000010
00000000
00000010
00000200
00000000
00000300
00000000
,
00000010
00010000
00000100
00000000
00001000
00000000
00000100
00000000
,
00001100
00011000
00110000
00000000
,
00100000
00001000
01000000
00000000
00010000
00000000
01000000
00000000
,
00011000
00100000
00011000
00000010
,
00000100
00000001
00000010
00000000
00000100
00000000
00001000
00000000
,
00001010
00000000
00011000
00000000
01010000
00000000
00000000
00100000
,
00000000
00000000
10000000
00000000
01000000
01000000
00000000
00100000
,
00000000
00000000
00010000
00000000
01000000
01000000
00000000
00001000
,
00000000
00000000
00010000
00000000
00000010
00001000
00000001
00000000
,
00000220
00000000
00000330
00000000
,
00000001
00000000
00000100
00000000
00001000
00010000
00001000
00000000
,
00022000
00000000
00033000
00000000
,
00100000
00010000
01010000
00000000
,
00002000
00010000
00100000
00010000
,
00203000
00010000
00001000
00010000
,
00302000
00010000
00203000
00010000
,
00301000
00000000
00000000
00000000
00010000
00000000
00000000
00001000
00000000
00000000
00000000
00000000
00000000
00000000
00000000
00000000
,
00020000
00001000
00000010
00001000
,
00030020
00001000
00010000
00001000
,
00020030
00001000
00030020
00001000
,
00010030
00000000
00000000
00000000
00001000
00000000
00000000
00010000
00000000
00000000
00000000
00000000
00000000
00000000
00000000
00000000
,
00000000
00000000
00000000
00000000
;
#NOTES:
     dance-double:
     :
     Hard:
     11:
     :
00000000
00000000
00000000
00000000
,
00000000
00000000
00000000
00000000
,
00000000
00000000
00000000
00000000
,
00000000
00000000
00000000
00000000
,
00000000
00000000
00000000
00000000
,
01100000
00000000
00000000
10000000
01000000
00100000
00001000
00010000
,
00011000
00000000
00000000
00010000
00000010
00000100
00000001
00001000
,
00001001
00000000
00001100
00000000
00000101
00000000
00000000
00010020
,
00000000
00000100
00000000
00010030
00000000
00001000
00010000
00000000
,
00100000
00000000
10000000
00000000
01000000
00100000
00010000
10000000
,
00010000
00000000
10000000
01000000
00000000
01000000
00010000
00000000
,
00001000
00000010
00000001
00000010
00001000
00000000
00011000
00000000
,
00010000
00100000
10000000
00100000
00010000
00000000
00011000
00000000
,
00000010
00000000
00000001
00000000
00000100
00000010
00001000
00000001
,
00001000
00000000
00000001
00000100
00000000
00000100
00001000
00000000
,
00010000
00100000
00010000
00001000
00010000
01000000
10000000
00100000
,
01000000
00000000
00100000
00000000
00000000
10010000
00000000
00000000
,
00201000
00000000
01300000
00000000
00010000
01000000
10000000
00000000
,
00100000
00000000
01000000
00100000
00000000
10000000
00100000
00000000
,
10000000
01000000
00010000
00001000
00000010
00000000
00000110
00000000
,
00000001
00000100
00001000
00010000
00100000
00000000
01100000
00000000
,
10200000
00000000
01300000
00000000
10000000
01000000
00010000
00000000
,
00100000
00000000
01000000
00010000
00000000
00001000
00010000
00000000
,
00001000
00000010
00000001
00000100
00000010
00000100
00001000
00010000
,
00100000
00000000
01000000
00000000
00000000
10010000
00000000
00000000
,
01100000
00000000
10000000
01000000
00100000
00000000
00100000
00010000
,
00001000
00000000
00001000
00000100
00000010
00000000
00000001
00000000
,
00000110
00000000
00000001
00000100
00000010
00000000
00000010
00001000
,
00010000
00000000
00010000
01000000
00100000
00000000
10000000
00000000
,
01100000
00000000
10000000
01000000
00100000
00000000
00100000
00010000
,
00001000
00000100
00000010
00000001
,
00010010
00000000
01001000
00000000
10010000
00000000
00200000
01000000
,
00000000
01000000
00000000
01000000
00000000
01300000
00100000
00000000
,
10000000
01000000
00010000
00001000
00010000
00000000
00001000
00000010
,
00001020
00000000
00000100
00000000
00000031
00001000
00001000
00000000
,
00000001
00000100
00001000
00010000
00001000
00000000
00010000
00100000
,
00210000
01000000
10000000
01300000
,
10000000
01000000
00010000
00001000
00010000
00000000
00010000
00001000
,
00001020
00000000
00000100
00000000
00000031
00001000
00001000
00000010
,
00000000
00000000
00001000
00000000
00010000
00000000
01000000
00100000
,
00000000
00010000
00001000
00010000
00001000
00000000
00000000
00000000
,
00010000
00000100
00000001
00000100
00010000
00000000
00000010
00010000
,
00012000
00000000
00000010
00000000
00013000
00001000
00001000
00000000
,
00001000
01000000
10000000
01000000
00001000
00000000
00100000
01000000
,
11000000
10100000
00110000
00011000
,
00010000
00000100
00000001
00000100
00010000
00000000
00000010
00010000
,
00012000
00000000
00000010
00000000
00013000
00001000
00001000
00010000
,
00000000
00100000
10000000
01000000
00100000
00010000
00000000
00011000
,
00000000
00000100
00000001
00000010
00000100
00001000
00000000
00011000
,
00000000
01000000
10000000
00100000
01000000
00100000
00010000
00001000
,
00020000
00000000
00002000
00033000
,
00010000
00001000
00000010
00000001
00000100
00000010
00010000
00001000
,
00020000
00000000
00002000
00033000
,
00010000
00100000
01000000
00100000
00010000
00000000
00000000
00000000
,
00002000
00000010
00000001
00000010
,
00023000
00100000
10000000
00100000
,
00032000
00000010
00023000
00100000
,
00031000
00000000
00000000
00000000
00010000
00000000
00000000
00011000
00000000
00000000
00000000
00000000
00000000
00000000
00000000
00000000
,
00002000
00000100
00000001
00000100
,
00023000
01000000
10000000
01000000
,
00032000
00000100
00023000
01000000
,
00031000
00000000
00000000
00000000
00010000
00000000
00000000
00011000
00000000
00000000
00000000
00000000
00000000
00000000
00000000
00000000
,
00000000
00000000
00000000
00000000
;
