
//----- song ID: hara -----//
#TITLE:ハラショー!おにぎりサーカス団☆;
#ARTIST:Blanc Bunny Bandit;
#TITLETRANSLIT:Khorosho! Onigiri circus dan☆;
#BANNER:Khorosho! Onigiri circus dan.png;
#BACKGROUND:Khorosho! Onigiri circus dan-bg.png;
#CDTITLE:./CDTitles/DDR A20 PLUS.png;
#MUSIC:Khorosho! Onigiri circus dan.ogg;
#SAMPLESTART:62.509;
#SAMPLELENGTH:15;
#BPMS:0=185;
#NOTES:
     dance-single:
     :
     Beginner:
     3:
     :
0000
0000
0000
0000
,
0000
0000
0000
0000
,
0000
0000
0000
0000
,
0000
0000
0000
0000
,
0000
0000
0000
0000
,
0001
0000
0000
0001
,
0000
0000
0010
0000
,
0000
0010
0000
0000
,
0100
0000
0000
0100
,
0000
0000
1000
0000
,
0000
1000
0000
0000
,
1001
0000
0000
0000
,
0010
0000
0000
0020
,
0000
0000
0030
0000
,
0200
0000
0000
0000
,
0300
0000
0000
0000
,
0001
0000
0010
0000
,
0001
0000
0100
0000
,
0010
0000
0010
0000
,
1000
0000
0000
0000
,
1000
0000
0010
0000
,
1000
0000
0100
0000
,
0010
0000
0010
0000
,
0001
0000
0000
1001
,
0000
0000
0000
0001
,
0000
0000
0010
0000
,
0000
0001
0000
0000
,
0100
0000
0000
0010
,
0000
0000
0100
0000
,
0000
1000
0000
0000
,
0001
0000
0000
1000
,
0000
0000
0010
0000
,
0000
1000
0000
0000
,
0100
0000
0000
0010
,
0000
0000
0100
0000
,
0000
0001
0000
0000
,
1000
0000
0000
0000
,
0000
1001
0000
0000
,
0000
0000
0100
0000
,
0000
0100
0000
0000
,
0020
0000
0000
0000
,
0000
0000
0030
0000
,
0000
0000
1000
0000
,
1000
0000
1000
0000
,
0000
0100
0000
0000
0000
0100
0000
0000
,
0000
0100
0000
0000
0000
0000
0010
0000
,
0000
0010
0000
0010
,
0000
0000
0000
0001
0000
0000
0000
0001
,
0000
0000
0000
0001
0000
0000
0000
0000
,
0010
0000
0001
0000
,
0100
0100
0100
0000
,
0001
0000
0010
0000
,
1000
1000
1000
0000
,
1001
0000
0000
0000
,
0100
0000
0000
0200
,
0000
0000
0300
0000
,
2002
0000
0000
0000
,
3003
0000
0000
0000
,
1000
0000
0100
0000
,
0010
0010
0010
0000
,
1000
0000
0010
0000
,
0001
0001
0001
0000
,
0001
0000
0100
0000
,
0010
0000
1000
0000
,
0001
0000
0010
0000
,
1000
0000
0001
0000
,
1000
0000
0100
0000
,
0010
0010
0010
0000
,
0001
0000
0100
0000
,
0010
0010
0010
0000
,
1000
0000
0100
0000
,
0001
0000
1000
0000
,
0001
0000
0010
0000
,
0001
0001
0001
0000
,
0010
0000
0100
0000
,
1000
1000
1000
0000
,
1000
0000
0100
0000
,
0010
0000
0000
0000
,
0001
0000
0000
0020
,
0000
0000
0030
0000
,
1000
0000
0000
0020
,
0000
0000
0030
0000
,
0001
0000
1000
0000
,
0001
0000
1000
0000
,
0001
0001
0001
0000
,
1000
1000
1000
0000
,
0001
0000
0010
0000
,
0100
0000
1000
0000
,
0001
0000
1000
0000
,
0001
0000
1001
0000
,
0000
0000
0000
0000
;
#NOTES:
     dance-single:
     :
     Easy:
     7:
     :
0000
0000
0000
0000
,
0000
0000
0000
0000
,
0000
0000
0000
0000
,
0000
0000
0000
0000
,
0000
0000
0000
0000
,
0001
0000
0000
0001
0000
0000
0010
0000
,
0000
0010
0000
0000
0100
0000
0000
0100
,
0000
0000
1000
0000
0000
1000
0000
0000
,
0010
0000
0000
0010
0000
0000
0010
0000
,
0100
0000
0010
0000
0100
0000
0000
0100
,
0000
0100
0010
0100
,
2002
0000
0000
3003
,
0010
0000
0000
0100
0000
0000
0220
0000
,
0000
0000
0000
0330
,
2002
0000
0000
0000
,
3003
0000
0000
0000
,
0010
0010
1000
0100
,
0010
0001
1000
0100
,
1000
1000
0001
0001
,
0100
0010
0100
0000
,
0010
0010
0001
0100
,
0010
1000
0001
0100
,
0001
0001
1000
1000
,
0100
0010
0100
0110
,
0000
0000
0000
0001
,
0010
0100
0100
0000
,
0000
1000
0010
0100
,
0100
0000
0000
0001
,
0010
0001
0010
0000
,
0000
1000
0010
1000
,
0010
0000
0000
1000
,
0100
1000
0001
0001
,
0001
0100
0001
0100
,
0010
0010
0010
0100
,
1000
1000
0100
0001
,
0001
0100
0010
0100
,
0020
0000
0030
0000
,
1000
0001
0000
0000
,
0000
0010
0100
0000
,
0100
1000
0000
1000
,
0002
0000
0000
0000
,
0000
0000
1003
0000
,
0000
0000
1000
1000
,
0001
0001
0100
0100
,
0100
0000
0000
0001
0000
0001
0000
1000
,
0000
1000
0000
0100
0000
0100
0000
0000
,
0010
0010
0001
0001
,
1000
0000
1000
0000
0000
0010
0000
0100
,
0000
0010
0010
0010
,
1000
1000
1000
0000
,
0100
0001
0100
0000
,
0010
0010
0010
0000
,
0001
0100
0001
0000
,
2002
0000
0000
3003
,
0010
0000
0000
0100
0000
0000
0220
0000
,
0000
0000
0000
0330
,
2002
0000
0000
0000
,
3003
0000
0000
0000
,
0001
0100
1000
0100
,
0001
1000
0010
0010
,
1000
0100
0001
0100
,
1000
0001
0100
0100
,
0001
0010
0100
0010
,
0001
1000
0010
0100
,
0010
1000
0010
0100
,
0001
1000
1001
0000
,
1000
0010
0001
0010
,
1000
0100
0010
0000
,
0001
0010
1000
0010
,
0001
0100
0010
0000
,
1000
0001
1000
0001
,
0100
0010
0100
0010
,
1000
1000
0001
0001
,
0100
0010
0100
0000
,
0001
0010
0001
0010
,
0100
1000
0100
1000
,
0001
1000
0001
1000
,
0100
0010
0100
0010
,
0001
0000
0000
0001
0000
0000
0022
0000
,
0000
0000
0000
0033
,
1000
0000
0000
1000
0000
0000
2200
0000
,
0000
0000
0000
3300
,
0000
0110
0000
1001
,
0000
0110
0000
1001
,
0001
1000
0001
1000
,
0001
1000
0001
1000
,
0001
0000
0011
0000
,
0101
0000
1001
0000
,
0110
0000
1001
0000
,
0110
0000
1001
0000
,
0000
0000
0000
0000
;
#NOTES:
     dance-single:
     :
     Medium:
     11:
     :
0000
0000
0000
0000
,
0000
0000
0000
0000
,
0000
0000
0000
0000
,
0000
0000
0000
0000
,
0000
0000
0000
0000
,
1000
0000
1000
0001
0000
0001
1000
0000
,
0001
0000
1000
0000
0010
0000
0010
0100
,
0000
0100
0010
0000
0100
0000
0010
0000
,
1000
0000
0000
0010
0000
0000
0100
0000
,
0001
0000
0100
0000
0001
0000
0000
0010
,
0000
0100
1000
0100
,
2000
0000
0010
0000
,
3001
0000
0000
0011
0000
0000
0102
0000
,
0000
0010
0010
1000
,
2000
0000
0000
0000
,
3003
0000
0000
0000
,
1000
0000
0001
0000
0100
0010
0100
0000
,
0010
1000
0100
0000
0010
0000
0001
0000
,
0100
0001
0100
0001
1000
0010
1000
0000
,
1010
1100
0101
0011
,
0001
0000
1000
0000
0010
0100
0010
0000
,
0100
0001
0010
0000
0100
0000
1000
0000
,
0001
0010
0001
0010
0100
1000
0100
0000
,
0010
0000
0000
0000
0000
0000
0000
0000
0000
0010
0000
0000
2002
0000
0000
0000
,
0000
0000
0000
0000
3003
0000
0001
0010
,
0100
0100
0010
0001
,
0100
0000
0010
1000
0100
0000
0100
0000
,
1000
0010
0100
0001
,
1000
0100
0001
0000
0100
0000
1000
0000
,
0001
0000
1000
0000
0001
0100
1000
0000
,
0100
0001
1000
0001
,
0001
1000
0100
0000
0010
0000
0100
0000
,
0110
0000
1000
0000
1000
0001
0100
0000
,
0010
0100
0110
0001
,
0010
1000
0000
0010
0001
0000
1000
0000
,
0001
1000
0001
0000
0100
0010
0000
0010
,
0100
0000
0001
0000
1000
0001
0010
0000
,
0001
0000
0011
0000
0100
1000
0001
0000
,
0100
0101
2002
3003
,
0010
2200
3300
0010
,
0202
0000
0000
0000
,
0000
0000
0303
0000
,
0000
0000
0000
0000
0000
1000
0010
1000
,
0010
0000
0100
0001
0100
0000
0101
0000
,
0011
0000
0010
0001
0010
0001
0000
1000
,
0100
1000
0000
1100
0000
1001
0000
0001
,
0100
0001
0100
0000
0010
1000
0010
0000
,
1010
0000
1001
0000
0001
1000
0001
1000
,
0000
0100
0010
0000
0011
0000
0101
0000
,
2001
0100
0010
3010
,
1000
0100
0010
0000
0001
0010
0100
0000
,
1000
0010
0001
0010
,
1000
1000
0001
1000
0000
1001
0000
0000
,
0220
0000
0000
0330
,
1001
0000
0000
0110
0000
0000
1001
0000
,
0000
0010
0100
0010
0100
0000
0100
0010
,
0200
0000
0000
0000
,
0300
0000
0000
0000
,
1000
0010
0100
0000
0001
0100
0001
0000
,
0010
0100
1000
0000
0010
1000
0010
0000
,
0010
0100
0001
0000
0010
0100
0010
0000
,
0001
1000
0100
0000
1000
0010
1000
0000
,
0100
0000
0100
0000
0010
0001
0010
0000
,
0100
0000
0100
0000
1000
0010
1000
0010
,
0000
0100
0001
0100
0000
0001
0010
0001
,
0000
1000
0100
1000
0000
1000
0001
0000
,
0100
0000
0001
0000
0010
0000
0100
0100
,
0000
0100
0010
0010
,
0001
0000
1000
0000
0010
0000
0100
0100
,
0000
0000
1000
0000
1000
0100
0001
0200
,
0000
0300
0010
1000
,
0100
0000
0001
0100
0000
0000
0100
0000
,
0010
0000
0001
0000
0010
0001
0000
0010
,
0001
0000
1000
0010
0000
1000
0010
0000
,
1000
0010
1000
0010
0000
0100
0010
0000
,
0001
0010
0001
0010
0000
0100
0010
0000
,
0001
0000
0100
0000
1000
0000
0001
0010
,
0000
1000
0001
0001
,
1000
0000
0000
0100
0000
0000
2002
0000
,
0000
0000
0000
3003
,
0001
0000
0000
0010
0000
0000
2002
0000
,
0000
0000
0000
3003
,
0000
1001
0000
0110
,
0000
1001
0000
0110
,
0001
0100
0001
0000
1000
0100
1000
0000
,
0001
0010
0001
0000
1000
0010
1000
0000
,
0001
0110
0001
0110
,
1000
0110
1000
0110
,
1001
0000
0001
0010
0100
0000
1000
0010
,
0100
0000
1001
0000
,
0000
0000
0000
0000
;
#NOTES:
     dance-single:
     :
     Hard:
     14:
     :
0000
0000
0000
0000
,
0000
0000
0000
0000
,
0000
0000
0000
0000
,
0000
0000
0000
0000
,
0000
0000
0000
0000
,
0001
0000
0001
0010
0000
0010
0001
1000
,
0010
0100
0010
1000
0100
0000
0100
1000
,
0000
1000
0001
0010
0100
0010
0000
0010
,
0002
0000
0000
0203
0000
0000
1300
0000
,
0010
0000
0001
0000
2000
0000
0000
3200
,
0000
0301
0010
1000
,
2002
0000
0000
3003
,
1010
0000
0000
0101
0000
0000
1001
0000
,
0000
0010
0010
0100
0010
0010
0100
0100
,
0220
0000
0000
0000
,
0330
0000
0000
0000
,
1000
0000
0010
0000
0100
0001
0100
0000
0001
0000
0010
0000
0100
1000
0100
0000
,
1000
0000
0010
0000
0001
0000
0010
0000
1000
0001
1000
0001
1000
0000
0000
0000
,
0001
0000
0100
0010
0000
0100
0010
0000
1000
0000
0100
0000
0001
0000
0100
0000
,
1000
0000
0000
1010
0000
0000
0110
0000
0000
0101
0000
0000
1001
0000
0000
0000
,
0001
0000
0010
0000
0100
1000
0100
0000
1000
0000
0010
0000
0100
0001
0100
0000
,
0001
0010
1000
0010
0001
0100
1000
0100
,
0001
1000
0000
0001
0000
1000
0000
0001
0010
0100
0010
0100
0000
0020
0000
0000
,
0130
0000
0000
0000
0000
0000
0010
0000
0000
0000
0000
0000
0001
0000
0000
0010
0000
0000
0100
0000
0000
1000
0000
0000
0000
0000
0000
0110
0000
0000
0000
0000
0000
0000
0000
0000
1001
0000
0000
0000
0000
0000
0000
0000
0100
0000
0000
0000
,
0000
0000
0001
0000
0000
0000
1000
0000
0000
0000
0100
0000
0000
0000
1000
0000
0000
0000
0001
0000
0000
0100
0000
0000
,
0001
0100
0010
0100
0002
0000
0023
0000
,
0130
0000
1000
0100
1000
0100
0010
0100
,
2000
3020
0130
0002
,
0000
0000
0103
0010
1000
0000
1100
0000
,
0110
2000
3020
0230
,
0301
0010
0100
0000
1000
0000
0010
0000
0100
0001
1000
0000
0010
0000
0100
0000
,
0010
0100
0001
0010
0100
1000
0001
0010
,
0100
0000
1000
0010
1000
0010
0100
0001
,
1000
0010
0100
0001
1000
0000
0200
0000
,
0000
0302
0000
0103
1000
0000
0001
1000
,
0001
0000
0100
0001
1000
0010
0100
0001
,
1000
0000
0000
0000
0100
0000
0000
0100
0010
0000
0001
0000
1000
0000
0100
0000
,
1100
0000
0000
0000
0101
0000
0000
0000
0100
0000
0000
0100
0010
0000
1000
0000
,
0001
0100
0001
1000
2100
0000
0000
3000
,
0010
0100
0102
0000
0000
0003
0010
0100
,
2100
0000
0000
0000
,
0000
0000
0002
0000
,
0000
0000
3003
0000
1001
0010
0100
0001
,
0011
0010
0100
1000
0010
0010
0100
0100
,
0110
0001
1000
0001
0100
0110
0010
1000
,
0001
1000
1000
0001
0001
1001
0001
0100
,
0010
1000
1010
0100
0010
0001
1000
1000
,
0010
0010
1010
1000
0001
0010
0100
0110
,
1000
0010
0100
0000
0101
0000
0110
0000
,
1100
0000
1000
0001
0010
0100
1000
0000
,
1010
0000
0100
0001
1000
0010
0100
0000
,
0001
0001
0010
0000
1000
1000
0010
0000
,
0001
1000
0010
0100
0000
1001
0000
0000
,
0220
0000
0000
0330
,
0110
0001
1000
0110
1000
0001
0210
0000
,
0000
0010
0010
0010
0010
0000
0010
0010
,
0020
0000
0000
0000
,
0330
0000
0000
0000
,
1000
0000
0001
0100
0010
0000
1000
0000
0001
0000
0010
0100
1000
0000
0100
0000
,
0010
0000
0001
1000
0100
0000
1000
0000
0010
0000
0100
0001
1000
0000
0001
0000
,
0010
0000
0100
1000
0010
0000
0100
0000
0001
0000
0010
0001
0100
0000
0010
0000
,
1000
0000
0010
1000
0100
0000
0010
0000
0001
0000
0100
0001
0010
0000
0100
0000
,
1000
0000
0100
0001
0100
0000
1000
0000
0010
0000
0100
0001
1000
0000
0100
0000
,
1000
0000
0010
0001
0010
0000
1000
0000
0100
0000
0100
0000
0010
0000
0011
0000
,
0000
0100
0010
1010
0000
1000
0100
0001
,
0000
0001
0100
1000
0000
0001
1001
0000
,
0010
0000
1000
0001
0100
0000
0001
0000
0010
0000
0010
0000
0100
0000
0110
0000
,
0000
0002
0203
1300
,
0010
0000
0001
1000
0100
0000
1000
0000
0010
0000
0010
0000
0100
0000
0110
0000
,
0000
0000
2000
0000
3100
0001
0010
0002
,
0000
0003
0011
0101
,
0110
0000
0010
2002
0000
3003
0100
0000
,
0110
0000
1000
0010
0001
0010
0000
0100
,
0100
0010
1000
1000
0000
1000
0100
1000
,
0010
0100
0010
0110
0000
0100
0010
0010
,
1000
0001
1000
1001
0000
1000
0001
0001
,
1000
0010
1000
0010
0100
0001
0100
0001
,
0000
0000
0001
0000
0010
0000
0100
1000
0100
0000
1000
0000
0010
0000
0100
0000
,
0001
0010
0100
1000
0010
0100
0002
0000
,
0000
1000
1000
0000
0100
0100
0103
0000
,
1000
0100
0010
0001
0100
0010
2000
0000
,
0000
0001
0001
0000
0100
0100
3100
0000
,
0000
0000
0000
0000
0010
0000
0000
0001
0000
0000
0000
0000
1000
0000
0010
0000
,
0000
0000
1000
0100
0000
0000
0001
0100
,
0001
0010
0100
0000
1000
0010
0100
0000
0001
0010
0100
0000
1000
0010
0100
0000
,
0001
0010
0100
0000
1000
0010
0100
0000
0001
0010
0100
0000
1000
0010
0100
0000
,
0001
0110
1000
0110
,
0001
0110
1000
0110
,
1001
0000
0000
1000
0010
0100
0001
0000
0000
0001
0010
0100
,
1000
0000
1001
0000
,
0000
0000
0000
0000
;
#NOTES:
     dance-double:
     :
     Easy:
     7:
     :
00000000
00000000
00000000
00000000
,
00000000
00000000
00000000
00000000
,
00000000
00000000
00000000
00000000
,
00000000
00000000
00000000
00000000
,
00000000
00000000
00000000
00000000
,
10000000
00000000
00000000
10000000
00000000
00000000
01000000
00000000
,
00000000
01000000
00000000
00000000
00100000
00000000
00000000
00100000
,
00000000
00000000
00001000
00000000
00000000
00001000
00000000
00000000
,
00010000
00000000
00000000
00010000
00000000
00000000
00010000
00000000
,
00001000
00000000
00010000
00000000
00001000
00000000
00000000
00001000
,
00000000
00001000
00010000
00001000
,
00022000
00000000
00000000
00033000
,
00000100
00000000
00000000
00001000
00000000
00000000
00000020
00000000
,
00000000
00000000
00000000
00000030
,
00002002
00000000
00000000
00000000
,
00003003
00000000
00000000
00000000
,
00000001
00000100
00000001
00000100
,
00000010
00001000
00000100
00001000
,
00000100
00000100
00010000
00010000
,
00001000
00010000
00001000
00000000
,
01000000
00010000
01000000
00010000
,
10000000
00100000
10000000
00100000
,
10000000
10000000
01000000
01000000
,
00100000
00001000
00010000
00011000
,
00000000
00000000
00000000
00000001
,
00000010
00000100
00000100
00000000
,
00000000
00001000
00010000
00100000
,
00100000
00000000
00000000
10000000
,
01000000
00100000
00100000
00000000
,
00000000
00010000
00001000
00000100
,
00000100
00000000
00000000
00000010
,
00000100
00001000
00000010
00000010
,
00000010
00000100
00001000
00010000
,
00001000
00001000
00001000
01000000
,
00010000
00010000
00100000
01000000
,
01000000
10000000
00010000
10000000
,
00020000
00000000
00030000
00000000
,
00010000
00001000
00000000
00000000
,
00000000
00001000
00000001
00000000
,
00000001
00001000
00000000
00000000
,
00022000
00000000
00000000
00000000
,
00000000
00000000
00033000
00000000
,
00000000
00000000
00100000
00100000
,
01000000
01000000
10000000
10000000
,
10000000
00000000
00000000
01000000
00000000
01000000
00000000
00100000
,
00000000
00100000
00000000
00001000
00000000
00001000
00000000
00000000
,
00010000
00010000
00000100
00000100
,
00001000
00000000
00001000
00000000
00000000
00000010
00000000
00000010
,
00000000
00000100
00000100
00000100
,
00000001
00000001
00000001
00000000
,
00000100
00000010
00001000
00000000
,
00000100
00000100
00000100
00000000
,
00010000
00001000
00010000
00000000
,
00022000
00000000
00000000
00033000
,
01000000
00000000
00000000
00100000
00000000
00000000
02200000
00000000
,
00000000
00000000
00000000
03300000
,
20020000
00000000
00000000
00000000
,
30030000
00000000
00000000
00000000
,
00100000
00010000
00100000
00010000
,
00100000
00001000
00010000
00000100
,
00001000
00000010
00001000
00000010
,
00001000
00000100
00010000
00001000
,
01000000
00010000
00100000
01000000
,
00100000
00010000
00100000
00001000
,
00010000
00000010
00001000
00000100
,
00000010
00000100
00001000
00000010
,
00000100
00000001
00000100
00000001
,
00000100
00001000
00010000
00000000
,
00001000
00010000
00001000
00010000
,
00100000
10000000
00100000
00000000
,
10000000
01000000
00100000
01000000
,
00100000
00010000
00100000
00001000
,
00010000
00000100
00010000
00000100
,
00000010
00000010
00000010
00000000
,
00000001
00000100
00000001
00000100
,
00000010
00001000
00000010
00001000
,
00000100
00000100
00010000
00010000
,
00001000
00001000
00001000
00000000
,
00100000
00000000
00000000
00010000
00000000
00000000
02000000
00000000
,
00000000
00000000
00000000
03000000
,
00100000
00000000
00000000
00001000
00000000
00000000
00020000
00000000
,
00000000
00000000
00000000
00030000
,
00000000
00000110
00000000
00000110
,
00000000
00001001
00000000
00001001
,
00000010
00000100
00000010
00000100
,
00010000
00001000
00010000
00001000
,
00010000
00000000
00110000
00000000
,
01100000
00000000
11000000
00000000
,
01100000
00000000
00001000
00000000
,
00010000
00000000
00011000
00000000
,
00000000
00000000
00000000
00000000
;
#NOTES:
     dance-double:
     :
     Medium:
     11:
     :
00000000
00000000
00000000
00000000
,
00000000
00000000
00000000
00000000
,
00000000
00000000
00000000
00000000
,
00000000
00000000
00000000
00000000
,
00000000
00000000
00000000
00000000
,
00000001
00000000
00000001
00000100
00000000
00000100
00000010
00000000
,
00000000
00000110
00000000
00000000
00000010
00000000
00000010
00010000
,
00000000
00010000
00001000
00000000
00000000
00011000
00000000
00000000
,
00100000
00000000
00000000
00100000
00000000
00000000
00010000
00000000
,
10000000
00000000
00010000
00000000
00100000
00000000
00000000
00100000
,
00000000
00001000
00010000
00001000
,
00022000
00000000
00000000
00033000
,
00000100
00000000
00000000
00001100
00000000
00000000
00001002
00000000
,
00000000
00001000
00001000
00000100
,
00000200
00000000
00000000
00000000
,
00000303
00000000
00000000
00000000
,
00000010
00000000
00001000
00000000
00000100
00010000
00000100
00000000
,
00010000
00001000
00010000
00000000
00001000
01000000
00001000
00000000
,
00100000
00010000
00100000
00010000
10000000
01000000
10000000
00000000
,
02000000
03020000
00032000
00003020
,
00000031
00000000
00001000
00000000
00000001
00000100
00001000
00000000
,
00000100
00001000
00010000
00000000
00001000
00010000
00100000
00000000
,
10000000
00100000
10000000
00100000
01000000
00010000
01000000
00000000
,
00001000
00000000
00000000
00000000
00000000
00000000
00000000
00000000
00000000
00010000
00000000
00000000
00022000
00000000
00000000
00000000
,
00000000
00000000
00033000
00001000
,
00001000
00000010
00000001
00000000
00000200
00000000
00000010
00000000
,
00000310
00000000
00000100
00000000
00000100
00001000
00010000
00000000
,
00002000
00010000
00013000
00100000
,
00010000
01000000
00100000
00000000
10000000
00000000
01000000
00100000
,
00010000
00200000
00302000
00023000
,
00030100
00001000
00000100
00000010
00000001
00000000
00000100
00000010
,
00000100
00000010
00000100
00000000
00001000
00000000
00010000
00000000
,
00100000
00000000
01000000
00100000
01000000
00100000
01000000
00000000
,
00001000
00010000
00000100
00000010
,
00000001
00000100
00000000
00000100
00001000
00000000
00010000
00001000
,
00010000
00000000
00100000
00000000
10000000
00100000
00000000
01000000
,
00010000
00000000
00000000
00000000
,
01100000
01010000
00000000
00000000
,
00000000
00011000
00002200
00000000
,
00003300
00000220
00000000
00000330
,
00002002
00000000
00000000
00000000
,
00000000
00000000
00003003
00000000
,
00000000
00000000
00000000
00000000
00000000
00000001
00000010
00000001
,
00000010
00000000
00000100
00001000
00000100
00000000
00001100
00000000
,
00001010
00000000
00010000
00001000
00010000
00001000
00000000
00100000
,
00010000
00100000
00000000
00110000
00000000
01100000
00000000
10000000
,
01000000
10000000
01000000
00000000
10000000
00100000
10000000
00000000
,
10100000
00000000
00110000
00000000
00100000
00001000
00100000
00001000
,
00000000
00010000
00001000
00000000
00010010
00000000
00001010
00000000
,
00000220
00000000
00000330
00000000
00000001
00000010
00000001
00000000
,
00000100
00000010
00001000
00000000
00000100
00010000
00001000
00000000
,
00100000
00000000
00010000
00000000
00100000
01000000
00100000
00000000
,
00010000
00010000
10000000
10000000
00000000
01000000
00000000
00000000
,
02200000
00000000
00000000
03300000
,
01000000
00000000
00010000
00001000
00000000
00010000
00001000
00000000
,
00000000
00000010
00000100
00000010
00000100
00000000
00000100
00000010
,
00000200
00000000
00000000
00000000
,
00000300
00000000
00000000
00000000
,
00000001
00000010
00000100
00000000
00001000
00000010
00000100
00000000
,
00000010
00001000
00000100
00000000
00010000
00001000
00010000
00000000
,
00001000
00100000
00010000
00000000
00100000
00010000
01000000
00000000
,
00100000
10000000
00010000
00000000
10000000
01000000
00100000
00000000
,
00010000
01000000
00010000
00000000
10000000
00100000
10000000
00000000
,
00010000
00100000
00001000
00000000
00010000
00000100
00010000
00000100
,
00000000
00001000
00000010
00001000
00000000
00000001
00000100
00000001
,
00000000
00000001
00001000
00000001
00000000
00000001
00000100
00000000
,
00000001
00000000
00000100
00000000
00001000
00000000
00010000
00100000
,
00000000
10000000
00010000
00010000
,
10000000
00000000
01000000
00000000
00010000
00000000
00001000
00000010
,
00000000
00000000
00000001
00000000
00000001
00000100
00000001
00002000
,
00000000
00003000
00001100
00010000
,
00011000
00000000
01000000
00100000
00000000
00000000
00100000
00000000
,
01000000
00000000
00001000
00000000
00010000
00001000
00000000
00010000
,
00001000
00000000
00010000
00000010
00000000
00010000
00000010
00000000
,
00000100
00000001
00000100
00000010
00000000
00000100
00000010
00000000
,
00001000
00000100
00001000
00000100
00000000
00001000
00000100
00000000
,
00010000
00000000
00001000
00000000
01000000
00000000
00010000
00100000
,
00000000
00010000
10000000
10000000
,
01000000
00000000
00000000
01000000
00000000
00000000
00200000
00000000
,
00300000
00001000
00010000
00000000
00001000
00010000
00000100
00000000
,
00001000
00000000
00000000
00001000
00000000
00000000
00000020
00000000
,
00000030
00000100
00000010
00000000
00000100
00000001
00000100
00000000
,
00000000
00000101
00000000
00001100
,
00000000
00001010
00000000
00011000
,
00001000
00010000
00001000
00000000
00100000
00010000
00100000
00000000
,
00001000
00010000
00001000
00000000
01000000
00010000
01000000
00000000
,
00001000
00110000
01000000
00011000
,
00010000
00001010
00000100
00011000
,
00010000
00000000
00000100
00001000
00000010
00000000
00000100
00000001
,
00000010
00000000
00001001
00000000
,
00000000
00000000
00000000
00000000
;
#NOTES:
     dance-double:
     :
     Hard:
     15:
     :
00000000
00000000
00000000
00000000
,
00000000
00000000
00000000
00000000
,
00000000
00000000
00000000
00000000
,
00000000
00000000
00000000
00000000
,
00000000
00000000
00000000
00000000
,
10000000
00000000
10000000
01000000
00000000
01000000
00100000
00010000
,
00100000
00010000
00100000
00000000
00010000
00000000
00010000
00001000
,
00000000
00001000
00000100
00000010
00000001
00000010
00000000
00000010
,
00000002
00000000
00000000
00000203
00000000
00000000
00001300
00000000
,
00010000
00000000
00001000
00000000
00000020
00000000
00000000
00002030
,
00000000
00013000
01000000
10000000
,
20020000
00000000
00000000
30030000
,
10100000
00000000
00000000
01010000
00000000
00000000
00011000
00000000
,
00000000
00001000
00010000
00010000
00001000
00001000
00010000
00000000
,
00022000
00000000
00000000
00000000
,
00033000
00000000
00000000
00000000
,
00000010
00000000
00001000
00000000
00000100
00000010
00000100
00000000
00000010
00000000
00000001
00000000
00000100
00000010
00000100
00000000
,
00000010
00000100
00001000
00010000
00100000
01000000
00010000
00100000
,
01000000
00000000
10000000
00010000
00000000
10000000
00010000
00000000
10000000
00000000
01000000
00000000
00010000
00000000
01000000
00000000
,
00100000
00000000
00100000
00001000
00000000
00001000
00010000
00000000
00010000
00000100
00000000
00000100
00001000
00000000
00000010
00000000
,
00000100
00000000
00000001
00000000
00000010
00000001
00000010
00000000
00000100
00000000
00001000
00000000
00000010
00001000
00000010
00000000
,
00010000
00001000
00100000
00010000
01000000
00100000
10000000
00000000
,
00010000
10000000
00000000
00010000
00000000
10000000
00000000
01000000
00100000
00010000
00100000
00010000
00000000
00100000
00000000
00000000
,
00001000
00000000
00000000
00000000
00000000
00000000
00010000
00000000
00000000
00000000
00000000
00000000
00000100
00000000
00000000
00001000
00000000
00000000
00000100
00000000
00000000
00000010
00000000
00000000
00000000
00000000
00000000
00000001
00000000
00000000
00000000
00000000
00000000
00000000
00000000
00000000
00001001
00000000
00000000
00000000
00000000
00000000
00000000
00000000
00000100
00000000
00000000
00000000
,
00000000
00000010
00000000
00010000
00000000
00001000
00000000
01000000
00000000
00010000
00000000
00000000
,
00010000
00100000
01000000
01000000
20000000
00000000
30200000
00000000
,
01300000
00000000
00010000
00000000
00010000
00100000
00001000
00001000
,
00020000
00030020
00000130
00000002
,
00000003
00000000
00000001
00000010
00000200
00000000
00000300
00000000
,
00000001
00000100
00001000
00000000
00001100
00000000
00010100
00000000
,
00001000
00010000
00001000
00000000
01000000
00010000
01000000
00000000
00010000
00100000
00010000
00000000
10000000
00000000
01000000
00000000
,
10000000
01000000
00100000
00010000
01000000
00010000
00100000
00001000
,
00010000
00000000
00001000
00010000
00001000
00010000
00000010
00001000
,
00000100
00001000
00000010
00000100
00000001
00000000
00000010
00000000
,
00000100
00000100
00000000
00001000
00001000
00000000
00000001
00000010
,
00001000
00000000
00010000
00100000
10000000
00010000
01000000
10000000
,
01000000
00000000
00100000
10000000
01000000
00100000
00010000
00100000
,
00101000
00000000
00011000
00000000
00001000
00010000
00000100
00001000
,
00000010
00001000
00000100
00000010
00000220
00000000
00000330
00000000
,
00000100
00010000
00022000
00000000
00033000
00000000
01000000
00010000
,
20020000
00000000
00000000
00000000
,
00000000
30030000
02200000
00000000
,
00000000
00000000
03300000
00000000
10010000
00100000
01000000
00010000
,
00110000
00100000
00001000
00010000
00000100
00001000
00000010
00001000
,
00001100
00000010
00000001
00000100
00000010
00001010
00001000
00000100
,
00010000
00001000
00100000
00010000
10000000
11000000
00100000
00001000
,
00010000
00000010
00001010
00000100
00000001
00001000
00000100
00000001
,
00000100
00000010
00000011
00001000
00000100
00010000
00001000
01010000
,
01000000
00100000
10000000
00000000
11000000
00000000
00110000
00000000
,
00011000
00000000
00001000
00000100
00000001
00000100
00001000
00000000
,
00011000
00000000
00010000
01000000
10000000
01000000
00010000
00000000
,
00001000
00000010
00001000
00000010
00000001
00000100
00000001
00000100
,
00001000
00010000
00001000
00010000
00000000
00001000
00000000
00000000
,
00022000
00000000
00000000
00033000
,
00011000
01000000
00010000
01100000
10000000
01000000
01100000
00000000
,
00000000
00010000
00001000
00000100
00000010
00000001
00000010
00001000
,
00000002
00000000
00000000
00000000
,
00000003
00000000
00000000
00000000
,
00000001
00000000
00000010
00000100
00001000
00000000
00000100
00000000
00000010
00000000
00000001
00000100
00000010
00000000
00001000
00000000
,
00000100
00000000
00010000
00001000
00010000
00000000
00001000
00000000
01000000
00000000
00010000
01000000
00100000
00000000
10000000
00000000
,
00010000
00000000
10000000
01000000
00100000
00000000
00010000
00000000
00100000
00000000
01000000
10000000
00010000
00000000
01000000
00000000
,
00001000
00000000
00010000
00000100
00001000
00000000
00000100
00000000
00000010
00000000
00000001
00000100
00000010
00000000
00001000
00000000
,
00000001
00000000
00000100
00001000
00000100
00000000
00000001
00000000
00000010
00000000
00001000
00000000
00010000
00000000
01000000
00000000
,
10000000
00000000
00100000
00010000
00100000
00000000
10000000
00000000
01000000
00000000
01000000
00000000
00100000
00000000
00110000
00000000
,
00000000
00001000
00010000
00011000
00000000
00000010
00001000
00001001
,
00000000
00000010
00000001
00000100
00001000
00010000
00011000
00000000
,
00100000
00000000
00010000
10000000
00100000
00000000
01000000
00000000
00001000
00000000
00010000
00000000
00000010
00000000
00001010
00000000
,
00000000
00000010
00000002
00000000
00000023
00000000
00001030
00000000
,
00000001
00000000
00001000
00000001
00000100
00000000
00000010
00000000
00010000
00000000
00001000
00000000
00100000
00000000
00110000
00000000
,
00000000
00100000
20000000
00000000
30100000
00001000
00010000
00002000
,
00000000
00003000
00011000
00001010
,
00000110
00000000
00000001
00002002
00000000
00003003
00000100
00000000
,
00000110
00000000
00000001
00000100
00001000
00010000
00100000
10000000
,
01000000
01000000
00100000
00100000
00000000
00100000
10010000
00000000
,
10000000
00100000
01000000
00100000
00010000
00001000
00010000
00000100
,
00001000
00000100
00000010
00000100
00000001
00000100
00000010
00000001
,
00000100
00000001
00000010
00000100
00010000
00001000
00100000
00010000
,
00000000
00000000
00010000
00000000
10000000
00000000
01000000
00100000
00010000
00000000
00100000
00000000
00001000
00000000
00000000
00000000
,
00001000
00000010
00000001
00000010
00001000
00000010
00000002
00000000
,
00000003
00000000
00000100
00000010
00001000
00000000
00000001
00001000
00000100
00000000
00010000
00001000
00010000
00000000
00000000
00000000
,
00100000
10000000
00100000
00010000
00100000
10000000
00020000
00000000
,
00030000
00000000
00100000
00001000
00010000
00000000
00000100
00001000
00000010
00000000
00000100
00000001
00000100
00000000
00000000
00000000
,
00000000
00000000
00000000
00000000
00000011
00000000
00000000
00000011
00000000
00000000
00000000
00000000
00001010
00000000
00001010
00000000
,
00000000
00000000
00011000
00011000
00000000
00000000
01010000
01010000
,
10000000
01000000
00100000
00000000
00010000
01000000
00100000
00000000
10000000
01000000
00100000
00000000
00001000
00010000
00001000
00000000
,
00010000
00000100
00001000
00000000
00000010
00001000
00000100
00000000
00000010
00000001
00001000
00000000
00000100
00000010
00000001
00000000
,
00001000
00000101
00000010
00001010
,
00010000
01010000
00100000
10100000
,
10010000
00000000
00000000
10000000
01000000
00010000
00001000
00000000
00000000
00010000
00001000
00000010
,
00000001
00000000
00001001
00000000
,
00000000
00000000
00000000
00000000
;
