
//----- song ID: kana -----//
#TITLE:彼方のリフレシア;
#ARTIST:DJ TOTTO feat.Annabel & 日山尚;
#TITLETRANSLIT:Kanata no Reflesia;
#ARTISTTRANSLIT:DJ TOTTO feat.Annabel & Nao Hiyama;
#BANNER:Kanata no Reflesia.png;
#BACKGROUND:Kanata no Reflesia-bg.png;
#CDTITLE:./CDTitles/REFLEC BEAT Yuukyuu no Reflesia.png;
#MUSIC:Kanata no Reflesia.ogg;
#SAMPLESTART:63.583;
#SAMPLELENGTH:15;
#BPMS:0=180;
#NOTES:
     dance-single:
     :
     Beginner:
     3:
     :
0000
0000
0000
0000
,
0000
0000
0000
0000
,
0000
0000
0000
0000
,
0000
0000
0000
0000
,
0000
0000
1000
0000
,
0000
1000
0000
0000
,
0020
0000
0000
0030
,
0000
0000
2000
0000
,
0000
3000
0000
0000
,
0200
0000
0000
0300
,
0000
0000
0001
0000
,
0000
0100
0000
0000
,
0010
0000
0000
0000
,
0000
0000
1000
0000
,
0000
0100
0000
0000
,
0010
0000
0000
0000
,
0000
0000
1001
0000
,
0000
0000
0000
0000
,
1001
0000
0000
0000
,
0000
0000
1001
0000
,
0000
0000
0000
0000
,
1001
0000
0000
0000
,
0000
0000
0010
0000
,
0000
1000
0000
0000
,
0001
0000
0000
0001
,
0000
0000
0010
0000
,
0000
0100
0000
0000
,
1000
0000
0000
0000
,
0000
0000
0010
0000
,
0000
0001
0000
0000
,
1000
0000
0000
1000
,
0000
0000
0010
0000
,
0000
0100
0000
0000
,
0001
0000
0000
0000
,
0000
0000
0020
0000
,
0000
0030
0000
0000
,
0002
0000
0000
0003
,
0000
0000
0200
0000
,
0000
0300
0000
0000
,
2000
0000
0000
3000
,
0000
0000
0020
0000
,
0000
0030
0000
0000
,
2000
0000
0000
3000
,
0000
0000
0200
0000
,
0000
0300
0000
0000
,
0002
0000
0000
0003
,
0000
0000
1001
0000
,
0000
0000
0000
0000
,
0010
0000
0000
0010
,
0000
0000
1000
0000
,
1000
0100
0000
0000
,
0010
0000
0000
0010
,
0000
0000
0001
0000
,
0001
0100
0000
0000
,
0020
0000
0000
0030
,
0000
0000
0200
0000
,
0000
0300
0000
0000
,
0002
0000
0000
0003
,
0000
0000
1001
0000
,
0000
0000
0000
0000
,
0100
0000
0000
0100
,
0000
0000
0001
0000
,
0001
0010
0000
0000
,
0100
0000
0000
0100
,
0000
0000
1000
0000
,
1000
0010
0000
0000
,
0200
0000
0000
0300
,
0000
0000
0020
0000
,
0000
0030
0000
0000
,
2000
0000
0000
3000
,
0000
0000
0002
0000
,
0000
0003
0000
0000
,
1001
0000
0000
0010
,
0000
0010
0200
0000
,
0000
0300
0000
0000
,
1001
0000
0000
0100
,
0000
0100
0020
0000
,
0000
0030
0000
0000
,
0110
0000
0000
0001
,
0000
0100
2000
0000
,
0000
3000
0000
0000
,
0110
0000
0000
1000
,
0000
0010
0002
0000
,
0000
0003
0000
0000
,
0001
0000
0000
0100
,
0000
0000
0010
0000
,
0000
1001
0000
0000
,
0000
0000
0000
0000
;
#NOTES:
     dance-single:
     :
     Easy:
     6:
     :
0000
0000
0000
0000
,
0000
0000
0000
0000
,
0000
0000
0000
0000
,
0000
0000
0000
0000
,
0000
0000
1001
0000
,
0000
0001
0010
0100
,
1000
0000
0000
1010
,
0000
0000
0020
0000
,
0000
2030
0000
0000
,
3002
0000
0000
0203
,
0000
0300
0110
0000
,
0000
0001
0100
0010
,
1001
0000
0000
1000
,
0100
0010
1001
0000
,
0000
0000
0000
0000
,
0010
0000
0000
0010
,
0000
0000
0001
0001
,
0100
0100
0000
0000
,
1000
1000
0010
0010
,
0000
0000
0001
0001
,
1000
1000
0000
0000
,
0010
0100
0010
1000
,
0001
1000
0001
0000
,
0000
1000
0000
0000
,
0100
0000
0000
0100
0000
0000
0100
0000
,
0000
0000
1000
0000
,
0000
0001
0000
0000
,
0100
0010
0100
0010
,
0000
0000
0001
0000
,
0000
1000
0000
0000
,
0010
0000
0000
0010
0000
0000
0010
0000
,
0000
0000
1000
0000
,
0000
0001
0000
0000
,
0010
0000
0000
0100
,
0010
0100
0020
0000
,
0000
0000
0000
0030
,
0002
0000
0000
0000
,
0000
0003
2000
0000
,
0000
0000
0000
3000
,
0200
0000
0000
0000
,
0000
0300
2000
0000
,
0000
0000
0000
3000
,
0020
0000
0000
0000
,
0000
0030
0200
0000
,
0000
0000
0000
0300
,
0001
0000
0000
0001
0000
0000
0001
0000
,
0000
0000
1001
0000
,
0000
0110
0000
0000
,
1001
0000
0000
0010
,
1000
1000
0001
0100
,
0001
0100
0000
0000
,
0011
0000
0000
0010
,
0001
0001
1000
0100
,
1000
0100
0000
0000
,
0001
0000
0000
0010
,
0000
0000
1000
0000
,
0000
0100
0000
0000
,
0101
0000
0000
0011
,
0000
0000
2002
0000
,
0000
3003
0000
0000
,
1001
0000
0000
0010
,
0001
0001
1000
0100
,
1000
0100
0000
0000
,
1010
0000
0000
0010
,
1000
1000
0001
0100
,
0001
0100
0000
0000
,
1000
0000
0000
0100
,
0000
0000
0010
0000
,
0000
0001
0100
1000
,
0100
0000
0100
0001
,
0000
0001
1000
1000
,
0010
0100
0001
1000
,
1001
0000
0000
0001
0000
0000
0100
0000
,
0010
0100
0020
0000
,
0000
0030
0000
0000
,
1001
0000
0000
1000
0000
0000
0100
0000
,
0010
0100
0020
0000
,
0000
0030
0000
0000
,
0110
0000
0000
1000
0000
0000
0100
0000
,
0010
0001
0200
0000
,
0000
0300
0000
0000
,
0110
0000
0000
0001
0000
0000
0010
0000
,
0100
1000
0020
0000
,
0000
0030
0000
0000
,
1001
1000
0100
0010
,
0001
0100
0110
0000
,
0000
1001
0000
0000
,
0000
0000
0000
0000
;
#NOTES:
     dance-single:
     :
     Medium:
     10:
     :
0000
0000
0000
0000
,
0000
0000
0000
0000
,
0000
0000
0000
0000
,
0000
0000
0000
0000
,
0000
0000
0000
0000
1001
0000
1000
0010
,
0100
0010
0100
0000
0001
0000
0010
0000
,
0011
0000
0000
0000
0001
0100
0010
0000
,
1000
0001
2000
0000
,
0000
3200
0000
0000
,
0320
0000
0000
0032
0000
0000
0013
0000
,
0011
0101
1001
0000
,
0010
0100
0010
0000
1010
0000
1100
0000
,
1001
0000
0000
0000
0100
0010
0001
0000
,
0011
1010
1001
0000
,
0000
0100
0000
0000
,
0110
0000
0000
0110
,
0000
0000
0001
0010
,
0010
0001
0100
0100
,
0001
0000
1000
0000
1000
0000
0010
1000
,
0001
0100
0010
0000
1000
0000
0010
0000
,
0010
1000
0100
0100
,
1000
0000
0001
0000
0001
0000
1000
0100
,
0010
0001
1000
0000
0010
0100
0010
0000
,
1000
0100
0001
0100
,
1000
0010
1000
0000
0001
0000
0100
0000
,
0001
0000
0010
0000
0001
0100
0001
0000
,
1000
0010
0100
0010
,
1000
0100
0001
0000
0100
0000
1000
0000
,
0001
0000
0001
0000
1000
0010
0100
0000
,
0010
0000
1000
0100
0010
0000
0001
0000
,
1000
0001
0100
0000
0010
0000
0100
0010
,
0001
0000
1000
0000
0001
0100
1000
0000
,
0100
0000
0001
1000
0100
0000
0001
0000
,
0100
1000
0010
0000
0000
0000
0010
0100
,
0010
1000
0020
0000
,
0000
0000
0000
0000
0030
0000
1000
0100
,
2000
0000
0000
3000
,
1100
0110
2002
0000
,
0000
3003
0101
0110
,
2002
0000
0000
0000
,
3003
0010
0020
0000
,
0000
0000
0000
0000
0030
0000
0001
0100
,
0020
0000
0000
0030
,
1010
1100
0220
0000
,
0000
0000
0000
0330
,
1000
0000
0001
0000
0100
0000
0010
1000
,
0100
0000
0001
0000
,
0000
1000
0000
0000
,
1001
0100
1000
0010
,
0100
0000
0001
0000
1000
0100
1000
0100
,
0001
0100
1000
0000
0000
0000
0110
0000
,
1001
0010
0001
1000
,
0010
0000
0100
0000
0001
0000
1000
0010
,
0000
0010
0001
0010
1000
0000
0001
0000
,
1000
0100
0100
0001
,
0100
0100
0020
0000
,
0100
0100
0130
0000
0000
0000
0010
0000
,
1001
0000
0100
1001
,
0000
0010
0220
0000
,
0000
0330
0000
0110
,
1001
0100
0001
0010
,
0100
0000
1000
0000
0010
0001
0010
0001
,
0010
1000
0010
0000
0000
0000
0110
0000
,
0101
0001
1000
0100
,
0010
0000
0001
0000
1000
0000
0010
0001
,
0000
0001
0010
1000
0010
0000
0100
0000
,
0001
0010
0010
1000
,
0010
0010
0002
0000
,
1000
1000
1003
0000
1100
0000
0110
0000
,
0001
0000
0100
0001
0010
0000
0100
0000
,
1000
0010
0100
0000
0001
0000
0110
0000
,
1100
1000
0110
0101
,
1001
0000
0000
0110
0000
0000
1000
0010
,
0001
0010
2020
0000
,
0000
3030
0000
0000
,
1001
0000
0000
0110
0000
0000
0001
0010
,
1000
0010
0002
0000
,
0000
0203
0000
0300
,
0110
0000
0000
1001
0000
0000
0010
1000
,
0100
0010
2002
0000
,
0000
3003
0000
0000
,
0110
0000
0000
1001
0000
0000
0010
0001
,
0100
0010
2000
0000
,
0000
3002
0000
0003
,
0011
1100
1100
1010
,
0101
0101
1001
0100
,
0100
0010
0100
0010
0000
0000
0000
0000
0000
0000
0000
0000
,
0000
0000
0000
0000
;
#NOTES:
     dance-single:
     :
     Hard:
     15:
     :
0000
0000
0000
0000
,
0000
0000
0000
0000
,
0000
0000
0000
0000
,
0000
0000
0000
0000
,
0000
0000
0000
0000
0001
0010
0100
1000
,
0010
0100
0001
0000
0101
0000
0011
0000
,
1001
0000
0000
0000
0100
1000
0010
0000
,
0110
0000
1001
0000
0020
0000
1030
0100
,
1000
0000
2000
0000
3001
0100
0001
0000
,
0010
0100
0100
1000
0001
0001
0100
0000
,
0110
1010
2000
0000
,
3001
0010
1000
0000
1000
0010
0001
0010
,
0210
0000
0000
0000
1300
0100
1000
0000
,
1010
0000
0000
0101
0000
0000
0110
0000
0000
1000
0010
1000
,
0100
1000
0100
0010
0001
0010
0001
0010
0001
0010
0100
1000
,
0002
0000
0000
0000
0000
0000
0000
0000
0000
0000
0103
0010
2000
0000
0000
0000
,
0000
0000
3010
0000
0102
0000
0100
0100
,
0100
0013
0110
0110
,
2100
0000
0100
0100
3100
0000
0010
1000
,
0001
0100
1000
0100
0002
0000
0010
0010
,
0010
0000
0103
0010
0100
0001
1000
0010
,
0100
0000
0001
1000
0001
0000
0010
0000
0000
0000
0010
0100
0010
0000
0001
0000
,
1000
0100
0010
0001
0100
1000
0100
0010
,
0000
0010
1000
0001
0010
1000
0001
0100
,
2000
0000
3010
0200
0000
0310
0100
0100
,
0000
0000
0000
0000
0110
0000
0010
1000
,
0100
0010
1000
0010
0002
0000
2003
0000
,
3100
0000
0010
0000
0001
0000
0000
0000
0100
0000
1000
0000
0100
0000
0010
1000
,
0100
0000
0010
0001
0100
0000
0010
0000
1000
0000
0001
0000
0010
0000
0100
0000
,
0000
0100
0010
0001
0100
0010
0001
0010
,
2000
0000
3100
0020
0000
0031
1000
0001
,
0000
0000
0000
0000
1001
0000
0010
0001
,
0100
0001
0010
0100
2000
0000
3020
0000
,
0130
0100
0100
0000
0000
0010
0010
0100
,
0020
0000
2030
0000
3002
0010
0010
0010
,
0000
0100
0103
0010
1000
0000
1000
0100
,
2000
0010
0010
0010
0000
0100
3100
0010
,
0002
0000
2003
0000
3200
0010
0010
0010
,
0000
0001
0301
0100
2000
0000
3002
0000
,
0023
0100
0100
0100
0000
1000
1030
0010
,
0002
0000
2003
0000
3200
0010
1000
1000
,
0000
0010
0310
0001
1000
0000
0010
0100
,
0002
0010
0100
0100
0000
0010
0013
0001
,
2000
0000
3200
0000
2300
0100
0001
0001
,
0000
0100
3100
1000
0010
0000
0010
0100
,
0110
0110
0000
1001
0000
1000
0001
1000
,
0002
0100
0013
0000
,
0000
0000
0110
0000
0000
0000
1000
0001
,
2000
3200
0320
0031
,
0011
0000
1100
0000
1000
0100
0001
1000
,
0010
0001
1000
0000
0001
0010
0100
1000
,
0002
0023
0230
1300
,
0001
0010
1000
0010
0001
0000
1000
0010
,
0000
0010
0001
0010
2000
0000
3001
0000
,
1001
0000
0001
0010
0100
0001
0100
0010
,
0002
0203
2300
0000
,
3100
0001
0200
0000
0000
0310
1000
1000
,
0100
0010
0100
0000
0000
0100
0001
0100
,
1000
0000
1010
0000
0200
0000
1000
1000
,
0000
0001
0301
1000
0001
0000
0001
1000
,
0002
0023
2030
3001
,
0101
0000
1100
0000
0001
0100
1000
0001
,
0010
1000
0001
0000
0100
1000
0100
0001
,
0012
0010
0100
0103
,
0001
0100
0010
0100
1000
0000
1000
0100
,
0000
0100
0001
1000
0020
0000
0130
0000
,
1001
0000
0001
0010
1000
0001
0100
1000
,
0020
0032
0023
0000
,
1030
1000
0100
0000
1000
0000
0001
0000
,
0110
0000
0001
0100
2000
0010
3010
1000
,
0001
0100
1000
0100
0101
0101
0000
0011
,
0000
1010
1010
0000
0110
0000
0110
0000
,
0001
0010
0001
0010
0001
0000
1000
0100
1000
0100
0010
0100
0010
0000
0001
0000
,
1000
0000
0100
0000
0012
0000
0103
0010
,
1000
0100
0001
0000
1000
0010
0001
0000
,
1000
0010
1000
0010
1000
0000
0001
0100
0001
0100
0010
0100
0010
0000
1000
0000
,
0001
0010
0210
1300
,
1010
0210
0301
0011
,
0100
0010
0100
0010
0100
0000
1000
0001
1000
0001
1000
0100
1000
0000
0001
0000
,
0100
0000
0010
0000
0210
0000
1300
0100
,
0001
1000
0200
0000
0301
0100
1000
0000
,
0010
0100
0010
0100
0010
0000
0001
1000
0001
1000
0001
0100
0001
0000
1000
0000
,
0100
1000
2010
3100
,
1001
0012
0103
0110
,
1001
0000
0000
0010
0100
1000
0010
0100
1000
0001
0010
0100
,
0001
0010
0100
1000
0010
0100
0110
0000
0000
1001
0000
0000
,
0001
1000
0001
1000
0000
0000
0000
0000
0000
0000
0000
0000
,
0000
0000
0000
0000
;
#NOTES:
     dance-double:
     :
     Easy:
     6:
     :
00000000
00000000
00000000
00000000
,
00000000
00000000
00000000
00000000
,
00000000
00000000
00000000
00000000
,
00000000
00000000
00000000
00000000
,
00000000
00000000
00011000
00000000
,
00000000
01000000
00100000
10000000
,
00100000
00000000
01000000
00001000
,
00000000
00000000
00020000
00000000
,
00000000
00000200
00000000
00030300
,
00002000
00000000
00000000
02000000
,
00000000
03003000
00011000
00000000
,
00000000
00100000
00010000
10000000
,
01000000
00000000
00000000
00100000
,
00001000
00010000
00000100
00000000
,
00000000
00000010
00000001
00001000
,
00000100
00000000
00000000
00010000
,
00000000
00000000
00022000
00000000
,
00000000
00033000
00000000
00000000
,
01000000
00010000
10000000
01000000
,
00000000
00000000
02200000
00000000
,
00000000
03300000
00000000
00000000
,
00010000
00001000
00010000
00001000
,
00000000
00000000
00000010
00000000
,
00000000
00000001
00000000
00000000
,
00000100
00000000
00000000
00000100
00000000
00000000
00000100
00000000
,
00000000
00000000
00000010
00000000
,
00000000
00001000
00000000
00000000
,
00010000
00001000
00010000
00001000
,
00000000
00000000
00100000
00000000
,
00000000
10000000
00000000
00000000
,
01000000
00000000
00000000
01000000
00000000
00000000
01000000
00000000
,
00000000
00000000
00100000
00000000
,
00000000
00010000
00000000
00000000
,
00001000
00010000
00001000
00010000
,
00000000
00000000
00000200
00000000
,
00000000
00000300
00000000
00000000
,
00002000
00000000
00000000
00003000
,
00000000
00000000
00020000
00000000
,
00000000
00030000
00000000
00000000
,
00200000
00000000
00000000
00300000
,
00000000
00000000
02000000
00000000
,
00000000
03000000
00000000
00000000
,
00020000
00000000
00000000
00030000
,
00000000
00000000
00002000
00000000
,
00000000
00003000
00000000
00000000
,
00000020
00000000
00000000
00000030
,
00000000
00000000
00001001
00000000
,
00000000
00000000
00000000
00000000
,
00000001
00000100
00000001
00000100
,
00000000
00000000
00000010
00001000
,
00000010
00001000
00000000
00000000
,
00010000
01000000
00010000
01000000
,
00000000
00000000
00100000
10000000
,
00100000
10000000
00000000
00000000
,
10000000
00000000
10000000
01000000
,
00000000
00000000
00010000
00000000
,
00010000
00001000
00000000
00000000
,
00000010
00000000
00000010
00000001
,
00000000
00000000
00000220
00000000
,
00000000
00000330
00000000
00000000
,
00000001
00000010
00000001
00000010
,
00000000
00000000
00000100
00001000
,
00000100
00001000
00000000
00000000
,
00010000
00100000
00010000
00100000
,
00000000
00000000
01000000
10000000
,
01000000
10000000
00000000
00000000
,
10000000
00000000
10000000
00100000
,
00000000
00000000
00010000
00000000
,
00010000
00001000
00000000
00000000
,
00000100
00000000
00000100
00000001
,
00000000
00000000
00000100
00001000
,
00010000
00001000
00000000
00000000
,
00022000
00000000
00000000
00033000
,
00000000
00000000
00100000
00000000
,
01000000
00010000
00000000
00000000
,
00022000
00000000
00000000
00033000
,
00000000
00000000
00000010
00000000
,
00000100
00001000
00000000
00000000
,
00022000
00000000
00000000
00033000
,
00000000
00000000
01000000
00000000
,
00100000
00010000
00000000
00000000
,
00022000
00000000
00000000
00033000
,
00000000
00000000
00000100
00000000
,
00000010
00001000
00000000
00000000
,
00010000
00100000
00010000
00001000
,
00000010
00001000
00010000
00000000
,
00000000
00011000
00000000
00000000
,
00000000
00000000
00000000
00000000
;
#NOTES:
     dance-double:
     :
     Medium:
     10:
     :
00000000
00000000
00000000
00000000
,
00000000
00000000
00000000
00000000
,
00000000
00000000
00000000
00000000
,
00000000
00000000
00000000
00000000
,
00000000
00000000
00000000
00000000
00000001
00000100
00000001
00000100
,
00000001
00000010
00000100
00000000
00002000
00000000
00003020
00000000
,
00020030
00000000
00000000
00000000
00031000
00010000
00001000
00000000
,
01000000
01000000
00200000
00000000
,
00000000
20300000
00000000
00000000
,
32000000
00000000
00000000
03020000
00000000
00000000
00031000
00000000
,
00011000
00000000
00011000
00000000
00000010
00000000
00000100
00000001
,
00000100
00000000
00000010
00000000
00001000
00000100
00010000
00000000
,
00001000
00000000
01000000
00100000
01000000
00000000
00100000
00000000
,
10000000
01000000
00100000
00000000
00020000
00000000
00000000
00000000
,
00031000
00000100
00000010
00000001
,
00002000
00000000
00000000
00003001
,
00000000
00000000
00000000
00000000
00000100
00000000
00000001
00000010
,
00000001
00001000
00000100
00010000
,
00001000
00000000
01000000
00010000
01000000
00000000
00010000
00100000
,
01000000
00000000
10000000
00000000
00100000
00000000
01000000
00010000
,
01000000
00010000
00100000
00001000
,
00010000
00000000
00000100
00001000
00000100
00000000
00000010
00000001
,
00000100
00000001
00000010
00000000
00000000
00000100
00001000
00000100
,
00000000
00001000
00000100
00000000
00010000
00001000
00010000
00000000
,
00100000
00000000
10000000
01000000
00000000
10000000
00100000
10000000
,
00000000
00000000
00000000
00000000
10010000
00000000
00100000
01000000
,
00010000
00000000
00100000
00001000
00010000
00000000
00001000
00000000
,
00000100
00000010
00000100
00000000
00000001
00001000
00000002
00000000
,
00000100
00000000
00000103
00000000
00000000
00000010
00000100
00001000
,
00000000
00000100
00010000
00000000
00001000
01000000
00010000
00000000
,
00100000
00000000
01000000
10000000
00000000
01000000
00100000
01000000
,
00000000
00000000
00000000
00000000
01100000
00000000
00100000
00010000
,
00100000
00000000
00001000
00010000
00001000
00000000
00001000
00000000
,
00000010
00000100
00000010
00000000
00000000
00000010
00000001
00000010
,
00000001
00001000
00000200
00000000
,
00000000
00000000
00000000
00000000
00000300
00000000
00010000
00001000
,
00020000
00000000
00000000
00030000
,
00001000
00001000
02000000
00000000
,
00000000
03000000
00010000
00100000
,
02000000
00000000
00000000
00000000
,
03000000
00100000
02000000
00000000
,
00000000
00000000
00000000
00000000
03000000
00000000
00010000
00001000
,
00020000
00000000
00000000
00030000
,
00000010
00001000
00000200
00000000
,
00000000
00000000
00000000
00000300
,
00000010
00000001
00000000
00000001
00000000
00000000
00000100
00000010
,
00001000
00000000
00000200
00000000
,
00000000
00010300
00000000
00000000
,
00001000
00100000
00010000
01000000
,
00000000
00000000
00000000
00000000
00100000
10000000
01000000
00010000
,
01000000
10000000
00100000
00000000
00000000
00000000
00000000
00000000
,
00010000
00001000
00000100
00000010
,
00000000
00000000
00000000
00000000
00001000
00000000
00000100
00000001
,
00000000
00000001
00000100
00001000
00000010
00000000
00000000
00000000
,
00000001
00000000
00000010
00001000
00000010
00000000
00010000
00000000
,
00001000
00010000
00001000
00000000
00200000
00000000
00000000
00000000
,
01300000
10000000
00010000
00000000
00000000
00010000
00100000
00000000
,
00001000
00011000
00000000
00010000
,
00011000
00000000
00022000
00000000
,
00000000
00033000
00000000
00000000
,
00010000
00000100
00001000
00000010
,
00000000
00000000
00000000
00000000
00000100
00000001
00000010
00001000
,
00000010
00000001
00000100
00000000
00000000
00000000
00000000
00000000
,
00001000
00010000
00100000
01000000
,
00000000
00000000
00000000
00000000
00010000
00000000
00100000
10000000
,
00000000
10000000
00100000
00010000
01000000
00000000
00000000
00000000
,
10000000
00000000
01000000
00010000
01000000
00000000
00001000
00000000
,
00010000
00001000
00010000
00000000
00000200
00000000
00000000
00000000
,
00000310
00000001
00001000
00000000
00000100
00000000
00010000
00000000
,
00001000
00000000
00100000
00010000
01000000
00000000
00100000
00000000
,
00010000
00000000
00001000
00000000
00000100
00000010
00000000
00001000
,
00000000
00000010
00000100
00000000
00001000
00000000
00010000
00000000
,
00001000
00000000
00000000
00010000
00000000
00000000
00022000
00000000
,
00000000
00000000
00033000
00000000
00100000
00000000
00010000
01000000
,
00100000
00000000
01000000
00000000
00010000
00100000
00001000
00000000
,
00010000
00000000
00000000
00001000
00000000
00000000
00022000
00000000
,
00000000
00000000
00033000
00000000
00000010
00000000
00001000
00000100
,
00000010
00000000
00000100
00000000
00001000
00000010
00010000
00000000
,
00001000
00000000
00000000
00010000
00000000
00000000
00022000
00000000
,
00000000
00000000
00033000
00000000
01000000
00010000
00100000
00000000
,
01000000
00000000
10000000
01000000
00100000
00000000
00001000
00000000
,
00010000
00000000
00000000
00001000
00000000
00000000
00022000
00000000
,
00000000
00000000
00033000
00000000
00000100
00001000
00000100
00001000
,
00000010
00000000
00000100
00000001
00000100
00000001
00000010
00000000
,
00001001
00000000
00000001
00000100
00001000
00000000
00010000
00000000
,
00100000
10000000
00010000
00000000
00100000
00000000
01100000
00000000
,
01000000
00100000
01000000
00100000
00000000
00000000
00000000
00000000
00000000
00000000
00000000
00000000
,
00000000
00000000
00000000
00000000
;
#NOTES:
     dance-double:
     :
     Hard:
     14:
     :
00000000
00000000
00000000
00000000
,
00000000
00000000
00000000
00000000
,
00000000
00000000
00000000
00000000
,
00000000
00000000
00000000
00000000
,
00000000
00000000
00000000
00000000
10000000
01000000
00100000
00010000
,
01000000
00100000
00010000
00000000
00002000
00000000
00003200
00000000
,
00000320
00000000
00000000
00000000
00000031
00000010
00001000
00000000
,
00000001
00001000
00000001
00000000
00000100
00000010
00001000
00000010
,
00001000
00000100
00010000
00001000
00100000
00010000
01000000
00010000
,
00100000
00000000
01000000
10000000
00000000
00010000
00100000
00000000
,
01100000
11000000
20000000
00000000
,
31000000
00010000
01000000
00000000
00010000
00001000
00010000
00001000
,
00000020
00000000
00000000
00000000
00000031
00000100
00000001
00000000
,
00000100
00000000
00000000
00001000
00000000
00000000
00000100
00000000
00000000
00001000
00000000
00000000
00010000
00000000
00000000
00000000
00000000
00000000
00100000
00000000
10000000
00000000
00100000
00000000
,
10000000
00100000
10000000
00010000
01000000
00010000
01000000
00010000
01000000
00010000
00100000
00001000
,
00020000
00000000
00000000
00000000
00000000
00001000
00002000
00000000
,
00000000
00000000
00033000
00000000
00000100
00001000
00000100
00000010
,
00000001
00000000
00000100
00000010
00001000
00000010
00000100
00000000
,
00001000
00010000
00001000
00010000
00001000
00000000
00010000
00001000
,
01000000
00010000
00100000
00000000
01000000
10000000
01000000
00100000
,
00010000
00000000
01000000
00010000
00100000
00001000
00010000
00000000
,
00000100
00000000
00001000
00000010
00001000
00000000
00000010
00000000
00000000
00000000
00000010
00000100
00000010
00000000
00000100
00000000
,
00001000
00000100
00000001
00000000
00000010
00000100
00001000
00000100
,
00000000
00010000
00001000
00000010
00001000
00010000
00001000
01000000
,
00010000
00000000
00100000
00010000
00000000
01000000
00100000
10000000
,
00000000
00000000
00000000
00000000
10010000
00000000
10000000
01000000
,
00010000
01000000
00010000
00001000
00010000
00000000
00000010
00000000
,
00001000
00000010
00000100
00000000
00001000
00010000
00200000
00000000
,
00010000
00000000
10300000
00000000
01000000
00100000
00010000
00100000
,
00000000
00001000
00010000
01000000
00010000
00001000
00010000
00000010
,
00001000
00000000
00000100
00001000
00000000
00000010
00000100
00000001
,
00000000
00000000
00000000
00000000
00001001
00000000
00000001
00000010
,
00001000
00000010
00001000
00010000
00001000
00000000
01000000
00000000
,
00010000
01000000
00100000
00000000
00000000
00100000
00010000
00001000
,
00000100
00000000
00000001
00000000
00000020
00000000
00000001
00000001
,
00000000
00001000
00001030
00000000
00010000
00001000
00010000
00000000
,
00200000
00000000
00010000
00010000
00000000
10000000
10300000
00000000
,
01000000
00100000
00010000
00000000
02000000
00000000
10000000
10000000
,
00000000
00010000
03010000
00000000
00001000
00010000
00001000
00000000
,
00000200
00000000
00001000
00001000
00000000
00000001
00000301
00000000
,
00000011
00000000
00001100
00000000
00000010
00000001
00000100
00000010
,
00001000
00000100
00010000
00001000
00100000
00010000
01000000
00000000
,
00010000
10000000
00100000
01000000
00010000
00100000
00001000
00010000
,
00000100
00001000
00000010
00000000
00000100
00000001
00000010
00000100
,
00001000
00000010
00000100
00001000
00010000
00100000
02000000
00000000
,
00100000
00100000
00000000
03100000
00000000
10000000
00010000
10000000
,
00010000
01000000
01100000
00000000
,
00000000
00000000
10010000
00000000
00000000
00000000
00010000
10000000
,
02000000
03200000
00320000
00031000
,
00001100
00000000
00000011
00000000
00000001
00000100
00001000
00000100
,
00000001
00001000
00000002
00000000
00000003
00000000
00001000
00000001
,
00000020
00000230
00002300
00013000
,
00100000
01000000
10000000
01000000
00100000
00000000
00001000
00010000
,
00000000
00010000
00001000
00010000
00022000
00000000
00033000
00000000
,
00011000
00000000
00000100
00000010
00000001
00000100
00000010
00000001
,
00000020
00002030
00003200
00000000
,
00010300
00001000
00020000
00000000
00000000
01030000
01000000
10000000
,
00100000
01000000
00100000
00000000
00000000
00010000
00001000
00010000
,
00001000
00000010
00000002
00000000
,
00001000
00000000
00000103
00000000
00000000
00000000
00001000
00000001
,
00000200
00000320
00002030
00013000
,
01010000
00000000
10100000
00000000
10000000
01000000
00010000
01000000
,
10000000
00010000
20000000
00000000
30000000
00000000
00010000
10000000
,
00200000
02300000
03020000
00031000
,
00000010
00000100
00000001
00000100
00000010
00000000
00010000
00001000
,
00000000
00001000
00010000
00001000
00022000
00000000
00033000
00000000
,
00011000
00000000
01000000
00100000
10000000
01000000
00100000
10000000
,
00200000
00320000
02030000
00000000
,
03001000
00010000
00002000
00000000
00003200
00000000
00000302
00000000
,
00000013
00000000
00000010
00000100
00000010
00001000
00010000
00001000
,
00010000
00100000
00010000
00000000
00001000
00001000
00000000
00011000
,
00000000
00010000
01000000
00000000
10000000
00000000
00010000
00000000
,
10000000
00100000
10000000
00100000
10000000
00000000
00010000
00100000
00010000
00100000
00010000
00000000
00100000
00000000
01000000
00000000
,
00010000
00001000
00000020
00000000
,
00000000
00000000
00000130
00000010
00000200
00000000
00000000
00000000
00000000
00000000
00000000
00000000
00000300
00000000
00000000
00000000
,
00000001
00000010
00000001
00000010
00000001
00000000
00001000
00000010
00001000
00000010
00001000
00000000
00000010
00000000
00000100
00000000
,
00001000
00010000
00200000
01000000
,
10300000
00000000
00100000
01000000
00100000
00000000
00000000
00000000
10000000
00000000
00000000
00000000
00010000
00000000
00000000
00000000
,
10000000
01000000
10000000
01000000
10000000
00000000
00010000
01000000
00010000
01000000
00010000
00000000
01000000
00000000
00100000
00000000
,
00010000
00001000
00000200
00000000
,
00000000
00000000
00000301
00000010
00000002
00000000
00000000
00000000
00000000
00000000
00000000
00000000
00000003
00000000
00000000
00000000
,
00000001
00000100
00000001
00000100
00000001
00000000
00001000
00000100
00001000
00000100
00001000
00000000
00000100
00000000
00000010
00000000
,
00001000
00010000
02000000
00001000
,
00010000
03200000
00001000
00310000
,
01100000
00000000
00000000
10000000
01000000
10000000
01000000
10000000
01000000
00100000
00010000
00100000
,
00010000
00100000
00010000
00100000
00001000
00010000
00001000
00000000
00000000
00011000
00000000
00000000
,
00001000
00010000
00001000
00010000
00000000
00000000
00000000
00000000
00000000
00000000
00000000
00000000
,
00000000
00000000
00000000
00000000
;
