
//----- song ID: jucu -----//
#TITLE:Jucunda Memoria;
#ARTIST:Akhuta;
#BANNER:Jucunda Memoria.png;
#BACKGROUND:Jucunda Memoria-bg.png;
#CDTITLE:./CDTitles/Mirai Dagakki FutureTomTom.png;
#MUSIC:Jucunda Memoria.ogg;
#SAMPLESTART:90.280;
#SAMPLELENGTH:15;
#DISPLAYBPM:145:290;
#BPMS:0=290,212=145,227=48.333,228=290;
#NOTES:
     dance-single:
     :
     Beginner:
     5:
     :
0000
0000
0000
0000
,
0000
0000
0000
0000
,
0000
0000
0000
0000
,
0000
0000
0000
0000
,
0000
0000
0000
0000
,
0000
0000
0000
0000
,
0000
0000
0000
0000
,
0000
0000
0000
0000
,
0000
0000
0000
0000
,
0000
0000
0000
0000
,
0001
0000
0000
0000
,
0010
0000
0000
0000
,
0001
0000
0000
0000
,
0100
0000
0000
0000
,
1000
0000
0000
0000
,
0010
0000
0000
0000
,
1000
0000
0000
0000
,
0100
0000
0000
0000
,
2002
0000
0000
0000
,
3003
0000
0000
0000
,
1000
0000
0010
0000
,
1000
0000
0000
0000
,
1000
0000
0100
0000
,
0010
0000
0000
0000
,
0001
0000
0010
0000
,
0001
0000
0000
0000
,
0001
0000
0100
0000
,
0010
0000
0000
0000
,
1000
0000
1000
0000
,
0100
0000
0000
0000
,
1000
0000
1000
0000
,
0010
0000
0000
0000
,
1000
0000
0100
0000
,
0001
0000
0000
0000
,
2002
0000
0000
0000
,
3003
0000
0000
0000
,
0001
0000
0100
0000
,
0001
0000
0000
0000
,
0001
0000
0010
0000
,
0100
0000
0000
0000
,
1000
0000
0100
0000
,
1000
0000
0000
0000
,
1000
0000
0010
0000
,
0100
0000
0000
0000
,
0001
0000
0001
0000
,
0010
0000
0000
0000
,
0001
0000
0001
0000
,
0100
0000
0000
0000
,
0001
0000
0010
0000
,
1000
0000
0000
0000
,
2002
0000
0000
0000
,
0000
0000
0000
0000
,
3003
0000
0000
0000
,
0020
0000
0000
0030
,
0200
0000
0000
0300
,
2000
0000
0000
3000
,
0002
0000
0000
0003
,
1000
0000
0010
0000
,
1000
0000
0100
0000
,
0010
0000
0100
0000
,
1000
0000
0010
0000
,
1000
0000
0010
0000
,
0001
0000
0010
0000
,
0001
0000
0100
0000
,
0001
0000
0020
0000
,
0000
0000
0000
0000
,
0030
0000
1001
0000
,
0001
0000
0100
0000
,
0001
0000
0010
0000
,
0100
0000
0010
0000
,
0001
0000
0100
0000
,
0001
0000
0100
0000
,
1000
0000
0100
0000
,
1000
0000
0010
0000
,
1000
0000
0200
0000
,
0000
0000
0000
0000
,
0300
0000
1000
0000
,
0010
0000
1001
0000
,
0001
0000
0000
0001
,
0000
0000
0000
0000
,
1000
0000
0000
1000
,
0000
0000
0000
0000
,
0010
0000
0000
0010
,
0000
0000
0000
0000
,
0100
0000
0000
0100
,
0000
0000
0000
0000
,
0110
0000
0000
0110
,
0000
0000
0000
0000
,
1001
0000
0000
1001
,
0000
0000
0000
0000
,
0110
0000
0000
0110
,
0000
0000
0000
0000
,
1001
0000
0000
0110
,
0000
0000
1001
0000
,
0100
0000
0010
0000
,
0220
0000
0000
0000
,
0000
0000
0000
0000
,
0000
0000
0000
0000
,
0000
0000
0000
0000
,
0000
0000
0000
0000
,
0000
0000
0000
0000
,
0000
0000
0000
0000
,
0000
0000
0000
0000
,
0000
0000
0000
0000
,
0330
0000
0000
0000
,
1000
0000
0100
0000
,
1000
0000
0100
0000
,
0001
0000
0100
0000
,
1000
0000
0001
0000
,
0010
0000
0001
0000
,
0100
0000
0010
0000
,
1000
0000
0100
0000
,
1000
0000
1000
0000
,
0010
0000
0001
0000
,
0010
0000
0001
0000
,
1000
0000
0100
0000
,
1000
0000
0100
0000
,
1000
0000
0010
0000
,
0001
0000
0010
0000
,
1000
0000
1000
0000
,
1001
0000
0000
0000
,
0001
0000
0010
0000
,
0001
0000
0010
0000
,
1000
0000
0010
0000
,
0001
0000
1000
0000
,
0100
0000
1000
0000
,
0010
0000
0100
0000
,
0001
0000
0010
0000
,
0001
0000
0001
0000
,
0100
0000
1000
0000
,
0100
0000
1000
0000
,
0001
0000
0010
0000
,
0001
0000
0010
0000
,
0001
0000
0100
0000
,
1000
0000
0100
0000
,
0001
0000
0001
0000
,
1000
0000
1000
0000
,
0010
0000
1001
0000
,
0000
0000
0000
0000
;
#NOTES:
     dance-single:
     :
     Easy:
     10:
     :
0000
0000
0000
0000
,
0000
0000
0000
0000
,
0000
0000
0000
0000
,
0000
0000
0000
0000
,
0000
0000
0000
0000
,
0000
0000
0000
0000
,
0000
0000
0000
0000
,
0000
0000
0000
0000
,
0000
0000
0000
0000
,
0000
0000
0000
0000
,
0001
0000
0001
0000
,
0100
0000
0000
0000
,
1000
0000
1000
0000
,
0010
0000
0000
0000
,
0001
0000
0001
0000
,
0010
0000
0000
0000
,
1000
0000
1000
0100
,
0000
0000
0100
0000
,
2002
0000
0000
0000
,
3003
0000
0000
0000
,
0010
0000
0100
0000
,
0001
0000
1000
0000
,
0001
0010
0001
0000
,
1000
0100
1000
0000
,
0010
0000
0001
0000
,
0010
0000
1000
0000
,
0001
0000
0100
0000
,
0001
1000
0001
0000
,
0101
0000
0101
0000
,
1010
0000
1010
0000
,
0100
0010
0100
0010
,
0100
0000
0100
0000
,
1000
0000
1010
0000
,
0001
0000
0011
0100
,
0000
0100
0000
0000
0100
0000
0000
0100
,
0000
0000
0010
0000
0000
0010
0000
0000
,
0001
0100
0001
0000
,
1000
0100
1000
0000
,
0010
0100
0001
0000
,
0010
0100
1000
0000
,
0010
0000
0000
1000
0000
0000
0010
0000
,
0100
0000
0000
0001
0000
0000
0010
0000
,
0001
0000
0000
1000
0000
0000
0100
0000
,
0010
0100
0010
0000
,
0001
0000
0011
0000
,
1010
0000
1100
0000
,
0001
0100
0001
0100
,
0001
0010
0001
0000
,
1000
0000
1100
0000
,
0100
0000
0101
0010
,
0000
0010
0000
0000
0010
0000
0000
0010
,
0000
0000
0010
0000
0000
0010
0000
0000
,
0100
0100
0100
0000
,
2000
0000
3000
0010
0000
0000
0010
0000
,
0001
0000
0100
0000
0000
0100
0000
0000
,
0010
1000
0000
0000
1000
0000
0000
1000
,
0001
0100
0010
0110
,
1000
0100
0010
0000
,
1001
0000
0001
0100
,
0010
0000
1001
0000
,
0010
0100
0010
0100
,
0010
0000
1010
0000
,
1100
0000
0010
0000
,
0011
0000
0101
0000
,
1001
0000
0010
1000
,
0010
0100
0001
0100
,
1000
0100
0001
0100
,
0010
1000
0001
0000
,
0110
0000
0010
0001
,
1000
0000
0110
0000
,
0001
1000
0001
1000
,
0001
0000
0101
0000
,
0011
0000
0100
0000
,
1100
0000
1010
0000
,
0001
0100
0010
1000
,
0010
0001
0010
1000
,
0010
0001
0010
1000
,
0100
0010
0001
0100
,
0010
0000
0000
0010
0000
0000
0010
0000
,
0100
0001
1000
0010
,
0100
0000
0000
0100
0000
0000
0100
0000
,
0001
0010
0100
1000
,
0001
0000
0000
0001
0000
0000
0001
0000
,
0100
0010
1000
0001
,
1000
0000
0000
1000
0000
0000
1000
0000
,
0010
1000
0100
0010
,
0001
0000
0000
0100
0000
0000
0101
0000
,
0010
1000
0100
1000
,
0010
0000
0000
0100
0000
0000
0110
0000
,
1000
0001
0010
0001
,
1000
0000
0000
0100
0000
0000
1100
0000
,
0001
0010
0100
1000
,
0001
0000
0000
0011
0000
0000
1000
0000
,
0000
1100
0000
0000
0010
0000
0110
0000
,
1000
1001
0010
0100
,
0220
0000
0000
0000
,
0000
0000
0000
0000
,
0000
0000
0000
0000
,
0000
0000
0000
0000
,
0000
0000
0000
0000
,
0000
0000
0000
0000
,
0000
0000
0000
0000
,
0000
0000
0000
0000
,
0330
0000
0000
0000
,
0000
0001
0000
1000
0000
0001
0000
0000
,
1000
0100
1000
0100
,
0010
0001
1000
0001
,
0100
0010
1000
0001
,
0100
0010
1000
0000
,
0100
0010
0001
0010
,
0100
1000
0010
0100
,
0001
0010
0001
0100
,
0010
1000
0100
0000
,
1000
0010
0001
0010
,
1000
0100
0010
0010
,
0001
0100
1000
0100
,
0001
0010
0100
0100
,
1000
0010
0100
0010
,
1000
0001
0010
0100
,
0000
1000
0000
0000
1000
0000
0000
0010
,
0000
0000
0010
0000
0000
0110
0000
0000
,
0001
0010
0001
0010
,
0100
1000
0001
1000
,
0010
0100
0001
1000
,
0010
0100
0001
0000
,
0010
0100
1000
0100
,
0010
0001
0100
0010
,
1000
0100
1000
0010
,
0100
0001
0010
0000
,
0001
0100
1000
0100
,
0001
0010
0100
0100
,
1000
0010
0001
0010
,
1000
0100
0010
0010
,
0001
0100
0010
0100
,
0001
1000
0100
0010
,
0000
0001
0000
0000
0001
0000
0000
0100
,
0000
0000
0100
0000
0000
0110
0000
0000
,
1000
0001
1001
0000
,
0000
0000
0000
0000
;
#NOTES:
     dance-single:
     :
     Medium:
     14:
     :
0000
0000
0000
0000
,
0000
0000
0000
0000
,
0000
0000
0000
0000
,
0000
0000
0000
0000
,
0000
0000
0000
0000
,
0000
0000
0000
0000
,
0000
0000
0000
0000
,
0000
0000
0000
0000
,
0000
0000
0000
0000
,
0000
0000
0000
0000
,
2000
0000
3100
0000
,
0010
0000
0010
0000
,
0002
0000
0103
0000
,
0010
0000
0010
0000
,
2000
0000
3010
0000
,
0100
0000
0100
0000
,
0002
0000
0013
0100
,
0000
0100
0000
0000
0100
0000
0000
0000
,
2002
0000
0000
0000
,
0000
0000
3003
0000
,
0010
0100
1000
0010
,
0100
0001
1000
0000
,
1000
0010
0001
0010
,
1000
0001
0100
0010
,
1000
0000
0000
1000
0000
0000
1000
0000
,
0100
0000
0000
0100
0000
0000
0100
0000
,
0001
0000
0000
0001
0000
0000
0001
0000
,
0010
0000
0001
0000
1000
0001
1000
0000
,
0010
1000
1100
0100
,
0110
0010
0011
0001
,
0100
0010
0100
0010
0100
0000
0001
0000
,
1000
1000
1000
0000
,
0010
0000
0000
0010
0000
0000
0010
0000
,
0001
0000
0000
0001
0000
0000
0001
0000
,
0000
0100
0000
0000
0100
0000
0000
0100
,
0000
0000
1000
0000
0000
1000
0000
0000
,
1000
0100
0110
0110
,
0001
0000
0100
0000
0010
0100
0010
0000
,
1000
0000
0100
0010
0001
0000
0100
0000
,
0001
0010
0100
0000
1000
0000
0001
0000
,
0100
0000
0000
0110
0000
0000
0110
0000
,
0010
0000
0000
0110
0000
0000
0110
0000
,
1000
0000
0000
1001
0000
0000
1001
0000
,
0000
0000
0001
0100
0001
0100
0001
0000
,
1000
0000
0100
1000
0100
0000
0010
0100
,
0010
0000
0001
1000
0001
0000
0000
0000
,
0100
0010
1000
0010
0100
0000
0001
0000
,
0010
0010
0010
0000
,
0100
0000
0000
1100
0000
0000
1010
0000
,
0100
0000
0000
0101
0000
0000
0011
0000
,
0000
0110
0000
0000
1100
0000
0000
0101
,
0000
0000
0110
0000
0000
1010
0000
0000
,
1000
0001
1001
0000
,
0020
0000
0000
0000
0000
0000
1000
0000
0000
1000
0000
0000
1030
0000
0100
0000
,
0020
0000
0000
0000
0001
0000
0000
0001
0000
0000
0031
0000
0000
0001
1000
0000
,
0200
0000
0010
0000
0000
0010
0000
0000
0010
0000
0000
0010
0000
0000
0310
0000
,
0001
1000
0001
1000
0010
0100
0110
0000
,
1000
0010
0100
0001
,
1000
0001
1000
0000
0100
0000
0001
0000
,
0100
0000
1000
0000
0001
0010
0100
0000
,
1000
0100
0001
0100
,
1000
0000
0000
1000
0010
0000
0000
0010
,
0100
0000
0000
0100
0001
0000
0000
0010
,
0001
0000
0100
0000
0001
1000
0100
0000
,
1000
0000
0010
0000
0100
0000
0000
0100
,
0000
0000
0100
0000
0001
0100
0001
0100
,
0001
0100
0001
0100
0010
0000
1000
0000
,
0001
0010
0100
1000
,
0001
1000
0001
0000
0100
0000
1000
0000
,
0100
0000
0001
0000
1000
0010
0100
0000
,
0001
0100
1000
0100
,
0001
0000
0000
0001
0010
0000
0000
0010
,
0100
0000
0000
0100
1000
0000
0000
0010
,
1000
0000
0100
0000
1000
0001
0100
0000
,
0001
0000
0010
0000
0100
0000
0000
0100
,
0000
0000
0100
0000
1000
0100
1000
0000
,
0001
0100
0001
0000
0010
0000
0100
0000
,
1000
0010
1000
0000
0001
0010
0001
0000
,
0011
0000
0000
0011
0000
0000
0011
0000
,
1000
0000
0001
0100
0000
0001
0100
0000
,
1010
0000
0000
1010
0000
0000
1010
0000
,
0001
0000
1000
0100
0000
1000
0100
0000
,
0101
0000
0000
0101
0000
0000
0101
0000
,
1000
0000
0001
0010
0000
0001
0010
0000
,
1100
0000
0000
1100
0000
0000
1100
0000
,
0001
0000
1000
0010
0000
1000
0010
0000
,
0100
0000
0001
0100
0000
0010
1000
0000
,
0100
0000
0010
0001
0100
0000
0001
0000
,
1000
0000
0001
0010
0000
0100
1000
0000
,
0010
0000
1000
0100
0010
0000
0001
0000
,
0100
0000
1000
0100
0000
0001
0100
0000
,
0010
0000
1000
0001
0010
0000
0100
0000
,
1000
0000
0100
0001
0000
0100
1000
0000
,
0010
0001
0000
0010
1000
0000
0001
0010
,
0001
0000
1000
0010
0100
0000
0001
0000
,
2002
0000
0000
0000
,
0000
0000
0000
0000
,
0000
0000
0000
0000
,
0000
0000
3003
0000
,
0020
0000
2030
0000
,
3002
0000
0203
0000
,
0302
0000
0023
0000
,
0230
0000
2000
0000
,
0000
0000
0000
0000
0000
0000
0000
3300
,
0000
1000
0000
1000
0000
1000
0000
0000
,
0001
0000
1000
0000
0100
1000
0010
0000
,
0100
0001
0010
0000
0001
0000
1000
0000
,
0100
0000
0100
0010
0100
0000
1000
0000
,
0010
0100
0001
0100
0010
0000
1000
0000
,
0001
0000
0000
0001
0010
0000
0000
0010
,
0100
0000
0000
0100
1000
0000
0000
0010
,
1000
0100
0010
0100
1000
0000
0001
1000
,
0001
0100
0110
0000
,
0100
0001
1000
0000
1001
0000
1000
0001
,
0010
0000
0110
0000
0010
0100
1000
0000
,
0010
0001
0010
1000
,
0001
0100
1000
0000
0100
0000
0000
0000
,
0010
0000
0000
1000
0010
0000
0000
1000
,
0100
0000
0000
0010
0001
0000
0000
0010
,
0100
1000
0100
0000
0010
0000
0010
0001
,
0010
0000
0100
0000
0000
0100
0000
0000
,
1000
0000
0001
0000
0010
0001
0100
0000
,
0010
1000
0100
0000
1000
0000
0001
0000
,
0010
0000
0010
0100
0010
0000
0001
0000
,
0100
0010
1000
0010
0100
0000
0001
0000
,
1000
0000
0000
1000
0100
0000
0000
0100
,
0010
0000
0000
0010
0001
0000
0000
0100
,
0001
0010
0100
0010
0001
0000
1000
0001
,
1000
0010
0110
0000
,
0010
1000
0001
0000
1001
0000
0001
1000
,
0100
0000
0110
0000
0100
0010
0001
0000
,
0100
1000
0100
0001
,
1000
0010
0001
0000
0010
0000
0000
0000
,
0100
0000
0000
0001
0100
0000
0000
0001
,
0010
0000
0000
0100
1000
0000
0100
0000
,
0010
0001
0010
0000
0100
0000
0100
1000
,
0100
0010
0001
0100
,
0110
0001
1001
0000
,
0000
0000
0000
0000
;
#NOTES:
     dance-single:
     :
     Hard:
     17:
     :
0000
0000
0000
0000
,
0000
0000
0000
0000
,
0000
0000
0000
0000
,
0000
0000
0000
0000
,
0000
0000
0000
0000
,
0000
0000
0000
0000
,
0000
0000
0000
0000
,
0000
0000
0000
0000
,
0000
0000
0000
0000
,
0000
0000
0000
0000
,
0010
0000
0010
0000
,
0010
1000
0100
0000
,
0010
0000
0010
0000
,
0010
0001
0100
0000
,
0010
1000
0100
0000
,
0010
0001
0100
0000
,
0010
1000
0100
0001
,
0000
0001
0000
0000
0001
0000
0000
0000
,
2002
0000
3003
0000
,
1001
0000
0000
1001
0000
0000
1001
0000
,
0010
0000
0100
0010
0100
0000
0010
0000
,
1000
0000
0001
1000
0001
0000
1000
0000
,
0100
0010
0001
0000
0100
0010
1000
0000
,
0100
0010
0001
0000
1010
0000
1010
0000
,
0100
0000
0001
0010
0000
0001
0010
0000
,
0100
0000
1000
0010
0000
1000
0010
0000
,
0100
0000
0001
0100
0000
0001
0100
0000
,
0010
1000
0100
0010
0001
0100
0010
0000
,
0100
0000
1000
0100
1000
0000
0100
0001
,
0100
0000
0001
0010
0001
0000
0010
1000
,
0010
0001
0100
0001
0010
0000
0010
0000
,
1000
0000
0010
0000
0001
0010
1000
0000
,
0001
0000
0100
0010
0000
0100
0010
0000
,
1000
0000
0100
0010
0000
0100
0010
0000
,
0000
0001
0000
0000
0011
0000
0000
0210
,
0000
0000
1000
0000
0000
0301
0000
0000
,
0010
1010
1100
1100
,
0011
0000
1001
0000
1000
0100
0010
0001
,
1000
0000
0010
0001
0010
0000
1000
0000
,
0100
0010
0001
0000
0101
0000
1010
0000
,
0001
0000
1000
0010
0000
0010
0001
0000
,
1000
0000
1000
0100
0000
0100
0001
0000
,
0010
0000
0100
1000
0000
0010
0001
0000
,
1000
0100
1000
0100
0001
0010
0100
0010
,
0001
0000
0010
0100
1000
0000
0010
0100
,
0001
0000
0010
0100
1000
0100
0010
0001
,
0100
1000
0100
0001
0100
0000
0110
0000
,
1010
0000
1100
0000
0001
1000
0100
0000
,
0010
0000
0001
0100
0000
0001
1000
0000
,
0010
0000
1000
0100
0000
1000
0001
0000
,
0000
1010
0000
0000
0101
0000
0000
1100
,
0000
0022
0000
0033
,
1001
0110
1001
0000
,
0010
0001
1000
0010
1000
0000
0100
0000
0000
0100
0000
0000
0100
0000
0001
0100
,
0001
1000
0100
0000
0010
0000
0000
0010
0000
0000
0010
0000
1000
0001
1000
0000
,
0010
0000
0001
0000
0000
0001
0000
0000
0100
0000
0010
1000
0010
0000
0100
0001
,
0100
1000
1000
1000
1000
1000
2000
3000
,
1001
0000
0100
0001
0010
0001
0010
0001
,
1000
0100
1000
0010
0000
0010
1000
0010
,
1000
0001
0010
0100
1000
0001
1000
0100
,
0010
0001
0100
1000
0100
0001
0010
0000
,
0001
0000
0100
0010
0100
0010
1000
0000
,
0100
0001
0100
1000
0100
0000
0010
0100
,
0010
0100
0010
0000
0010
1000
0010
1000
,
0010
0001
0010
0001
1000
0100
0010
0001
,
0100
0000
0000
0010
0000
0000
1000
0000
0000
0100
0000
0000
0010
0000
0001
0000
0010
0000
0001
0000
0010
0000
0001
0000
,
0010
0000
0001
0000
0010
0000
0001
0000
0010
0000
0001
0000
0010
0000
0000
0001
0000
0000
0010
0000
0000
0000
0000
0000
,
0100
0000
1000
0010
0100
0001
0100
0010
,
1000
0100
0010
0001
0000
0001
0100
0001
,
0010
0001
0100
1000
0100
0010
1000
0000
,
0100
1000
0010
0100
0001
0010
0100
0000
,
0101
0000
0001
0100
1000
0000
0100
1000
,
0010
0000
0001
0000
0011
0000
0001
0010
,
1000
0000
0010
1000
0100
0000
0001
0000
,
0100
0010
0001
0010
0100
1000
0010
0100
,
0001
0010
0100
1000
0010
1000
0010
0100
,
0001
0100
0001
0010
0001
1000
0100
1000
,
0010
0001
0010
0001
0010
1000
0001
0100
,
0010
0000
0100
0101
0000
0100
1100
0000
,
0001
0010
0001
0010
0100
0010
0100
0000
,
1000
0000
0010
1010
0000
0010
0011
0000
,
0100
1000
0001
0100
0010
0001
0010
0000
,
1000
0000
0001
0011
0000
0001
0101
0000
,
1000
0001
0100
0010
1000
0100
0010
0000
,
0001
0000
1000
1010
0000
1000
1100
0000
,
0100
1000
1001
0000
0011
0000
0110
0000
,
1000
0010
0100
0010
1000
0001
0011
0000
,
0100
0001
0100
1000
0100
0001
0100
0000
,
0010
0001
0100
0001
0010
0100
1100
0000
,
0010
0001
0010
1000
0010
0001
0010
0000
,
0001
1000
0010
0100
0001
0010
0110
0000
,
0001
0100
1000
0001
0100
0010
1000
0000
,
0100
0010
0001
0110
0000
0000
0100
0010
,
1000
0110
0000
0000
0001
0100
1010
0000
,
1000
0100
0011
0000
0001
0100
1010
0000
,
2002
0000
0000
0000
,
0000
0000
0000
0000
,
0000
0000
0000
0000
,
0000
0000
3003
0000
,
0010
0000
1000
0000
,
0100
0000
0001
0000
,
0010
0000
0001
0000
,
0100
0000
2000
0000
,
0000
0000
0000
0000
0000
0000
0000
3000
,
0000
1000
0000
1000
0000
1000
0000
0000
,
0010
0000
1001
0000
0100
0010
0011
0000
,
0100
0010
1010
0000
1100
0000
0101
0000
,
0110
0000
1000
0010
0001
0000
0110
0000
,
1000
0100
0001
0100
0110
0000
0110
0000
,
0001
0010
0100
0000
1001
0000
0001
0010
,
0100
0000
0100
0010
0001
0000
1001
0000
,
1000
0100
0001
0100
1000
0000
1000
0010
,
1000
0000
1001
0000
1000
0010
0100
0000
,
0001
0010
1100
0000
1100
0000
1000
0010
,
0101
0000
1001
0000
0001
0100
0010
0000
,
1001
0000
0100
0001
0011
0000
0100
1000
,
1010
0010
1000
0010
1000
0000
1000
0000
,
0011
0000
0010
0001
1000
0000
0101
0000
,
0100
0001
1000
0001
0100
0000
0010
0100
,
0010
1000
0010
0000
0110
0000
0001
0010
,
0100
0000
1100
0000
0010
0100
1001
0000
,
1001
0000
0110
0000
0100
0010
0110
0000
,
0010
0100
0110
0000
1010
0000
0101
0000
,
1001
0000
1000
0001
1000
0000
1001
0000
,
0100
0010
1000
0010
0100
0000
0001
0000
,
0010
0001
0100
0000
0110
0000
0010
1000
,
0100
0000
0100
1000
0010
0000
0110
0000
,
0001
0010
1000
0010
0001
0000
0001
0100
,
0010
1000
0100
0001
0100
1000
0010
0000
,
0100
0001
1010
0000
1010
0000
0100
1000
,
0011
0000
0011
0000
0100
0010
1001
0000
,
1010
0000
1000
0001
0101
0000
0010
1000
,
0100
0010
1000
0010
0100
0000
0011
0000
,
1010
0000
0100
0001
0110
0000
1010
0000
,
0100
1000
0100
0010
0001
0000
1001
0000
,
0100
1010
0000
0010
0101
0000
1000
0011
,
0000
1000
0110
0000
0001
0110
0000
0000
,
1001
0110
1001
0000
,
0000
0000
0000
0000
;
#NOTES:
     dance-double:
     :
     Easy:
     11:
     :
00000000
00000000
00000000
00000000
,
00000000
00000000
00000000
00000000
,
00000000
00000000
00000000
00000000
,
00000000
00000000
00000000
00000000
,
00000000
00000000
00000000
00000000
,
00000000
00000000
00000000
00000000
,
00000000
00000000
00000000
00000000
,
00000000
00000000
00000000
00000000
,
00000000
00000000
00000000
00000000
,
00000000
00000000
00000000
00000000
,
00000001
00000000
00000010
00000000
,
00000001
00000000
00000000
00000000
,
00001000
00000000
00000100
00000000
,
00001000
00000000
00000000
00000000
,
00001000
00000000
00010000
00000000
,
00001000
00000000
00000000
00000000
,
00100000
00000000
00010000
01000000
,
00000000
00000000
01000000
00000000
,
20020000
00000000
00000000
00000000
,
30030000
00000000
00000000
00000000
,
10000000
00000000
01000000
00000000
,
00100000
00000000
00010000
00000000
,
00100000
00000000
00001000
00000000
,
00010000
00001000
00010000
00000000
,
00000100
00000000
00000100
00000000
,
00001000
00000000
00001000
00000000
,
00000010
00000000
00000100
00000000
,
00000001
00001000
00000001
00000000
,
00000100
00000000
00001000
00000000
,
00011000
00000000
00011000
00000000
,
00010000
00000000
01000000
00000000
,
01100000
00000000
01100000
00000000
,
10000000
01000000
10000000
00000000
,
00010000
00100000
00010000
01000000
,
00000000
00001000
00000000
00000000
00010000
00000000
00000000
00001000
,
00000000
00000000
00010000
00000000
00000000
00011000
00000000
00000000
,
00000100
00001000
00000010
00000000
,
00000100
00000001
00000010
00000000
,
00000100
00001000
00000100
00000000
,
00010000
00001000
00010000
00000000
,
00001000
00000000
00000000
01000000
00000000
00000000
00010000
00000000
,
00100000
00000000
00000000
00010000
00000000
00000000
01000000
00000000
,
00001000
00000000
00000000
00010000
00000000
00000000
00100000
00000000
,
01000000
00000000
01100000
00000000
,
10000000
00000000
11000000
00000000
,
00100000
00000000
00110000
00000000
,
00001000
00010000
00001000
00010000
,
00001000
00000000
00011000
00000000
,
00000010
00000000
00001010
00000000
,
00000100
00000000
00000101
00000010
,
00000000
00000010
00000000
00000000
00001000
00000000
00000000
00001000
,
00000000
00000000
00000100
00000000
00000000
00000100
00000000
00000000
,
00010000
00001000
00010000
00000000
,
00010000
00000000
00000000
00100000
00000000
00000000
01100000
00000000
,
10000000
00000000
00010000
00000000
00000000
01000000
00000000
00000000
,
00001000
00010000
00000000
00000000
00001000
00000000
00000000
00000100
,
00000010
00001000
00000001
00001001
,
00000010
00000100
00000010
00000100
,
00000010
00000000
00001000
00000000
,
00010000
00000000
00100000
00000000
,
01000000
00100000
01000000
00100000
,
01000000
00000000
00010000
00000000
,
00011000
00000000
00000100
00000000
,
00001000
00000000
00011000
00000000
,
00000100
00000000
00000010
00000001
,
00000010
00000001
00001000
00000100
,
00001000
00000100
00010000
00001000
,
01000000
00100000
01000000
00100000
,
01000000
00000000
00010000
00000000
,
00001000
00000000
00000100
00000000
,
00000010
00000100
00000010
00000100
,
00000010
00000000
00001000
00000000
,
00011000
00000000
00100000
00000000
,
00010000
00000000
00011000
00000000
,
00100000
00000000
01000000
10000000
,
01000000
10000000
00010000
00100000
,
00010000
00100000
00001000
00010000
,
00000100
00001000
00000010
00000100
,
00000010
00000000
00000000
00000010
00000000
00000000
00000010
00000000
,
00000000
00000010
00001001
00000000
,
00000100
00000000
00000000
00000100
00000000
00000000
00000100
00000000
,
00000000
00000100
00011000
00000000
,
00010000
00000000
00000000
00010000
00000000
00000000
00010000
00000000
,
00000000
00010000
01001000
00000000
,
00100000
00000000
00000000
00100000
00000000
00000000
00100000
00000000
,
00000000
00100000
01010000
00010000
,
10000000
00000000
00000000
10000000
00000000
00000000
10000000
00000000
,
00000000
01000000
10010000
00000000
,
00100000
00000000
00000000
00100000
00000000
00000000
00100000
00000000
,
00000000
00001000
00010010
00000000
,
00001000
00000000
00000000
00001000
00000000
00000000
00001000
00000000
,
00000000
00000001
00000110
00000000
,
00000001
00000000
00000000
00000100
00000000
00000000
00001000
00000000
,
00000000
00010000
00000000
00000000
00100000
00000000
10000000
00000000
,
01000000
00100000
00001000
00010000
,
00022000
00000000
00000000
00000000
,
00000000
00000000
00000000
00000000
,
00000000
00000000
00000000
00000000
,
00000000
00000000
00000000
00000000
,
00000000
00000000
00000000
00000000
,
00000000
00000000
00000000
00000000
,
00000000
00000000
00000000
00000000
,
00000000
00000000
00000000
00000000
,
00033000
00000000
00000000
00000000
,
00000000
00001000
00000000
00010000
00000000
00001000
00000000
00000000
,
00010000
00000100
00001000
00000100
,
00000010
00000001
00000100
00000010
,
00000100
00001000
00000100
00001000
,
00010000
00001000
00010000
00000000
,
00100000
01000000
10000000
01000000
,
00100000
01000000
10000000
01000000
,
00100000
01000000
00010000
00100000
,
00001000
00010000
00001000
00000000
,
00000010
00000100
00001000
00000010
,
00000100
00000001
00000010
00001000
,
00010000
01000000
00100000
00010000
,
10000000
01000000
00100000
00010000
,
01000000
00100000
01000000
00010000
,
00100000
00001000
00010000
00001000
,
00000000
00000010
00000000
00000000
00000100
00000000
00000000
00010000
,
00000000
00000000
00001000
00000000
00000000
00011000
00000000
00000000
,
00001000
01000000
00010000
01000000
,
00100000
10000000
01000000
00100000
,
01000000
00010000
01000000
00010000
,
00001000
00010000
00001000
00000000
,
00000010
00000100
00000001
00000100
,
00000010
00000100
00000001
00000100
,
00000010
00000100
00001000
00000010
,
00010000
00001000
00010000
00000000
,
00100000
01000000
00010000
00100000
,
01000000
10000000
00100000
00010000
,
00001000
00000100
00000010
00001000
,
00000001
00000100
00000010
00001000
,
00000100
00000010
00000100
00001000
,
00000010
00010000
00001000
00010000
,
00000000
00100000
00000000
00000000
01000000
00000000
00000000
00001000
,
00000000
00000000
00010000
00000000
00000000
00000100
00000000
00000000
,
00001000
00000010
00000110
00000000
,
00000000
00000000
00000000
00000000
;
#NOTES:
     dance-double:
     :
     Medium:
     14:
     :
00000000
00000000
00000000
00000000
,
00000000
00000000
00000000
00000000
,
00000000
00000000
00000000
00000000
,
00000000
00000000
00000000
00000000
,
00000000
00000000
00000000
00000000
,
00000000
00000000
00000000
00000000
,
00000000
00000000
00000000
00000000
,
00000000
00000000
00000000
00000000
,
00000000
00000000
00000000
00000000
,
00000000
00000000
00000000
00000000
,
00000002
00000000
00000103
00000000
,
00000010
00000000
00001000
00000000
,
00000200
00000000
00010300
00000000
,
00001000
00000000
00100000
00000000
,
00020000
00000000
01030000
00000000
,
00100000
00000000
10000000
00000000
,
02000000
00000000
03100000
00001000
,
00000000
00010000
00000000
00000000
00001000
00000000
00000000
00000000
,
00022000
00000000
00000000
00000000
,
00000000
00000000
00033000
00000000
,
00001000
00010000
00001000
00010000
,
00000010
00001000
00000010
00000000
,
00000100
00000001
00000010
00000000
,
00000100
00001000
00000010
00000000
,
00000100
00001000
00010000
00000000
,
00001000
00010000
00100000
00000000
,
00010000
00100000
01000000
00100000
,
10000000
10000000
00010000
00000000
,
10000000
01000000
01100000
00000000
,
00010000
00001000
00011000
00000000
,
00000010
00000100
00000010
00000100
00000010
00000000
00000001
00000000
,
00001000
00001000
00001000
00000000
,
00000001
00000100
00001000
00000000
,
00000100
00001000
00010000
00100000
,
00000000
00100000
00000000
00000000
01000000
00000000
00000000
01000000
,
00000000
00000000
10010000
00000000
00000000
10010000
00000000
00000000
,
10000000
01000000
00100000
00110000
,
00001000
00000000
00010000
00000000
00000010
00001000
00000010
00000000
,
00000100
00000001
00000010
00000110
,
00001000
00000000
00000100
00000000
00010000
00001000
00010000
00000000
,
00001000
00000000
00000000
01000000
00000000
00000000
01010000
00000000
,
00100000
00000000
00000000
01000000
00000000
00000000
11000000
00000000
,
00010000
00000000
00000000
00001000
00000000
00000000
00011000
00000000
,
00000000
00000000
00010000
00001000
00010000
00001000
00010000
00000000
,
00000100
00000000
00001000
00000010
00001000
00000000
00000001
00000100
,
00000001
00000010
00001000
00010000
,
01000000
10000000
00010000
10000000
01000000
00000000
00100000
00000000
,
00001000
00010000
00001000
00000000
,
00000010
00000000
00000000
00000001
00000000
00000000
00000011
00000000
,
00001000
00000000
00000000
00000100
00000000
00000000
00001100
00000000
,
00000000
00010000
00000000
00000000
00011000
00000000
00000000
00100000
,
00000000
00000000
00110000
00000000
00000000
10000000
00000000
00000000
,
01000000
00100000
01100000
00000000
,
20000000
00000000
00000000
00000000
00000000
00000000
00100000
00000000
00000000
00100000
00000000
00000000
30100000
00000000
00010000
00000000
,
00002000
00000000
00000000
00000000
00010000
00000000
00000000
00010000
00000000
00000000
00013000
00000000
00000000
00001000
00000010
00000000
,
00000002
00000000
00000100
00000000
00000000
00000100
00000000
00000000
00000100
00000000
00000000
00000100
00000000
00000000
00000103
00000000
,
00001000
00001000
00010000
00010000
00001000
00010000
00011000
00000000
,
00001000
01000000
00010000
00100000
,
01000000
10000000
01000000
00000000
00100000
00000000
00001000
00000000
,
00010000
01000000
00010000
00001000
,
00000010
00000001
00000100
00001000
,
00000100
00000000
00000000
00000100
00000010
00000000
00000000
00000010
,
00010000
00000000
00000000
00010000
00001000
00000000
00000000
00001000
,
01000000
00000000
00100000
00000000
10000000
00010000
10000000
00000000
,
01000000
00010000
01000000
00000000
00100000
00000000
00001000
00010000
,
00000000
00001000
00010000
00000000
00000010
00001000
00000010
00001000
,
00000010
00001000
00000010
00001000
00000010
00000000
00000000
00000000
,
00010000
00000010
00001000
00000100
,
00000010
00000001
00000010
00000000
00000100
00000000
00010000
00000000
,
00001000
00000010
00001000
00010000
,
01000000
10000000
00100000
00010000
,
00100000
00000000
00000000
00100000
01000000
00000000
00000000
01000000
,
00001000
00000000
00000000
00001000
00010000
00000000
00000000
00010000
,
00000010
00000000
00000100
00000000
00000001
00001000
00000001
00000000
,
00000010
00000000
00000100
00000000
00010000
00000000
00001000
00010000
,
00001000
00100000
00010000
10000000
,
01000000
00100000
01000000
00000000
10000000
00000000
00100000
00000000
,
00010000
00000000
00001000
00000000
00010000
00001000
00010000
00000000
,
00001000
00000000
00000000
00011000
00000000
00000000
00011000
00000000
,
00001000
00000010
00000100
00010000
,
00001000
00000000
00000000
00010000
00000000
00000000
00011000
00000000
,
00010000
00100000
01000000
00001000
,
00010000
00000000
00000000
00001000
00000000
00000000
00011000
00000000
,
00010000
00000100
00000010
00001000
,
00010000
00000000
00000000
00001000
00000000
00000000
00011000
00000000
,
00001000
01000000
00100000
00010000
,
00001000
00000000
00010000
00000100
00000000
00001000
00000100
00000000
,
00000010
00000000
00000001
00000100
00000001
00000000
00000100
00000000
,
00000010
00000000
00010000
00001000
00000000
00001000
01000000
00000000
,
00010000
00000000
00100000
00000000
01000000
00100000
01000000
00000000
,
00100000
00000000
01000000
10000000
00000000
01000000
00100000
00000000
,
00010000
01000000
00001000
00010000
,
00000100
00000000
00000100
00000010
00000000
00000000
00000100
00000000
,
00000100
00010000
00000000
00000000
01000000
00000000
00100000
00000000
,
00001000
00010000
00000100
00000010
,
00002002
00000000
00000000
00000000
,
00000000
00000000
00000000
00000000
,
00000000
00000000
00000000
00000000
,
00000000
00000000
00003003
00000000
,
00000002
00000000
00001003
00000000
,
00001000
00000000
00010000
00000000
,
00020000
00000000
10030000
00000000
,
20000000
00000000
00020000
00000000
,
00000000
00000000
00000000
00000000
00000000
00000000
00000000
30030000
,
00000000
00010000
00000000
10000000
00000000
00010000
00000000
00000000
,
10000000
01000000
00010000
00001000
,
00100000
00010000
00001000
00000100
,
00000010
00000000
00000001
00001000
00000001
00000000
00000100
00000000
,
00000010
00000100
00000001
00000100
00000010
00000000
00001000
00000000
,
00000001
00000000
00000000
00000100
00001000
00000000
00000000
00001000
,
00010000
00000000
00000000
00010000
00100000
00000000
00000000
00100000
,
10000000
00010000
10000000
00010000
10000000
00000000
00100000
00000000
,
00010000
00001000
00000100
00000010
,
00001000
00000100
00000010
00000000
00000010
00000000
00000010
00000100
,
00001000
00000000
00000001
00000000
00001000
00000010
00000100
00000000
,
00001000
00000000
00010000
00100000
00010000
00000000
00001000
00000000
,
00010000
01000000
10000000
00010000
,
00100000
00000000
00000000
01000000
00010000
00000000
00000000
00010000
,
00001000
00000000
00000000
00001000
00000010
00000000
00000000
00000010
,
00000001
00001000
00000100
00000000
00010000
00000000
00000100
00001000
,
00000010
00000010
00000010
00000000
,
00000001
00000100
00001000
00010000
,
00000010
00001000
00010000
01000000
,
00100000
00000000
10000000
00010000
10000000
00000000
01000000
00000000
,
00100000
01000000
10000000
01000000
00100000
00000000
00010000
00000000
,
10000000
00000000
00000000
01000000
00010000
00000000
00000000
00010000
,
00001000
00000000
00000000
00001000
00000010
00000000
00000000
00000010
,
00000001
00001000
00000001
00001000
00000001
00000000
00000010
00000000
,
00001000
00010000
01000000
00100000
,
00010000
01000000
00100000
00000000
00100000
00000000
00100000
01000000
,
00010000
00000000
10000000
00000000
00010000
00100000
01000000
00000000
,
00010000
00000000
00001000
00000010
00001000
00000000
00010000
00000000
,
00001000
00000100
00000001
00001000
,
00000010
00000000
00000000
00000100
00001000
00000000
00000000
00001000
,
00010000
00000000
00000000
00010000
00100000
00000000
10000000
00000000
,
01000000
00010000
01000000
00000000
00100000
00000000
00001000
00010000
,
00000100
00001000
00000010
00000000
00000100
00000001
00000100
00000000
,
00001000
00010000
00011000
00000000
,
00000000
00000000
00000000
00000000
;
#NOTES:
     dance-double:
     :
     Hard:
     17:
     :
00000000
00000000
00000000
00000000
,
00000000
00000000
00000000
00000000
,
00000000
00000000
00000000
00000000
,
00000000
00000000
00000000
00000000
,
00000000
00000000
00000000
00000000
,
00000000
00000000
00000000
00000000
,
00000000
00000000
00000000
00000000
,
00000000
00000000
00000000
00000000
,
00000000
00000000
00000000
00000000
,
00000000
00000000
00000000
00000000
,
00000002
00000000
00000103
00000000
,
00001000
00000000
00010000
00000000
,
00200000
00000000
10300000
00000000
,
00010000
00000000
00100000
00000000
,
02000000
00000000
03010000
00000000
,
00001000
00000000
00000010
00000000
,
00000001
00000100
00001000
00010000
,
00000000
00010000
00000000
00000000
00010000
00000000
00000000
00000000
,
00022000
00000000
00033000
00000000
,
00001000
00000000
00000000
00010000
00000000
00000000
00001000
00000000
,
01000000
00000000
00010000
00100000
00010000
00000000
10000000
00000000
,
01000000
00010000
00001000
00010000
,
00100000
00010000
00001000
00000100
,
00000001
00000010
00000001
00000000
00001000
00000000
00001000
00000000
,
00000001
00000000
00000100
00000010
00000000
00000100
00000010
00000000
,
00001000
00000000
00010000
01000000
00000000
00010000
01000000
00000000
,
00100000
00000000
10000000
01000000
00000000
10000000
02000000
00000000
,
03000000
00000000
01000000
00100000
00010000
01000000
00100000
00000000
,
01000000
00000000
00100000
00010000
00001000
00000000
00001000
00000100
,
00000010
00000000
00000010
00001000
00000001
00000000
00001001
00000000
,
00000001
00000010
00001000
00000010
00000001
00000000
00000100
00000000
,
00000010
00010000
00001000
00000100
,
00000010
00000000
00001000
00000010
00000000
00001000
00000100
00000000
,
00010000
00000000
00001000
00100000
00000000
00001000
00010000
00000000
,
00000000
02000000
00000000
00000000
00010000
00000000
00000000
00100000
,
00000000
00000000
10000000
00000000
00000000
13000000
00000000
00000000
,
11000000
01100000
00110000
00101000
,
00011000
00000000
00010100
00000000
00001000
00000100
00001000
00000100
,
00000010
00000000
00000001
00001000
00000001
00000000
00000100
00000000
,
00001000
00010000
00001000
00000000
00000010
00000000
00001000
00000000
,
00010000
00000000
01000000
00100000
00000000
00100000
00010000
00000000
,
01000000
00000000
00100000
00010000
00000000
00010000
00001000
00000000
,
00100000
00000000
00001000
01000000
00000000
00010000
00100000
00000000
,
00001000
00000000
00010000
00000100
00001000
00000100
00000010
00000000
,
00000001
00000000
00000001
00000100
00001000
00000000
00001000
00010000
,
00100000
00000000
00100000
10000000
01000000
10000000
00100000
10000000
,
01000000
00000000
00100000
00010000
00100000
00000000
00001000
00000000
,
00010100
00001100
00000110
00000000
,
00000001
00000000
00000100
00001000
00000000
00010000
00001000
00000000
,
00100000
00000000
00010000
10000000
00000000
01000000
00010000
00000000
,
00010000
01000000
00000000
00100000
00001000
00000000
00010000
00000100
,
00000000
00001000
00000100
00000010
00000100
00000000
00000010
00000000
,
00000001
00000001
00001001
00000000
,
00000001
00000100
00000010
00001000
00000010
00000000
00001000
00000000
00000000
00001000
00000000
00000000
00001000
00000000
00000100
00010000
,
00001000
00010000
00001000
00000000
00010000
00000000
00000000
00010000
00000000
00000000
00010000
00000000
00100000
01000000
00100000
00000000
,
10000000
00000000
01000000
00000000
00000000
01000000
00000000
00000000
00100000
00000000
00010000
00100000
00010000
00000000
00100000
00001000
,
00010000
00010000
00001000
00001000
00010000
00010000
00022000
00033000
,
00000010
00000000
00001000
00000100
00000010
00000000
00000100
00000010
,
00000001
00000000
00000100
00000000
00000010
00001000
00000010
00000000
,
00010000
00000100
00010000
00000000
00000100
00001000
00000100
00000000
,
00010000
00001000
00100000
00010000
01000000
00100000
10000000
00000000
,
01000000
00000000
00100000
00010000
00100000
00000000
00100000
00001000
,
00100000
00000000
00001000
00010000
00001000
00000000
00001000
00000010
,
00001000
00000000
00000010
00000001
00000010
00000100
00001000
00000000
,
00000001
00000100
00001000
00000000
00000100
00000010
00000100
00000010
,
00001000
00000000
00000000
00000100
00000000
00000000
00010000
00000000
00000000
00000000
00000000
00000000
00001000
00000000
00010000
00000000
00001000
00000000
00010000
00000000
00001000
00000000
00010000
00000000
,
00001000
00010000
00001000
00010000
00001000
00010000
00002000
00000000
00000000
00003000
00000000
00000000
,
01000000
00000000
00010000
00100000
01000000
00000000
00100000
01000000
,
10000000
00000000
00100000
00000000
01000000
00010000
01000000
00000000
,
00001000
00100000
00001000
00000000
00100000
00010000
00100000
00000000
,
00001000
00010000
00000100
00001000
00000010
00000100
00000001
00000000
,
00000010
00000000
00000100
00001000
00000100
00000000
00000100
00010000
,
00000100
00000000
00010000
00001000
00010000
00000000
00010000
01000000
,
00010000
00000000
01000000
10000000
01000000
00100000
00010000
00000000
,
10000000
00100000
00010000
00000000
00100000
01000000
00100000
01000000
,
00010000
00100000
00001000
00000000
00010000
00000010
00001000
00000100
,
00010000
00000100
00001000
00000010
00000100
00000001
00000010
00000000
,
00001000
00010000
00001000
00010000
01000000
00010000
01000000
10000000
,
00010000
00000000
10000000
00100000
00000000
00010000
00100000
00000000
,
10000000
01000000
00010000
00001000
00000010
00000001
00001000
00000000
,
00000001
00000000
00000100
00001000
00000000
00000100
00000001
00000000
,
00000010
00000100
00010000
00001000
00100000
00010000
01000000
00000000
,
00100000
00000000
00010000
00100000
00000000
10000000
00100000
00000000
,
01000000
00010000
00100000
01000000
00010000
00001000
00000010
00000000
,
00000100
00000000
00000001
00000100
00000000
00001000
00000100
00000000
,
00001000
00000001
00000100
00000010
00000100
00001000
00010000
00000000
,
00100000
00000000
01000000
00100000
00000000
10000000
00100000
00000000
,
10000000
00000000
00010000
00100000
01000000
00010000
01000000
00000000
,
00010000
00001000
00000010
00000000
00000010
00000000
00000010
00000001
,
00000100
00000000
00000010
00000000
00001000
00000001
00000100
00000010
,
00000100
00000000
00000010
00001000
00000000
00010000
01000000
00000000
,
00010000
00100000
00010000
00100000
01000000
10000000
01000000
10000000
,
01000000
00100000
00010000
00110000
00000000
00000000
00100000
00001000
,
00010000
00011000
00000000
00000000
00010000
00000010
00001010
00000000
,
00000100
00000010
00001010
00000000
00000001
00000100
00000110
00000000
,
00002002
00000000
00000000
00000000
,
00000000
00000000
00000000
00000000
,
00000000
00000000
00000000
00000000
,
00000000
00000000
00003003
00000000
,
00000002
00000000
00000203
00000000
,
00000320
00000000
00002030
00000000
,
00023000
00000000
02030000
00000000
,
03200000
00000000
20000000
00000000
,
00000000
00000000
00000000
00000000
00000000
00000000
00000000
30300000
,
00000000
00100000
00000000
10000000
00000000
10100000
00000000
00000000
,
10000000
00000000
01000000
00000000
00010000
00001000
00010000
00000000
,
00100000
00010000
00100000
00000000
00010000
00000000
00011000
00000000
,
00001100
00000000
00000100
00000010
00001000
00000000
00000110
00000000
,
00000100
00000001
00000100
00001000
00000100
00000000
00000110
00000000
,
00000001
00000100
00001000
00000000
00001000
00000000
00001000
00010000
,
00100000
00000000
00100000
00010000
00001000
00000000
00011000
00000000
,
00010000
00001000
01000000
00001000
00010000
00000000
00100000
01000000
,
00010000
00000000
10010000
00000000
00010000
00100000
01000000
00000000
,
10000000
00100000
00010000
00000000
00010000
00000000
00010000
00100000
,
10000000
00000000
10010000
00000000
01000000
00100000
00010000
00000000
,
00001000
00000000
00000010
00000100
00000001
00000000
00000010
00000100
,
00001000
00000010
00000001
00000010
00001000
00000000
00001001
00000000
,
00000110
00000000
00001000
00000100
00010000
00000000
00011000
00000000
,
00001000
00010000
00000010
00001000
00000010
00000000
00000101
00000000
,
00000110
00001010
00011000
01010000
,
00110000
01100000
11000000
10010000
,
10000000
00000000
00100000
00000000
00010000
00001000
00010000
00000000
,
01000000
00010000
00001000
00000000
00010000
00000000
00011000
00000000
,
00001010
00000000
00000100
00000010
00001000
00000000
00000110
00000000
,
00000001
00000100
00001000
00000100
00000001
00000000
00000110
00000000
,
00000001
00000100
00001000
00000000
00011000
00000000
00001000
00010000
,
01000000
00000000
00100000
00001000
00010000
00000000
00011000
00000000
,
00000100
00000010
00010000
00001000
01000000
00000000
00100000
01000000
,
00010000
00000000
10010000
00000000
00100000
00010000
01000000
00000000
,
10000000
01000000
00010000
00000000
00001000
00000000
00010000
01000000
,
10000000
00000000
01100000
00000000
01000000
00100000
00010000
00000000
,
00001000
00000000
00000100
00000010
00001000
00000000
00000001
00000010
,
00001000
00010000
00001000
00010000
00100000
00000000
01100000
00000000
,
10010000
00000000
01000000
00001000
00100000
00000000
00011000
00000000
,
00001000
00010000
00000010
00001000
00000010
00000000
00000101
00000000
,
00000010
00000110
00000000
00001000
00011000
00000000
00010000
01010000
,
00000000
00100000
01100000
00000000
11000000
00000000
10010000
00000000
,
01100000
00010000
00011000
00000000
,
00000000
00000000
00000000
00000000
;
