
//----- song ID: jetc -----//
#TITLE:Jetcoaster Windy;
#ARTIST:BEMANI Sound Team "dj TAKA" feat.のの;
#ARTISTTRANSLIT:BEMANI Sound Team "dj TAKA" feat. Nono;
#BANNER:Jetcoaster Windy.png;
#BACKGROUND:Jetcoaster Windy-bg.png;
#CDTITLE:./CDTitles/DDR A20 PLUS.png;
#MUSIC:Jetcoaster Windy.ogg;
#SAMPLESTART:32.275;
#SAMPLELENGTH:15;
#BPMS:0=268;
#NOTES:
     dance-single:
     :
     Beginner:
     3:
     :
0000
0000
0000
0000
,
0000
0000
0000
0000
,
0000
0000
0000
0000
,
0000
0000
0000
0000
,
0000
0000
0000
0000
,
0000
0000
0000
0000
,
0000
0000
0000
0000
,
0000
0000
0000
0000
,
0000
0000
0000
0000
,
0000
0000
0000
0000
,
0001
0000
0000
0000
,
0010
0000
0000
0000
,
0001
0000
0000
0000
,
0100
0000
0000
0000
,
0010
0000
0000
0000
,
1000
0000
0000
0000
,
0100
0000
0000
0000
,
0100
0000
0000
0000
,
0200
0000
0000
0000
,
0300
0000
0000
0000
,
0010
0000
0000
0000
,
0001
0000
0000
0000
,
0100
0000
0100
0000
,
0100
0000
0000
0000
,
0010
0000
0000
0000
,
1000
0000
0000
0000
,
0100
0000
0100
0000
,
0100
0000
0000
0000
,
0100
0000
0000
0000
,
0001
0000
0000
0000
,
0010
0000
0010
0000
,
0010
0000
0000
0000
,
0100
0000
0000
0000
,
1000
0000
0000
0000
,
0010
0000
0010
0000
,
0010
0000
0000
0000
,
1000
0000
0000
0000
,
0100
0000
0000
0000
,
0001
0000
0000
0000
,
0100
0000
0000
0000
,
1000
0000
0000
0000
,
0010
0000
0000
0000
,
0001
0000
0000
0000
,
0000
0000
0000
0000
,
0001
0000
0000
0000
,
0100
0000
0000
0000
,
1000
0000
0000
0000
,
0100
0000
0000
0000
,
0001
0000
0000
0000
,
0010
0000
0000
0000
,
1000
0000
0000
0000
,
0000
0000
0000
0000
,
1001
0000
0000
0000
,
0000
0000
0000
0000
,
0010
0000
0010
0000
,
0010
0000
0000
0000
,
1001
0000
0000
0000
,
0000
0000
0000
0000
,
0100
0000
0100
0000
,
0100
0000
0000
0000
,
1001
0000
0000
0000
,
0000
0000
0000
0000
,
0010
0000
0010
0000
,
0010
0000
0000
0000
,
1000
0000
0000
0000
,
0100
0000
0000
0000
,
0010
0000
0010
0000
,
0010
0000
0000
0000
,
0002
0000
0000
0000
,
0003
0000
0000
0000
,
2000
0000
0000
0000
,
3000
0000
0000
0000
,
0001
0000
0000
0000
,
0100
0000
0000
0000
,
0001
0000
0000
0000
,
0100
0000
0000
0000
,
0010
0000
0000
0000
,
1000
0000
0000
0000
,
0010
0000
0000
0000
,
0000
0000
0000
0000
,
1000
0000
0000
0000
,
0100
0000
0000
0000
,
1000
0000
0000
0000
,
0100
0000
0000
0000
,
0010
0000
0000
0000
,
0001
0000
0000
0000
,
0010
0000
0000
0000
,
0000
0000
0000
0000
,
1001
0000
0000
0000
,
0000
0000
0000
0000
,
0001
0000
0001
0000
,
0100
0000
0000
0000
,
1001
0000
0000
0000
,
0000
0000
0000
0000
,
1000
0000
1000
0000
,
0010
0000
0000
0000
,
1000
0000
1000
0000
,
1000
0000
0000
0000
,
0100
0000
0100
0000
,
0100
0000
0000
0000
,
0010
0000
0010
0000
,
0010
0000
0000
0000
,
0001
0000
0001
0000
,
0001
0000
0000
0000
,
1001
0000
0000
0000
,
0010
0000
0000
0000
,
1001
0000
0000
0000
,
0010
0000
0000
0000
,
1001
0000
0000
0000
,
0100
0000
0000
0000
,
1001
0000
0000
0000
,
0100
0000
0000
0000
,
0001
0000
0001
0000
,
0001
0000
0000
0000
,
0100
0000
0000
0000
,
0010
0000
0000
0000
,
1000
0000
1000
0000
,
1000
0000
0000
0000
,
0100
0000
0000
0000
,
0001
0000
0000
0000
,
0010
0000
0000
0000
,
1000
0000
0000
0000
,
0100
0000
0000
0000
,
0000
0000
0000
0000
,
1001
0000
0000
0000
,
0000
0000
0000
0000
;
#NOTES:
     dance-single:
     :
     Easy:
     7:
     :
0000
0000
0000
0000
,
0000
0000
0000
0000
,
0000
0000
0000
0000
,
0000
0000
0000
0000
,
0000
0000
0000
0000
,
0000
0000
0000
0000
,
0000
0000
0000
0000
,
0000
0000
0000
0000
,
0000
0000
0000
0000
,
0000
0000
0000
0000
,
0001
0000
0100
0000
,
0010
1000
0010
0000
,
1000
0000
0100
0000
,
0010
0001
0010
0000
,
0001
0000
1000
0000
,
0010
0100
0010
0000
,
1100
0000
0000
0000
,
0101
0000
0000
0000
,
2002
0000
0000
0000
,
3003
0000
0000
0000
,
0010
0000
0100
0000
,
0010
0010
0010
0000
,
1000
0000
0001
0000
,
1000
1000
1000
0000
,
0001
0000
0010
0000
,
0001
0001
0001
0000
,
0100
0000
0010
0000
,
0100
0100
0100
0000
,
0001
0000
0010
0000
,
1000
1000
1000
0000
,
0001
0000
0100
0000
,
1000
1000
1000
0000
,
1000
0000
0010
0000
,
0001
0001
0001
0000
,
1000
0000
0100
0000
,
0001
0001
0001
0000
,
0001
0000
0100
0000
,
1000
0000
0100
0000
,
0001
0000
0100
0000
,
0010
0100
0010
0000
,
1000
0000
0100
0000
,
0001
0000
0100
0000
,
1000
0000
0100
0000
,
0010
0100
0010
0000
,
0001
0000
0010
0000
,
1000
0000
0010
0000
,
0001
0000
0010
0000
,
0100
0010
0100
0000
,
1000
0000
0010
0000
,
0001
0000
0010
0000
,
1000
0000
0010
0000
,
0100
0010
0100
0000
,
0001
0000
0001
0000
,
0001
0010
0001
0000
,
1000
0000
1000
0000
,
1000
0010
1000
0000
,
0010
0000
0010
0000
,
0010
0100
0010
0000
,
0100
0000
0100
0000
,
0100
0010
0100
0000
,
0001
0000
0001
0000
,
0100
0001
0100
0000
,
1000
0000
1000
0000
,
0010
1000
0010
0000
,
1000
0001
1000
0000
,
1001
0000
0000
0000
,
0001
1000
0001
0000
,
1001
0000
0000
0000
,
0020
0000
0000
0000
,
0030
0000
1001
0000
,
0200
0000
0000
0000
,
0300
0000
1001
0000
,
0010
0000
1000
0000
,
0001
0100
0010
0000
,
1000
0000
1000
0000
,
0100
0010
0001
0000
,
0100
0000
0001
0000
,
1000
0001
0100
0000
,
0010
0000
0010
0000
,
0100
0001
0010
0000
,
1000
0000
0001
0000
,
0100
0001
0010
0000
,
0100
0000
0100
0000
,
1000
0001
0010
0000
,
0001
0000
1000
0000
,
0010
1000
0100
0000
,
0010
0000
0010
0000
,
0100
1000
0001
0000
,
2000
0000
0100
0000
,
0100
0000
3100
0000
,
1000
0010
1000
0000
,
0100
0000
0010
0000
,
0002
0000
0100
0000
,
0100
0000
0103
0000
,
0001
0010
0001
0000
,
0100
0000
0010
0000
,
0010
0000
1000
0000
,
0100
0001
0010
0000
,
0010
0000
0001
0000
,
0100
1000
0010
0000
,
1000
0000
1000
0000
,
0001
0000
0001
0000
,
0100
0001
0100
0000
,
0010
1000
0010
0000
,
1000
0000
1000
0000
,
0001
0000
0100
0000
,
0010
0000
0010
0000
,
1000
0000
0001
0000
,
0010
0000
0010
0000
,
0100
0000
1000
0000
,
0001
0000
0001
0000
,
0100
0000
0010
0000
,
0000
0000
0010
0000
,
1000
0000
1000
0000
,
0001
0000
0100
0000
,
0001
0000
0010
0000
,
0100
0000
1000
0000
,
0010
0000
1000
0000
,
1010
0000
0000
0000
,
0011
0000
0000
0000
,
1010
0000
0000
0000
,
0011
0000
0000
0000
,
0220
0000
0000
0000
,
0330
0000
0000
0000
,
2002
0000
0000
0000
,
0000
0000
0000
0000
,
0000
0000
0000
0000
,
0000
0000
0000
0000
,
0000
0000
0000
0000
,
0000
0000
0000
0000
,
0000
0000
0000
0000
,
0000
0000
0000
0000
,
0000
0000
0000
0000
,
0000
0000
0000
0000
,
0000
0000
0000
0000
,
0000
0000
0000
0000
,
0000
0000
0000
0000
,
3003
0000
0000
0000
,
0000
0000
0000
0000
;
#NOTES:
     dance-single:
     :
     Medium:
     12:
     :
0000
0000
0000
0000
,
0000
0000
0000
0000
,
0000
0000
0000
0000
,
0000
0000
0000
0000
,
0000
0000
0000
0000
,
0000
0000
0000
0000
,
0000
0000
0000
0000
,
0000
0000
0000
0000
,
0000
0000
0000
0000
,
0000
0000
0000
0000
,
0000
0000
0001
0000
1000
0100
0000
1000
,
0000
0010
0100
0010
,
1000
0000
0000
0100
0000
0010
0000
0200
,
0000
0300
0100
0001
,
1000
0000
0000
0010
0000
0100
0000
0010
,
0000
0010
1000
0001
,
0002
0000
0000
0013
0000
0000
0010
0000
,
2000
0000
0000
3010
0000
0000
0010
0000
,
2002
0000
0000
0000
,
0000
0000
0000
3003
,
0000
0001
0100
0010
,
0000
1000
0100
0010
,
0000
0001
0100
0010
,
0000
1000
0100
0010
,
0000
0001
1000
0010
,
0000
1000
0001
0010
,
0000
0001
1000
0010
,
0000
1000
0001
0100
,
0000
0010
1000
0100
,
0000
0010
0001
0100
,
0000
0010
1000
0100
,
0000
0010
0001
0100
,
0000
0001
0010
1000
,
0000
1000
0010
0001
,
0000
1000
0100
0001
,
0000
0001
0100
1000
,
0001
0100
0001
0010
,
0100
0000
1000
0000
0001
1000
0001
0000
,
1000
0100
0001
0100
,
1000
0010
0100
0010
,
1000
0001
0100
0010
,
1000
0000
0001
0000
0100
0010
0100
0000
,
0001
0100
1000
0100
,
0001
1000
0001
0001
,
1000
0010
1000
0100
,
0010
0000
0001
0000
1000
0001
1000
0000
,
0001
0010
1000
0010
,
0001
0100
0010
0100
,
0001
1000
0010
0100
,
0001
0000
1000
0000
0010
0100
0010
0000
,
1000
0010
0001
0010
,
1000
0001
1000
1000
,
0010
1000
0010
1000
,
0001
0000
0100
0000
0001
0100
0001
0000
,
0010
0001
0010
0001
,
1000
0000
0100
0000
1000
0100
1000
0000
,
0001
1000
0001
1000
,
0010
0000
0100
0000
0010
0100
0010
0000
,
0100
0010
0100
0010
,
1000
0000
0001
0000
1000
0001
1000
0000
,
0001
0100
0010
1000
,
0001
0000
0010
0000
0100
1000
0100
0000
,
1000
0001
0100
0010
,
1000
0000
0010
0000
0100
0001
0100
0000
,
0001
0000
1000
0001
0000
1000
0000
0002
,
0000
0010
0013
0000
,
1000
0000
0001
1000
0000
0001
0000
2000
,
0000
0010
3010
0000
,
1000
0010
0000
1000
0010
0000
0100
0000
,
0000
0100
0100
0000
,
0001
0010
0000
0001
0010
0000
0100
0000
,
0000
0100
0100
0000
,
1000
0010
0100
0001
,
0100
1000
0100
0001
,
1000
0010
1000
0100
,
0010
0000
0001
0000
1000
0001
1000
0000
,
0001
0100
0001
0010
,
0100
1000
0010
1000
,
0100
0001
0100
1000
,
0001
0001
0001
0000
,
0001
0010
0100
1000
,
0100
0001
0100
1000
,
0001
0010
0001
0100
,
0010
0000
1000
0000
0001
1000
0001
0000
,
1000
0100
1000
0010
,
0100
0001
0010
0001
,
0100
1000
0100
0001
,
1000
1000
1000
0000
,
0010
0100
0010
1000
,
0001
0010
0001
1000
,
0100
0010
0100
0000
0010
0100
0010
0000
,
0001
0010
0100
1000
,
0010
0000
1000
0010
0000
1000
0010
0000
,
0100
0000
0001
0100
0000
0001
0100
0000
,
0001
0100
1000
0100
,
0001
1000
0000
1000
0000
1000
0001
0000
,
1000
0100
0010
0000
0001
0000
1000
0000
,
0010
1000
0001
0000
0100
0000
0001
0000
,
1000
0100
0010
0000
0100
0000
1000
0000
,
0001
1000
0001
1000
0001
0000
0000
0000
,
0001
0010
0100
0000
1000
0000
0001
0000
,
0100
0001
1000
0000
0010
0000
1000
0000
,
0001
0010
0100
0000
0010
0000
0001
0000
,
1000
0001
1000
0001
1000
0000
0000
0000
,
1000
0000
0000
0010
0000
0100
0000
0010
,
0000
0010
0100
0000
,
0001
0000
0000
0010
0000
0100
0000
0010
,
0000
0010
0100
0000
,
0100
0000
0000
1000
0000
0001
0000
1000
,
0000
1000
0001
0000
,
0100
0000
0000
0001
0000
1000
0000
0001
,
0000
0001
1000
0001
,
0000
0000
0001
0000
1000
0010
0000
0100
,
0000
0010
1000
0001
,
0010
0000
0000
0001
0000
0100
0000
0010
,
0000
0010
1000
0010
,
0100
0000
0000
0001
0000
1000
0000
0100
,
0000
0100
0010
0100
,
2000
0000
0000
3100
0000
0000
0100
0000
,
0002
0000
0000
0103
0000
0000
0100
0000
,
0020
0000
0000
1030
0000
0000
1000
0000
,
0200
0000
0000
0301
0000
0000
0001
0000
,
0020
0000
0000
0000
,
0200
0000
0000
0330
,
2002
0000
0000
0000
,
0000
0000
0000
0000
,
0000
0000
0000
0000
,
0000
0000
0000
0000
,
0000
0000
0000
0000
,
0000
0000
0000
0000
,
0000
0000
0000
0000
,
0000
0000
0000
0000
,
0000
0000
0000
0000
,
0000
0000
0000
0000
,
0000
0000
0000
0000
,
0000
0000
0000
0000
,
0000
0000
0000
0000
,
3003
0000
0000
0000
,
0000
0000
0000
0000
;
#NOTES:
     dance-single:
     :
     Hard:
     15:
     :
0000
0000
0000
0000
,
0000
0000
0000
0000
,
0000
0000
0000
0000
,
0000
0000
0000
0000
,
0000
0000
0000
0000
,
0000
0000
0000
0000
,
0000
0000
0000
0000
,
0000
0000
0000
0000
,
0000
0000
0000
0000
,
0000
0000
0000
0000
,
0000
0000
1001
0000
1000
0010
0000
0100
,
0000
0010
0100
0000
0001
0000
1000
0000
,
0100
0000
0010
0001
0000
1000
0000
0100
,
0000
1000
0001
0000
0100
0000
0001
0000
,
1000
0000
0010
0100
0000
0010
0000
0100
,
0000
0001
1000
0000
0100
0000
0010
0000
,
0001
1000
0001
1000
0000
0001
0000
0001
,
0100
0010
0100
0010
0000
0010
0000
0010
,
0200
0000
0000
0300
,
0001
1000
0001
1000
0001
1000
0001
1000
,
0001
1010
0001
1100
,
0001
1010
0001
1100
,
0001
1010
0001
1100
,
0001
1010
0001
1100
,
1000
0011
1000
0101
,
1000
0011
1000
0101
,
1000
0011
1000
0101
,
1000
0011
1000
0101
,
0010
1001
0100
1001
,
0010
1001
0100
1001
,
0010
1001
0100
1001
,
0010
1001
0100
1001
,
1000
0110
0001
0110
,
1000
0110
0001
0110
,
1000
0110
0001
0110
,
1000
0110
0001
0110
,
0001
0000
1000
0010
0000
0100
0010
0100
,
0010
0000
1000
0100
0000
0010
0001
0010
,
0001
0000
0100
0010
0000
1000
0001
1000
,
0001
0000
0010
0100
0000
1000
0010
1000
,
0010
0000
0100
0010
0000
0100
0001
0100
,
0001
0000
1000
0100
0000
1000
0010
1000
,
0010
0000
0100
0001
0000
0010
0001
0010
,
0002
0000
0023
0000
0130
1000
0000
0000
,
1000
0000
0010
0100
0000
0001
0010
0001
,
1000
0000
0100
0010
0000
0100
1000
0001
,
1000
0000
0010
0100
0000
0010
1000
0001
,
1000
0000
0010
0100
0000
0001
0010
0100
,
1000
0000
0001
0100
0000
0001
0010
0100
,
0010
0000
0001
0100
0000
0010
1000
0001
,
0100
0000
0001
1000
0000
0100
0010
0100
,
2000
0000
3020
0000
0130
0001
0000
0000
,
0001
0010
0001
0000
0001
0010
0001
0000
,
0001
0010
0001
0000
0001
0100
0010
0000
,
1000
0010
1000
0000
1000
0010
1000
0000
,
1000
0010
1000
0000
1000
0010
0100
0000
,
0010
1000
0010
0000
0010
0100
0010
0000
,
0010
1000
0010
0000
0010
0100
0001
0000
,
0100
0010
0100
0000
0100
0001
0100
0000
,
0100
0010
0100
0000
0001
1000
0001
1000
,
0001
0100
0010
0000
0010
1000
0001
0000
,
0001
0010
0100
0000
0100
1000
0001
0000
,
0001
0100
1000
0000
1000
0100
0001
0000
,
0001
0100
0010
0000
0010
1000
0001
0000
,
1000
0000
0010
0100
0000
0001
0010
0100
,
1000
0000
0010
0100
0000
0001
0010
0100
,
1000
0000
1000
0010
0000
1000
0100
0010
,
0001
0000
0100
0010
0000
1000
0100
0010
,
0001
0010
0000
0010
1000
0000
1000
0000
,
0000
0100
0010
0001
,
1000
0100
0000
0100
0001
0000
0001
0000
,
0000
0000
0100
0010
0100
0000
0010
0000
,
0001
0000
1000
0010
0000
0010
0100
0010
,
0100
0000
0001
0010
0000
0010
0100
0010
,
0100
0000
1000
0010
0000
0010
0100
0010
,
0100
0000
0001
1000
0000
1000
0001
0000
,
0100
0000
0010
1000
0000
1000
0001
0100
,
0001
0000
0010
0001
0000
0001
1000
0100
,
1000
0000
0010
0100
0000
0010
0100
0010
,
1000
0000
0100
0000
0001
0100
0000
0000
,
1000
0000
0001
0010
0000
0010
0100
0010
,
0100
0000
1000
0010
0000
0010
0100
0010
,
0100
0000
0001
0010
0000
0010
0100
0010
,
0100
0000
1000
0001
0000
0001
1000
0000
,
0100
0000
0010
0001
0000
0001
1000
0100
,
1000
0000
0010
1000
0000
1000
0001
0100
,
0001
0000
0010
0100
0000
0010
0100
0010
,
0001
0000
0100
0000
1000
0100
0000
0000
,
0001
0000
0010
0000
0100
1000
0100
0000
,
1000
0000
0010
0000
0100
0001
0100
0000
,
0001
0100
0001
0100
0010
1000
0010
1000
,
0100
1000
0100
1000
0001
0010
0001
0000
,
1000
0100
0010
0100
0000
0100
1000
0001
,
0100
0010
1000
0010
0000
0010
1000
0001
,
1000
0100
0010
0100
1000
0100
0010
0001
,
1000
0001
0000
0001
0000
1000
0001
0000
,
1000
0010
1000
0010
0100
0001
0100
0001
,
0100
0010
0100
0010
1000
0001
1000
0001
,
1000
0100
0010
0000
0100
0010
0001
0000
,
1000
0100
0010
0001
0010
0100
1000
0000
,
0001
0100
0001
0100
0010
1000
0010
1000
,
0010
0100
0010
0100
0001
1000
0001
1000
,
0001
0010
0100
0000
0010
0100
1000
0000
,
0001
0010
0100
1000
0100
0010
0001
0000
,
1000
0000
0010
0100
0000
0010
0000
0100
,
0000
0001
1000
0000
0001
0000
0100
0000
,
1000
0000
0100
0001
0000
0100
0000
0001
,
0000
0010
0001
0000
1000
0000
0010
0000
,
0001
0000
0010
1000
0000
0010
0000
1000
,
0000
0001
0100
0000
0010
0000
1000
0000
,
0100
0000
0001
0100
0000
1000
0000
0100
,
0000
0001
0100
0000
1000
0000
0001
0000
,
0000
0000
1001
0000
0010
0100
0000
1000
,
0000
0001
1000
0000
0010
0000
0100
0000
,
1000
0000
0100
0010
0000
1000
0000
0100
,
0000
0010
0001
0000
1000
0000
0100
0000
,
0010
0000
0100
0001
0000
0100
0000
0010
,
0000
0001
1000
0000
0001
0000
0100
0000
,
0001
0100
0001
0100
0000
0001
0000
0100
,
0010
1000
0010
1000
0000
0010
0000
1000
,
0100
1000
0100
1000
0000
0100
0000
1000
,
0001
0010
0001
0010
0000
0001
0000
0010
,
0200
0000
0000
0000
,
0000
0000
0000
0300
,
2002
0000
0000
0000
,
0000
0000
0000
0000
,
0000
0000
0000
0000
,
0000
0000
0000
0000
,
0000
0000
0000
0000
,
0000
0000
0000
0000
,
0000
0000
0000
0000
,
0000
0000
0000
0000
,
0000
0000
0000
0000
,
0000
0000
0000
0000
,
0000
0000
0000
0000
,
0000
0000
0000
0000
,
0000
0000
0000
0000
,
3003
0000
0000
0000
,
0000
0000
0000
0000
;
#NOTES:
     dance-double:
     :
     Easy:
     7:
     :
00000000
00000000
00000000
00000000
,
00000000
00000000
00000000
00000000
,
00000000
00000000
00000000
00000000
,
00000000
00000000
00000000
00000000
,
00000000
00000000
00000000
00000000
,
00000000
00000000
00000000
00000000
,
00000000
00000000
00000000
00000000
,
00000000
00000000
00000000
00000000
,
00000000
00000000
00000000
00000000
,
00000000
00000000
00000000
00000000
,
00000001
00000000
00000100
00000000
,
00000001
00000010
00000001
00000000
,
00000100
00000000
00001000
00000000
,
00010000
00001000
00010000
00000000
,
00001000
00000000
00100000
00000000
,
00010000
01000000
00010000
00000000
,
00110000
00000000
00000000
00000000
,
10100000
00000000
00000000
00000000
,
20020000
00000000
00000000
00000000
,
30030000
00000000
00000000
00000000
,
00100000
00000000
00001000
00000000
,
00010000
00010000
00010000
00000000
,
00000010
00000000
00010000
00000000
,
00001000
00001000
00001000
00000000
,
01000000
00000000
00001000
00000000
,
00010000
00010000
00010000
00000000
,
00000100
00000000
00010000
00000000
,
00001000
00001000
00001000
00000000
,
00000010
00000000
00000001
00000000
,
00000100
00000100
00000100
00000000
,
00000010
00000000
00010000
00000000
,
00001000
00001000
00001000
00000000
,
00100000
00000000
00010000
00000000
,
01000000
01000000
01000000
00000000
,
00010000
00000000
00100000
00000000
,
00001000
00001000
00001000
00000000
,
00001000
00000000
00000010
00000000
,
00000001
00000000
00000010
00000000
,
00001000
00000000
00010000
00000000
,
00001000
00010000
00001000
00000000
,
00010000
00000000
00100000
00000000
,
10000000
00000000
00100000
00000000
,
00010000
00000000
00001000
00000000
,
00010000
00001000
00010000
00000000
,
00001000
00000000
00000100
00000000
,
00000001
00000000
00000100
00000000
,
00001000
00000000
00010000
00000000
,
00001000
00010000
00001000
00000000
,
00010000
00000000
01000000
00000000
,
10000000
00000000
01000000
00000000
,
00010000
00000000
00001000
00000000
,
00010000
00001000
00010000
00000000
,
00000200
00000000
00000010
00000000
,
00000010
00000000
00000310
00000000
,
00000001
00000000
00001000
00000000
,
00000100
00000000
00010000
00000000
,
00001000
00000000
00100000
00000000
,
00001000
00000000
01000000
00000000
,
00010000
00000000
01000000
00000000
,
00100000
00000000
00000000
00000000
,
02000000
00000000
00100000
00000000
,
00100000
00000000
03100000
00000000
,
10000000
00000000
00010000
00000000
,
01000000
00000000
00001000
00000000
,
00010000
00001000
00010000
00001000
,
00020000
00000000
00030000
00000000
,
00001000
00010000
00001000
00010000
,
00002000
00000000
00003000
00000000
,
00000010
00000000
00000001
00000000
,
00000010
00000000
00000100
00000000
,
00010000
00000000
00001000
00000000
,
00100000
00000000
00010000
00000000
,
10000000
00000000
01000000
00000000
,
10000000
00100000
10000000
00000000
,
01000000
00000000
00100000
00000000
,
00001000
00000000
00010000
00000000
,
00001000
00000000
01000000
00000000
,
00001000
00010000
00001000
00000000
,
00010000
00000000
00010000
00000000
,
00000100
00000000
00000010
00000000
,
00000001
00000000
00000010
00000000
,
00000001
00000100
00000001
00000000
,
00000010
00000000
00000100
00000000
,
00010000
00000000
00001000
00000000
,
00010000
00000000
00000010
00000000
,
00010000
00001000
00010000
00000000
,
00001000
00000000
00001000
00000000
,
00100000
00000000
00010000
00000000
,
10000000
00100000
10000000
00000000
,
01000000
10000000
01000000
00000000
,
00100000
00000000
00001000
00000000
,
00010000
00000000
00010000
00000000
,
00000100
00001000
00000100
00000000
,
00001000
00000010
00001000
00000000
,
00000001
00000000
00000100
00000000
,
00000001
00000000
00000000
00000000
,
00000100
00000000
00000100
00000000
,
00001000
00000000
00001000
00000000
,
00010000
00000000
00010000
00000000
,
00100000
01000000
00100000
00000000
,
10000000
00000000
10000000
00000000
,
01000000
00000000
01000000
00000000
,
00100000
00001000
00100000
00000000
,
00001000
00010000
00001000
00000000
,
00010000
00000000
00010000
00000000
,
00000010
00000000
00001000
00000000
,
00000001
00000000
00000001
00000000
,
00000100
00000000
00000010
00000000
,
00001000
00000000
00001000
00000000
,
00000100
00000000
00010000
00000000
,
00001000
00000000
00001000
00000000
,
00010000
00000000
00001000
00000000
,
00000000
00000000
00001000
00000000
,
00100000
00000000
00010000
00000000
,
01000000
00000000
00010000
00000000
,
00100000
00000000
01000000
00000000
,
10000000
00000000
01000000
00000000
,
00010000
00000000
00001000
00000000
,
00011000
00000000
00000000
00000000
,
00001100
00000000
00000000
00000000
,
00011000
00000000
00000000
00000000
,
01010000
00000000
00000000
00000000
,
00022000
00000000
00000000
00000000
,
00033000
00000000
00000000
00000000
,
00022000
00000000
00000000
00000000
,
00000000
00000000
00000000
00000000
,
00000000
00000000
00000000
00000000
,
00000000
00000000
00000000
00000000
,
00000000
00000000
00000000
00000000
,
00000000
00000000
00000000
00000000
,
00000000
00000000
00000000
00000000
,
00000000
00000000
00000000
00000000
,
00000000
00000000
00000000
00000000
,
00000000
00000000
00000000
00000000
,
00000000
00000000
00000000
00000000
,
00000000
00000000
00000000
00000000
,
00000000
00000000
00000000
00000000
,
00033000
00000000
00000000
00000000
,
00000000
00000000
00000000
00000000
;
#NOTES:
     dance-double:
     :
     Medium:
     12:
     :
00000000
00000000
00000000
00000000
,
00000000
00000000
00000000
00000000
,
00000000
00000000
00000000
00000000
,
00000000
00000000
00000000
00000000
,
00000000
00000000
00000000
00000000
,
00000000
00000000
00000000
00000000
,
00000000
00000000
00000000
00000000
,
00000000
00000000
00000000
00000000
,
00000000
00000000
00000000
00000000
,
00000000
00000000
00000000
00000000
,
00000000
00000000
00000001
00000000
00000010
00000001
00000000
00000100
,
00000000
00000010
00001000
00000010
,
00000100
00000000
00000000
00001000
00000000
00010000
00000000
00002000
,
00000000
00003000
00001000
00100000
,
00010000
00000000
00000000
01000000
00000000
00100000
00000000
01000000
,
00000000
00100000
10000000
00100000
,
20000000
00000000
00000000
31000000
00000000
00000000
01000000
00000000
,
00200000
00000000
00000000
00301000
00000000
00000000
00001000
00000000
,
00020000
00000000
00000000
00000000
,
00000000
00000000
00000000
00030000
,
00000000
00000010
00001000
00000100
,
00000000
00000010
00000001
00000100
,
00000000
00000010
00001000
00000100
,
00000000
00010000
00001000
01000000
,
00000000
00100000
10000000
01000000
,
00000000
00100000
00010000
01000000
,
00000000
00100000
10000000
01000000
,
00000000
00100000
00001000
00010000
,
00000000
00000100
00001000
00000010
,
00000000
00000100
00000001
00000010
,
00000000
00000100
00001000
00000010
,
00000000
00000100
00001000
00010000
,
00000000
01000000
10000000
00100000
,
00000000
01000000
00010000
00100000
,
00000000
01000000
10000000
00100000
,
00000000
01000000
00010000
00100000
,
00001000
00010000
00000100
00001000
,
00000010
00000000
00001000
00000000
00000001
00001000
00000001
00000000
,
00000010
00000001
00000100
00001000
,
00000100
00000010
00010000
00001000
,
00100000
00001000
00010000
00001000
,
01000000
00000000
00010000
00000000
00100000
01000000
00100000
00000000
,
00010000
10000000
00100000
00010000
,
00100000
10000000
00010000
00010000
,
10000000
01000000
00100000
01000000
,
00100000
00000000
00001000
00000000
00010000
00001000
00010000
00000000
,
00000010
00001000
00000100
00000001
,
00000100
00001000
00000010
00000100
,
00000001
00001000
00000010
00000100
,
00001000
00000000
00010000
00000000
00001000
00010000
00001000
00000000
,
01000000
00010000
00100000
10000000
,
00100000
00010000
10000000
10000000
,
01000000
00100000
01000000
00100000
,
00010000
00000000
00100000
00000000
00001000
00100000
00001000
00000000
,
00010000
00000100
00010000
00000100
,
00001000
00000000
00000100
00000000
00000010
00000100
00000010
00000000
,
00000001
00001000
00000001
00001000
,
00000001
00000000
00000100
00000000
00000010
00000100
00000010
00000000
,
00001000
00000010
00001000
00000010
,
00010000
00000000
00001000
00000000
00010000
00001000
00010000
00000000
,
00001000
01000000
00001000
01000000
,
00010000
00000000
00100000
00000000
00010000
00100000
00010000
00000000
,
10000000
01000000
10000000
01000000
,
00100000
00000000
00010000
00000000
01000000
00010000
01000000
00000000
,
00010000
00000000
00100000
00001000
00000000
00010000
00000000
00002000
,
00000000
00010000
00013000
00000000
,
00000010
00000000
00001000
00000010
00000000
00010000
00000000
00002000
,
00000000
00010000
00013000
00000000
,
01000000
10000000
00000000
01000000
10000000
00000000
00100000
00000000
,
00000000
01000000
01000000
00000000
,
00001000
00010000
00000000
00001000
00010000
00000000
00000100
00000000
,
00000000
00000010
00000010
00000000
,
00000001
00000010
00000100
00001000
,
00000010
00000100
00001000
00010000
,
00100000
01000000
00010000
00100000
,
01000000
00000000
10000000
00000000
00010000
10000000
00010000
00000000
,
10000000
01000000
00100000
00010000
,
01000000
00100000
00010000
00001000
,
00000100
00000010
00001000
00000100
,
00000010
00000001
00000001
00000000
,
00000001
00000100
00000010
00001000
,
00000100
00000010
00001000
00010000
,
01000000
00100000
00010000
01000000
,
00100000
00000000
10000000
00000000
00010000
10000000
00010000
00000000
,
10000000
00100000
01000000
00010000
,
00100000
01000000
00010000
00001000
,
00000010
00000100
00001000
00000010
,
00000100
00000001
00000001
00000000
,
00000100
00000010
00000100
00000010
,
00001000
00000010
00010000
00000010
,
00010000
00001000
00010000
00000000
00001000
00010000
00001000
00000000
,
00100000
00010000
00100000
01000000
,
10000000
00000000
00010000
10000000
00000000
00010000
10000000
00000000
,
01000000
00000000
00100000
01000000
00000000
00100000
01000000
00000000
,
00100000
00001000
00010000
00001000
,
00010000
00000100
00000000
00000100
00000000
00010000
00000100
00000000
,
00001000
00000100
00000010
00000000
00000001
00000000
00001000
00000000
,
00000001
00000100
00000010
00000000
00001000
00000000
00000100
00000000
,
00010000
00001000
00100000
00000000
00010000
00000000
00100000
00000000
,
01000000
00100000
01000000
00100000
01000000
00000000
00000000
00000000
,
10000000
00100000
01000000
00000000
00010000
00000000
00100000
00000000
,
00001000
00010000
00000100
00000000
00001000
00000000
00000010
00000000
,
00000100
00000001
00001000
00000000
00000001
00000000
00000010
00000000
,
00000100
00001000
00000100
00000000
00010000
00000000
00001000
00000000
,
00100000
00000000
00000000
00010000
00000000
01000000
00000000
00010000
,
00000000
00010000
00100000
01000000
,
10000000
00000000
00000000
00100000
00000000
01000000
00000000
00100000
,
00000000
00100000
01000000
00010000
,
00100000
00000000
00000000
00001000
00000000
00010000
00000000
00001000
,
00000000
00001000
00010000
00000100
,
00001000
00000000
00000000
00000010
00000000
00000100
00000000
00000010
,
00000000
00000010
00000100
00000001
,
00000000
00000000
00000001
00000000
00000100
00000010
00000000
00001000
,
00000000
00000100
00010000
00001000
,
00010000
00000000
00000000
01000000
00000000
00100000
00000000
00010000
,
00000000
01000000
10000000
01000000
,
00010000
00000000
00000000
00100000
00000000
01000000
00000000
00100000
,
00000000
00100000
00001000
00010000
,
00002000
00000000
00000000
00003010
00000000
00000000
00000010
00000000
,
00000002
00000000
00000000
00001003
00000000
00000000
00001000
00000000
,
00000002
00000000
00000000
00000103
00000000
00000000
00000100
00000000
,
00002000
00000000
00000000
00013000
00000000
00000000
00010000
00000000
,
00002000
00000000
00000000
00000000
,
00000000
00000000
00000000
00003000
,
00022000
00000000
00000000
00000000
,
00000000
00000000
00000000
00000000
,
00000000
00000000
00000000
00000000
,
00000000
00000000
00000000
00000000
,
00000000
00000000
00000000
00000000
,
00000000
00000000
00000000
00000000
,
00000000
00000000
00000000
00000000
,
00000000
00000000
00000000
00000000
,
00000000
00000000
00000000
00000000
,
00000000
00000000
00000000
00000000
,
00000000
00000000
00000000
00000000
,
00000000
00000000
00000000
00000000
,
00000000
00000000
00000000
00000000
,
00033000
00000000
00000000
00000000
,
00000000
00000000
00000000
00000000
;
#NOTES:
     dance-double:
     :
     Hard:
     15:
     :
00000000
00000000
00000000
00000000
,
00000000
00000000
00000000
00000000
,
00000000
00000000
00000000
00000000
,
00000000
00000000
00000000
00000000
,
00000000
00000000
00000000
00000000
,
00000000
00000000
00000000
00000000
,
00000000
00000000
00000000
00000000
,
00000000
00000000
00000000
00000000
,
00000000
00000000
00000000
00000000
,
00000000
00000000
00000000
00000000
,
00000000
00000000
00011000
00000000
00010000
00100000
00000000
01000000
,
00000000
00100000
01000000
00000000
00010000
00000000
10000000
00000000
,
01000000
00000000
00100000
00010000
00000000
00100000
00000000
00001000
,
00000000
00010000
00001000
00000000
00010000
00000000
00010000
00000000
,
00000100
00000000
00001000
00000010
00000000
00001000
00000000
00000010
,
00000000
00000100
00000001
00000000
00001000
00000000
00000001
00000000
,
00000010
00000001
00000010
00000001
00000000
00001000
00000000
00001000
,
00000100
00010000
00000100
00010000
00000000
00001000
00000000
00001000
,
00020000
00000000
00000000
00030000
,
00001000
00010000
00100000
10000000
,
00000000
10100000
00000000
01010000
,
00000000
10100000
00000000
01010000
,
00000000
11000000
00000000
00110000
,
00000000
11000000
00000000
00110000
,
00000000
01001000
00000000
00110000
,
00000000
01001000
00000000
00110000
,
00000000
00011000
00000000
00001010
,
00000000
00011000
00000000
00001010
,
00000000
00000101
00000000
00001010
,
00000000
00000101
00000000
00001010
,
00000000
00000011
00000000
00001100
,
00000000
00000011
00000000
00001100
,
00000000
00010010
00000000
00001100
,
00000000
00010010
00000000
00001100
,
00000000
00011000
00000000
01010000
,
00000000
00011000
00000000
01010000
,
00010000
00000000
01000000
00000000
00100000
10000000
00100000
00000000
,
10000000
00000000
01000000
00000000
00100000
00010000
00100000
00000000
,
00001000
00000000
00010000
00000000
00000100
00001000
00000100
00000000
,
00000010
00000000
00000001
00000000
00001000
00000001
00001000
00000000
,
00000001
00000000
00000100
00000000
00000010
00001000
00000010
00000000
,
00001000
00000000
00000100
00000000
00010000
00001000
00010000
00000000
,
00001000
00000000
00100000
00000000
00010000
01000000
00010000
00000000
,
00100000
01000000
00100000
00000000
01000000
10000000
00010000
00000000
,
10000000
00000000
00100000
00000000
10000000
01000000
00100000
00000000
,
00010000
00000000
01000000
00000000
00010000
00100000
00001000
00000000
,
00010000
00000000
00001000
00000000
00010000
00000010
00001000
00000000
,
00000010
00000000
00000100
00000000
00000001
00000010
00000100
00000000
,
00001000
00000000
00000010
00000000
00000100
00000001
00000100
00000000
,
00000010
00000000
00001000
00000000
00000001
00000010
00000100
00000000
,
00001000
00000000
00000100
00000000
00010000
00001000
00010000
00000000
,
00001000
01000000
00010000
00000000
00100000
00010000
01000000
00000000
,
00100000
10000000
00100000
00000000
10000000
00100000
10000000
00000000
,
01000000
00100000
01000000
00100000
00010000
00100000
00010000
00000000
,
00100000
00001000
00100000
00000000
00001000
00100000
00001000
00000000
,
00010000
00001000
00010000
00001000
00010000
00000100
00010000
00000000
,
00000100
00001000
00000100
00000000
00001000
00000100
00001000
00000000
,
00000010
00000100
00000010
00000100
00000001
00000100
00000001
00000000
,
00000010
00000001
00000010
00000000
00000001
00000010
00000001
00000000
,
00000010
00000100
00000010
00000100
00001000
00000100
00001000
00000000
,
00000100
00010000
00000100
00000000
00010000
00001000
00010000
00000000
,
00001000
01000000
00001000
00000000
00100000
00010000
00100000
00000000
,
01000000
10000000
01000000
00000000
10000000
00010000
10000000
00000000
,
00010000
00100000
00010000
00100000
00001000
00010000
00001000
00000000
,
00010000
00000000
00000010
00001000
00000000
00000010
00000000
00001000
,
00000010
00000000
00000100
00000001
00000000
00000100
00000000
00000001
,
00000010
00000000
00000100
00010000
00000000
00000100
00000000
00010000
,
00001000
00000000
00100000
00010000
00100000
00000000
00010000
00000000
,
00100000
01000000
00000000
01000000
10000000
00000000
00010000
00000000
,
00000000
01000000
00001000
00010000
,
00000100
00001000
00000000
00001000
00000010
00000000
00000100
00000000
,
00000000
00000000
00000001
00001000
00000001
00000000
00001000
00000000
,
00000010
00000000
00000100
00000001
00000000
00000001
00001000
00000001
,
00001000
00000000
00001000
00000100
00000000
00000100
00010000
00000100
,
00010000
00000000
00010000
00001000
00000000
00001000
01000000
00001000
,
01000000
00000000
01000000
00010000
00000000
00010000
10000000
00000000
,
10010000
00000000
00100000
10000000
00000000
10000000
00010000
10000000
,
00010000
00000000
00010000
00100000
00000000
00100000
00001000
00100000
,
00001000
00000000
00001000
00010000
00000000
00010000
00000010
00010000
,
00000010
00000000
00001000
00000000
00000001
00001000
00000000
00000000
,
00001001
00000000
00000001
00000100
00000000
00000010
00001000
00000010
,
00001000
00000000
00000100
00010000
00000000
00001000
00010000
00001000
,
00010000
00000000
00001000
00100000
00000000
00010000
01000000
00010000
,
01000000
00000000
00100000
10000000
00000000
00010000
10000000
00000000
,
10010000
00000000
10000000
00100000
00000000
01000000
00010000
01000000
,
00010000
00000000
00100000
00001000
00000000
00010000
00001000
00010000
,
00001000
00000000
00010000
00000100
00000000
00001000
00000010
00001000
,
00000010
00000000
00000100
00000000
00000001
00001000
00000000
00000000
,
00000010
00000100
00000010
00000000
00001000
00000000
00000100
00000000
,
00010000
00001000
00010000
00000000
00001000
00000000
01000000
00000000
,
00010000
00100000
00010000
00100000
01000000
00100000
01000000
00000000
,
10000000
00100000
10000000
00100000
01000000
00100000
01000000
00000000
,
00010000
00100000
00010000
00100000
00000000
00001000
00010000
00000000
,
00000100
00001000
00000100
00001000
00000000
00000010
00000100
00000000
,
00000001
00000010
00000100
00000010
00000001
00001000
00000100
00001000
,
00000100
00010000
00000000
00010000
00000000
00001000
00010000
00000000
,
00001000
01000000
00001000
01000000
00010000
00100000
00010000
00100000
,
01000000
10000000
01000000
10000000
00100000
01000000
00100000
00000000
,
01000000
00010000
00100000
00000000
00010000
00100000
00001000
00000000
,
00010000
00000100
00001000
00000100
00000010
00000001
00001000
00000000
,
00000001
00000100
00000001
00000100
00000010
00001000
00000010
00001000
,
00000100
00010000
00000100
00010000
00001000
00010000
00001000
00000000
,
00100000
00010000
01000000
00000000
00010000
01000000
00100000
00000000
,
10000000
01000000
00100000
01000000
00100000
00010000
00100000
00000000
,
00001000
00000000
00010000
00001000
00000000
00010000
00000000
00000010
,
00000000
00001000
00000010
00000000
00000100
00000000
00000001
00000000
,
00000010
00000000
00000001
00000100
00000000
00000010
00000000
00001000
,
00000000
00000100
00001000
00000000
00000100
00000000
00010000
00000000
,
00001000
00000000
00100000
00010000
00000000
01000000
00000000
00010000
,
00000000
00100000
01000000
00000000
10000000
00000000
00010000
00000000
,
01000000
00000000
00100000
10000000
00000000
01000000
00000000
00100000
,
00000000
00010000
00100000
00000000
00001000
00000000
00010000
00000000
,
00000000
00000000
00001000
00000000
00001000
00000010
00000000
00000001
,
00000000
00000001
00000100
00000000
00000010
00000000
00001000
00000000
,
00000100
00000000
00010000
00001000
00000000
00001000
00000000
00010000
,
00000000
00001000
01000000
00000000
00010000
00000000
00100000
00000000
,
01000000
00000000
10000000
00100000
00000000
00100000
00000000
01000000
,
00000000
00010000
10000000
00000000
01000000
00000000
00100000
00000000
,
00010000
00100000
00010000
00100000
00000000
00010000
00000000
00100000
,
00001000
00010000
00001000
00010000
00000000
00001000
00000000
00010000
,
00000010
00001000
00000010
00001000
00000000
00000010
00000000
00010000
,
00001000
00010000
00001000
00010000
00000000
00001000
00000000
01000000
,
00020000
00000000
00000000
00000000
,
00000000
00000000
00000000
00030000
,
20020000
00000000
00000000
00000000
,
00000000
00000000
00000000
00000000
,
00000000
00000000
00000000
00000000
,
00000000
00000000
00000000
00000000
,
00000000
00000000
00000000
00000000
,
00000000
00000000
00000000
00000000
,
00000000
00000000
00000000
00000000
,
00000000
00000000
00000000
00000000
,
00000000
00000000
00000000
00000000
,
00000000
00000000
00000000
00000000
,
00000000
00000000
00000000
00000000
,
00000000
00000000
00000000
00000000
,
00000000
00000000
00000000
00000000
,
30030000
00000000
00000000
00000000
,
00000000
00000000
00000000
00000000
;
