
//----- song ID: itet -----//
#TITLE:鋳鉄の檻;
#ARTIST:小寺可南子,ランコ,SARAH by BEMANI Sound Team "Yvya";
#TITLETRANSLIT:Itetsu no pride;
#ARTISTTRANSLIT:Kanako Kotera, Ranko, SARAH by BEMANI Sound Team "Yvya";
#BANNER:Itetsu no pride.png;
#BACKGROUND:Itetsu no pride-bg.png;
#CDTITLE:./CDTitles/BEMANI 2021 manatsu no utagassen 5-ban shoubu.png;
#MUSIC:Itetsu no pride.ogg;
#SAMPLESTART:69.804;
#SAMPLELENGTH:15;
#BPMS:0=200;
#NOTES:
     dance-single:
     :
     Beginner:
     4:
     :
0000
0000
0000
0000
,
0000
0000
0000
0000
,
0000
0000
0000
0000
,
0000
0000
0000
0000
,
0000
0000
0000
0000
,
0000
0000
0000
0000
,
0100
0000
0100
0000
,
0001
0000
0001
0000
,
1000
0000
0010
0000
,
1000
0000
0100
0000
,
0010
0000
0001
0000
,
0010
0000
0100
0000
,
1000
0000
0001
0000
,
1000
0000
0010
0000
,
0100
0000
0001
0000
,
0100
0000
0010
0000
,
1000
0000
0010
0000
,
0100
0000
0001
0000
,
0010
0000
0000
0000
,
0100
0000
0100
0000
,
0100
0000
0000
0000
,
1000
0000
0010
0000
,
1000
0000
0010
0000
,
0100
0000
0100
0000
,
0001
0000
0001
0000
,
0010
0000
0100
0000
,
0010
0000
0000
0000
,
1000
0000
1000
0000
,
1000
0000
0000
0000
,
0001
0000
0100
0000
,
0010
0000
1000
0000
,
0010
0000
0100
0000
,
0001
0000
0010
0000
,
0100
0000
1000
0000
,
0100
0000
0000
0000
,
0010
0000
0010
0000
,
0010
0000
0010
0000
,
0100
0000
0100
0000
,
0100
0000
0100
0000
,
1000
0000
0001
0000
,
1000
0000
0001
0000
,
1001
0000
0000
0000
,
0110
0000
0000
0000
,
0001
0000
0001
0000
,
0001
0000
0001
0000
,
1000
0000
1000
0000
,
1000
0000
1000
0000
,
0100
0000
0010
0000
,
0001
0000
0100
0000
,
0010
0000
1000
0000
,
0010
0000
0010
0000
,
0100
0000
0100
0000
,
0001
0000
0001
0000
,
1000
0000
1000
0000
,
0010
0000
1000
0000
,
1001
0000
0000
0000
,
0000
0000
0000
0000
,
0010
0000
0100
0000
,
0110
0000
0000
0000
,
0001
0000
0100
0000
,
0001
0000
0010
0000
,
0100
0000
1000
0000
,
0010
0000
0100
0000
,
0001
0000
0100
0000
,
0001
0000
1000
0000
,
0100
0000
0010
0000
,
0100
0000
1000
0000
,
0010
0000
1000
0000
,
0100
0000
0010
0000
,
0001
0000
0001
0000
,
1000
0000
1000
0000
,
0010
0000
0100
0000
,
0010
0000
1000
0000
,
0001
0000
0001
0000
,
1000
0000
1000
0000
,
0100
0000
0000
0000
,
0010
0000
0000
0000
,
0100
0000
0100
0000
,
0100
0000
0000
0000
,
1000
0000
0010
0000
,
1000
0000
0010
0000
,
0100
0000
0001
0000
,
0010
0010
0010
0000
,
0001
0000
0100
0000
,
0001
0000
0100
0000
,
0010
0000
1000
0000
,
0100
0100
0100
0000
,
1000
0000
0000
0000
,
1001
0000
0000
0000
,
0000
0000
0000
0000
;
#NOTES:
     dance-single:
     :
     Easy:
     7:
     :
0000
0000
0000
0000
,
0000
0000
0000
0000
,
0000
0000
0000
0000
,
0000
0000
0000
0000
,
0000
0000
0000
0000
,
0000
0000
0000
0000
,
1001
0000
0010
0010
,
0100
0001
1000
0000
,
1100
0000
0010
0010
,
0001
0100
0010
0000
,
1000
0100
1000
0100
,
0010
0100
0010
0000
,
0001
0010
0001
0010
,
0001
0100
0010
0000
,
0100
0001
0100
0001
,
1000
0100
0010
0000
,
1000
0001
1000
0100
,
0010
0001
0100
0000
,
0110
0000
0000
0000
,
1000
0000
1000
0000
,
0100
0010
0100
0000
,
1000
0100
0001
0100
,
1000
0010
0100
0000
,
0001
0000
0001
0000
,
0010
0100
0010
0000
,
0001
0100
1000
0100
,
0001
0000
1000
0000
,
0100
0000
0100
0000
,
0010
0001
0010
0000
,
0100
1000
0010
1000
,
0100
0010
0001
0000
,
0010
0000
0001
0000
,
0100
0010
1000
0100
,
0010
0000
0010
0000
,
0001
0100
0001
0101
,
1000
1000
1000
1000
,
1000
1000
1000
1000
,
0100
0100
0100
0100
,
0100
0100
0100
0100
,
0010
0001
0100
0000
,
0010
1000
0100
0000
,
0110
0000
0110
0000
,
1001
0000
1001
0000
,
0001
0001
0001
0001
,
0001
0001
0001
0001
,
0010
0010
0010
0010
,
0010
0010
0010
0010
,
0100
1000
0010
0000
,
0100
0001
0010
0000
,
0001
1000
0010
0100
,
0010
1000
0100
0010
,
0001
0100
0001
0100
,
0010
0010
0100
0100
,
0010
1000
0010
1000
,
0100
0100
0010
0010
,
0001
0000
0000
0001
0000
0000
1000
0000
,
0000
1000
0000
0000
0010
0000
0010
0000
,
0100
0010
1000
0001
,
0110
0220
0000
0330
,
0001
0100
0010
0100
,
0010
1000
0100
0000
,
1000
0010
0100
0010
,
0100
0001
0010
0000
,
0001
0100
1000
0000
,
1000
0100
0001
0000
,
0001
0010
0100
1000
,
0001
0010
0100
0000
,
1000
0010
0100
0001
,
1000
0100
0001
0000
,
0100
0010
0001
1000
,
0010
0100
0001
1000
,
0100
0010
0100
0000
,
1000
0010
1000
0000
,
0001
0010
1000
0010
,
0001
0100
0001
1000
,
0010
0000
0010
0000
,
0100
0000
0100
0000
,
0010
1000
0010
1000
,
0100
0000
0000
0000
,
0010
0001
0100
0010
,
1000
0100
0010
0000
,
0001
1000
0010
0100
,
0001
0001
0001
0001
,
1000
0100
0001
0100
,
0010
1000
0001
0000
,
0100
0010
1000
0001
,
1000
1000
1000
1000
,
0100
0000
0000
0000
0000
0000
0000
0001
,
0000
0010
0000
0100
0000
1000
0000
0010
,
0000
0000
0000
0000
;
#NOTES:
     dance-single:
     :
     Medium:
     10:
     :
0000
0000
0000
0000
,
0000
0000
0000
0000
,
0000
0000
0000
0000
,
0000
0000
0000
0000
0000
0000
0000
0001
,
0000
0000
0000
0000
0000
0000
1000
1000
,
0000
0000
0000
0000
0000
0000
0000
0002
,
0000
0013
0001
0100
,
0010
0000
0010
0000
1000
0000
0100
0020
,
0000
0130
1000
0010
,
0100
0000
0100
0000
0001
0001
0000
2000
,
0000
3001
0010
0010
,
0100
0000
0100
0000
0010
0001
0010
0200
,
0000
1300
0010
0010
,
0100
0000
0100
0000
0001
0010
0001
0200
,
0000
0301
0010
0010
,
0001
0000
0001
0000
1000
0100
1000
0002
,
0000
0103
0010
0010
,
0100
0001
0010
0000
0011
0000
1010
0000
,
1000
1000
0001
0010
,
0110
0000
0000
0000
1100
0000
0000
1002
,
0000
0103
0010
0100
,
0001
0000
1000
0010
1000
0000
0100
0000
,
0010
0010
0001
0001
,
1100
0000
0000
0000
0011
0000
0000
0201
,
0000
0310
1000
0100
,
0110
0000
0000
0000
0001
0000
0000
0100
,
0000
0010
1000
0010
0100
0000
0101
0000
,
1001
0000
0000
0000
1010
0000
0000
0002
,
0000
1000
0003
1000
0000
0100
0100
0000
,
0010
0000
0001
0010
0000
0001
0000
0010
,
0000
0100
0000
1000
0000
0010
1000
0000
,
1200
0000
0000
0320
0000
0000
0031
0100
,
0000
0001
0100
1000
,
1100
0000
0000
0000
0101
0000
0000
1001
,
0000
0000
0100
0000
0100
0010
1000
0000
,
0010
0010
0010
0010
,
0100
0000
0100
0000
0100
0000
0100
0001
,
0010
0010
0010
0010
,
0100
0000
0100
0000
0100
0000
0100
1000
,
0010
1000
0100
0010
,
0100
1000
0001
0100
,
0110
0000
0000
0000
1001
0000
0000
0110
,
0000
0000
0100
0000
0100
1000
0001
0000
,
0100
0100
0100
0100
,
0010
0000
0010
0000
0010
0000
0010
1000
,
0100
0100
0100
0100
,
0010
0000
0010
0000
0010
0000
0010
0001
,
0000
0100
0010
0000
1000
0010
1000
0000
,
0100
0000
0010
0000
0001
1000
0001
0200
,
0000
0000
0310
0000
1000
0100
0010
0000
,
0001
0000
0010
0000
0001
0100
0010
0200
,
0000
0301
0100
0001
,
0010
0000
0100
0000
1000
0000
0010
0100
,
0001
0000
0010
0000
0100
0000
0010
0100
,
0010
0001
1000
0100
,
0010
0000
0000
0110
0000
0000
0001
0000
,
0000
1001
0000
0000
0100
0000
0001
0001
,
0000
1000
0100
0000
0010
0000
0100
0020
,
0000
0100
0130
0000
0000
0000
0000
0001
,
0000
0100
0001
0000
0100
0000
0100
0000
,
0001
0000
1000
0000
0010
1000
0010
0000
,
0100
0000
0100
0000
0001
0010
0001
0000
,
1000
0010
0100
0010
,
0100
0001
0100
0000
0010
0000
0010
0000
,
1000
0000
0100
0000
0010
0001
0010
0000
,
0001
0000
0100
0000
0001
1000
0010
0000
,
1000
0000
0001
0000
0100
0100
0000
0020
,
0000
0130
0001
0001
,
1000
0000
0010
0000
0100
0001
0100
0020
,
0000
1030
0100
0100
,
1000
0000
0001
0000
0100
0010
0100
0000
,
0010
0000
0010
0000
1000
0001
0100
0000
,
0001
0000
0010
0001
0000
0010
0100
0010
,
0000
0100
1000
0000
0010
0000
0010
0000
,
1000
1000
0000
0010
0000
0100
0000
0001
,
0020
0000
0032
0000
,
0203
0000
0320
0000
,
0130
0100
0010
0010
,
1000
0000
0000
0000
,
0001
0001
0100
0100
,
0001
0000
0010
0000
0100
1000
0100
0000
,
1000
0000
1000
0000
0001
0010
0001
0000
,
0100
0010
0100
0000
0100
0010
0100
0000
,
0010
0010
1000
1000
,
0001
0000
0001
0000
0010
0100
0010
0000
,
0001
0000
0001
0000
1000
0100
1000
0000
,
0010
0100
0010
0000
0010
0100
0010
0000
,
0000
0000
0000
0000
0000
0000
0000
0100
,
0000
1000
0000
0010
0000
0100
0001
0010
,
0000
0000
0000
0000
;
#NOTES:
     dance-single:
     :
     Hard:
     13:
     :
0000
0000
0000
0000
,
0000
0000
0000
0000
,
0000
0000
0000
0000
,
0000
0000
0000
0000
0000
0000
0000
1001
,
0000
0000
0000
0000
0000
0000
0110
0110
,
0000
0000
0000
0000
0000
0000
0000
2000
,
0000
3100
0010
0000
0001
0010
0001
0000
,
0100
0000
0010
0000
1000
0010
0100
0002
,
0000
1003
0100
0000
0010
0001
0100
0000
,
0010
1000
0010
1000
0100
0100
0000
0020
,
0000
0031
1000
0000
0010
1000
0010
0000
,
0100
0001
0010
0000
0001
0100
0010
1000
,
0000
0100
0010
0000
0001
0100
0010
1000
,
0001
0010
0001
0010
0100
1000
0010
0100
,
0000
0001
0010
0000
0001
0100
0001
0000
,
1000
0100
0010
0000
0001
1000
0010
0100
,
0000
0001
0100
1000
0001
0010
1000
0010
,
0001
1000
0100
0010
0000
1000
0100
0010
,
0001
0001
1000
1000
,
0110
0000
0000
0000
0101
0000
0000
2010
,
0000
0000
3100
0000
0010
0001
0010
0001
,
1000
0000
0010
0100
0000
0010
1000
0001
,
0000
0100
0001
0100
1000
0000
1000
0000
,
0110
0000
0000
0000
1001
0000
0000
0012
,
0000
0103
0010
1000
,
1100
0000
0010
0001
0010
0000
0001
0100
,
0000
0010
1000
0010
0001
0000
0110
0000
,
1010
0000
0000
0000
0101
0000
0000
0021
,
0000
0100
0130
0100
0000
1000
1000
0000
,
0001
0000
0100
0010
0000
0100
0010
1000
,
0000
0100
0010
0100
0000
1000
0010
0100
,
0001
0000
1000
0100
1000
0010
0100
0002
,
0000
0000
0013
0001
0100
0010
1000
0000
,
1100
0000
0000
0000
0011
0000
0000
0110
,
0000
1000
0100
0010
0001
0100
0001
0000
,
0010
0001
0100
0010
0001
1000
0100
0000
,
0010
1000
0100
0010
1000
0001
0100
0010
,
0000
0001
0100
0001
1000
0010
0100
0000
,
0010
0100
0010
0001
0010
0100
0010
1000
,
0000
0100
1000
0000
0001
0100
0001
0000
,
0010
0011
1000
1010
,
2200
0000
3300
0000
0202
0000
0303
0011
,
0000
0100
0010
1000
0001
0010
0100
0000
,
1000
0100
0001
0100
0010
0001
0100
0000
,
0001
0010
1000
0010
0100
1000
0010
0100
,
0000
0001
0100
0010
0100
1000
0100
0000
,
1000
0100
0010
0100
0001
0100
0010
1000
,
0000
0001
0010
0000
0001
0100
0001
0000
,
1000
0010
1000
0000
0010
0100
0010
1000
,
0000
0001
0010
0100
1000
0001
0010
0001
,
0100
0001
0100
0010
1000
0001
1000
0200
,
0000
0000
0310
0000
0100
0000
0010
0001
,
0010
0100
1000
0000
0010
0100
0010
1000
,
0001
0000
0010
0000
0001
0100
0010
0100
,
0001
0000
0100
0010
0000
0010
0100
0000
,
0001
1001
0000
1000
1010
0000
0010
0110
,
0000
0100
0101
0000
1001
0000
1000
1100
,
0000
0010
0001
0010
1000
0001
0100
0020
,
0000
0001
0031
0000
0000
0000
0000
1000
,
0000
0010
1000
0000
0010
0100
0010
0000
,
1000
0010
1000
0100
0010
0001
0100
0010
,
0000
1000
0010
0000
0100
0010
0100
0000
,
0011
0000
0101
0000
0010
1000
0100
0010
,
0000
0001
0010
0100
0010
0100
1000
0010
,
1000
0010
0000
0110
0000
0100
0001
0100
,
0000
0001
0100
1000
0100
0001
0010
0002
,
0000
0000
2003
0000
0010
3010
0000
0001
,
0000
0010
0001
0000
0010
0100
0010
0000
,
0001
0010
0001
0100
0010
1000
0100
0010
,
0000
0001
0010
0000
0100
0010
0100
0000
,
1100
0000
0101
0000
0010
0001
0100
0010
,
0000
0010
0100
0000
0010
1000
0010
0000
,
1100
0000
0010
0011
0000
0001
0100
0001
,
0000
1000
0100
1000
0010
0100
0001
0100
,
0010
1010
0000
0101
0000
1001
0000
1100
,
0200
0010
0320
0001
,
0032
0100
2003
0100
,
3001
0000
0100
0010
1000
0001
0010
0100
,
1000
0000
0000
0000
0000
0000
0000
0010
,
0000
1000
0010
0000
1000
0100
1000
0000
,
0001
0100
0001
0000
1000
0010
0100
0001
,
0000
0010
0100
1000
0001
0100
0001
0000
,
0010
0100
0010
0100
0010
0100
0010
0011
,
0000
1000
0010
0000
1000
0100
1000
0000
,
0001
0010
0001
0100
0010
0100
1000
0100
,
0000
0010
0100
0001
1000
0100
1000
0000
,
0001
0010
1000
0001
0100
1000
0010
0110
,
0000
0000
0000
0000
0000
0000
0000
1000
,
0001
1000
0010
0100
1000
0001
0010
0110
,
0000
0000
0000
0000
;
#NOTES:
     dance-double:
     :
     Easy:
     7:
     :
00000000
00000000
00000000
00000000
,
00000000
00000000
00000000
00000000
,
00000000
00000000
00000000
00000000
,
00000000
00000000
00000000
00000000
,
00000000
00000000
00000000
00000000
,
00000000
00000000
00000000
00000000
,
00001001
00000000
00000100
00000100
,
00001000
00000010
00010000
00000000
,
01100000
00000000
10000000
10000000
,
01000000
00010000
00001000
00000000
,
00010000
00001000
00010000
00000100
,
00001000
00000100
00000010
00000000
,
00000001
00000100
00000001
00001000
,
00000100
00001000
00000010
00000000
,
00010000
00001000
00010000
00001000
,
00100000
00010000
10000000
00000000
,
00100000
01000000
00010000
00100000
,
00001000
00010000
00001000
00000000
,
00000110
00000000
00000000
00000000
,
00000001
00000000
00000001
00000000
,
00000100
00000010
00000100
00000000
,
00000001
00000010
00001000
00010000
,
00100000
10000000
00010000
00000000
,
10000000
00000000
10000000
00000000
,
01000000
00100000
01000000
00000000
,
10000000
01000000
00010000
00001000
,
00000100
00000000
00000001
00000000
,
00000010
00000000
00000010
00000000
,
00000100
00001000
00000100
00000000
,
00010000
00001000
00100000
00010000
,
01000000
00010000
10000000
00000000
,
00010000
00000000
00100000
00000000
,
00001000
00010000
00000100
00001000
,
00000010
00000000
00000010
00000000
,
00000100
00000001
00001000
00001001
,
00000100
00000100
00000100
00000100
,
00010000
00010000
00010000
00010000
,
00001000
00001000
00001000
00001000
,
00100000
00100000
00100000
00100000
,
00010000
10000000
01000000
00000000
,
00100000
00010000
01000000
00000000
,
00011000
00000000
00011000
00000000
,
00001001
00000000
00001001
00000000
,
00000010
00000010
00000010
00000010
,
00001000
00001000
00001000
00001000
,
00000100
00000100
00000100
00000100
,
00010000
00010000
00010000
00010000
,
00001000
00010000
01000000
00000000
,
10000000
00100000
01000000
00000000
,
00010000
00100000
00001000
00010000
,
00001000
00000100
00000001
00000100
,
00000010
00001000
00000010
00010000
,
00001000
00001000
00010000
00010000
,
00001000
00100000
00010000
10000000
,
00100000
00100000
01000000
01000000
,
00010000
00000000
00000000
00100000
00000000
00000000
00001000
00000000
,
00000000
00010000
00000000
00000000
00001000
00000000
00001000
00000000
,
00000100
00000001
00001000
00000100
,
00000110
00000220
00000000
00000330
,
00001000
00000001
00000100
00000001
,
00001000
00000100
00010000
00000000
,
00001000
00100000
00010000
00100000
,
01000000
10000000
00100000
00000000
,
10000000
01000000
00010000
00000000
,
00001000
00000100
00000001
00000000
,
00000010
00000100
00001000
00000100
,
00010000
00001000
01000000
00000000
,
00010000
10000000
00010000
00100000
,
00001000
00010000
00000100
00000000
,
00001000
00000001
00000010
00000100
,
00001000
00000100
00010000
00001000
,
00010000
00100000
10000000
00000000
,
01000000
00100000
01000000
00000000
,
10000000
00100000
00010000
00001000
,
00000010
00000001
00000010
00001000
,
00010000
00000000
00010000
00000000
,
00001000
00000000
00001000
00000000
,
00100000
00010000
00100000
01000000
,
10000000
00000000
00000000
00000000
,
00010000
00100000
00001000
00010000
,
00000010
00001000
00000100
00000000
,
00000010
00000001
00000100
00000010
,
00001000
00001000
00001000
00001000
,
00000100
00010000
00001000
01000000
,
00010000
10000000
00100000
00000000
,
10000000
01000000
00100000
00010000
,
01000000
01000000
01000000
01000000
,
00001000
00000000
00000000
00000000
00000000
00000000
00000000
00010000
,
00000000
00000100
00000000
00001000
00000000
00000001
00000000
00000010
,
00000000
00000000
00000000
00000000
;
#NOTES:
     dance-double:
     :
     Medium:
     10:
     :
00000000
00000000
00000000
00000000
,
00000000
00000000
00000000
00000000
,
00000000
00000000
00000000
00000000
,
00000000
00000000
00000000
00000000
00000000
00000000
00000000
10000000
,
00000000
00000000
00000000
00000000
00000000
00000000
00010000
00010000
,
00000000
00000000
00000000
00000000
00000000
00000000
00000000
02000000
,
00000000
03010000
00100000
00001000
,
00010000
00000000
00010000
00000000
00001000
00000000
00000100
00000020
,
00000000
00001030
00000001
00000100
,
00001000
00000000
00001000
00000000
00010000
00010000
00000000
00002000
,
00000000
00103000
00010000
00010000
,
10000000
00000000
10000000
00000000
00100000
01000000
00010000
02000000
,
00000000
03001000
00010000
00010000
,
00000010
00000000
00000010
00000000
00001000
00000100
00001000
00000002
,
00000000
00000013
00000100
00000100
,
00001000
00000000
00001000
00000000
00000100
00010000
00001000
00020000
,
00000000
00031000
01000000
01000000
,
00010000
00100000
01000000
00000000
10100000
00000000
01010000
00000000
,
00001000
00001000
00010000
00000010
,
00001010
00000000
00000000
00000000
00000101
00000000
00000000
00001200
,
00000000
00010300
00001000
00010000
,
01000000
00000000
10000000
00100000
10000000
00000000
00010000
00000000
,
01000000
01000000
00100000
00100000
,
10010000
00000000
00000000
00000000
00011000
00000000
00000000
00001002
,
00000000
00000013
00001000
00010000
,
00011000
00000000
00000000
00000000
00100000
00000000
00000000
10000000
,
00000000
00010000
00100000
00010000
01000000
00000000
00011000
00000000
,
00001010
00000000
00000000
00000000
00000011
00000000
00000000
00002000
,
00000000
00000010
00003000
00000100
00000000
00010000
00010000
00000000
,
00001000
00000000
00010000
00100000
00000000
00010000
00000000
00100000
,
00000000
10000000
00000000
01000000
00000000
00100000
00010000
00000000
,
00021000
00000000
00000000
00030020
00000000
00000000
00001030
00000100
,
00000000
00000010
00000001
00001000
,
00001001
00000000
00000000
00000000
00011000
00000000
00000000
10010000
,
00000000
00000000
01000000
00000000
00100000
00010000
10000000
00000000
,
01000000
01000000
01000000
01000000
,
00010000
00000000
00010000
00000000
00010000
00000000
00010000
00001000
,
00000100
00000100
00000100
00000100
,
00000001
00000000
00000001
00000000
00000001
00000000
00000001
00000010
,
00001000
00010000
00001000
00100000
,
00010000
10000000
00100000
01000000
,
01010000
00000000
00000000
00000000
00011000
00000000
00000000
00001100
,
00000000
00000000
00000010
00000000
00000001
00000100
00000010
00000000
,
00000100
00000100
00000100
00000100
,
00001000
00000000
00001000
00000000
00001000
00000000
00001000
00010000
,
00100000
00100000
00100000
00100000
,
10000000
00000000
10000000
00000000
10000000
00000000
10000000
01000000
,
00000000
00100000
00010000
00000000
01000000
00100000
01000000
00000000
,
00001000
00000000
00010000
00000000
00000100
00001000
00000100
00000020
,
00000000
00000000
00000031
00000000
00001000
00000100
00010000
00000000
,
00001000
00000000
01000000
00000000
00010000
10000000
00100000
20000000
,
00000000
31000000
00010000
00001000
,
00000100
00000000
00000001
00000000
00001000
00000000
00000010
00000100
,
00000001
00000000
00001000
00000000
00000100
00000000
00010000
00001000
,
00010000
00001000
00100000
00010000
,
10000000
00000000
00000000
01100000
00000000
00000000
00010000
00000000
,
00000000
00011000
00000000
00000000
00000100
00000000
00000010
00000010
,
00000000
00000001
00000100
00000000
00000010
00000000
00001000
00000200
,
00000000
00010000
00010300
00000000
00000000
00000000
00000000
00001000
,
00000000
00010000
00001000
00000000
00010000
00000000
00010000
00000000
,
00100000
00000000
10000000
00000000
01000000
00100000
01000000
00000000
,
10000000
00000000
10000000
00000000
00010000
00100000
00010000
00000000
,
01000000
00001000
00010000
00001000
,
00000100
00000010
00000100
00000000
00000001
00000000
00000001
00000000
,
00001000
00000000
00000100
00000000
00010000
00001000
00010000
00000000
,
00001000
00000000
01000000
00000000
00010000
10000000
01000000
00000000
,
00100000
00000000
00001000
00000000
00010000
00010000
00000000
00000200
,
00000000
00001300
00000001
00000001
,
00000010
00000000
00001000
00000000
00010000
00001000
00100000
00020000
,
00000000
10030000
01000000
01000000
,
00010000
00000000
00001000
00000000
00010000
00001000
00010000
00000000
,
00000100
00000000
00000100
00000000
00001000
00000010
00000100
00000000
,
00000001
00000000
00000010
00000100
00000000
00001000
00000010
00001000
,
00000000
00000100
00010000
00000000
00001000
00000000
00001000
00000000
,
01000000
01000000
00000000
00010000
00000000
10000000
00000000
01000000
,
00020000
00000000
00032000
00000000
,
00003200
00000000
00000302
00000000
,
00000013
00000010
00000100
00000100
,
00001000
00000000
00000000
00000000
,
00010000
00010000
00001000
00001000
,
00100000
00000000
00010000
00000000
10000000
01000000
10000000
00000000
,
01000000
00000000
01000000
00000000
00010000
00001000
00010000
00000000
,
00001000
00000100
00001000
00000000
00000100
00000010
00000100
00000000
,
00000001
00000001
00000010
00000010
,
00001000
00000000
00001000
00000000
00010000
00001000
00010000
00000000
,
01000000
00000000
01000000
00000000
10000000
00100000
10000000
00000000
,
00010000
00100000
00010000
00000000
01000000
00001000
01000000
00000000
,
00000000
00000000
00000000
00000000
00000000
00000000
00000000
00000001
,
00000000
00000010
00000000
00001000
00000000
00010000
00100000
01000000
,
00000000
00000000
00000000
00000000
;
#NOTES:
     dance-double:
     :
     Hard:
     14:
     :
00000000
00000000
00000000
00000000
,
00000000
00000000
00000000
00000000
,
00000000
00000000
00000000
00000000
,
00000000
00000000
00000000
00000000
00000000
00000000
00000000
00000011
,
00000000
00000000
00000000
00000000
00000000
00000000
00001100
00001100
,
00000000
00000000
00000000
00000000
00000000
00000000
00000000
00200000
,
00000000
10300000
01000000
00000000
00100000
00010000
00100000
00000000
,
00001000
00000000
00010000
00000000
00000100
00001000
00000100
00000020
,
00000000
00000031
00000100
00000000
00000010
00001000
00000100
00000000
,
00010000
00001000
00100000
00010000
10000000
10000000
00000000
00020000
,
00000000
00130000
00001000
00000000
00010000
00001000
00010000
00000000
,
00001000
00000100
00000001
00000000
00000010
00000100
00001000
00000100
,
00000000
00010000
00001000
00000000
00010000
01000000
10000000
00000000
,
00100000
01000000
00100000
01000000
00010000
00100000
00001000
00010000
,
00000000
00000010
00001000
00000000
00000001
00000010
00000001
00000000
,
00001000
00000100
00000010
00000000
00000100
00001000
00000100
00010000
,
00000000
00001000
00010000
00100000
01000000
00010000
10000000
00000000
,
01000000
00100000
00010000
00100000
00000000
00001000
00010000
00000100
,
00001000
00001000
00000001
00000001
,
00000110
00000000
00000000
00000000
00001100
00000000
00000000
00012000
,
00000000
00000000
01003000
00000000
00010000
00100000
00010000
00100000
,
01000000
00000000
10000000
00100000
00000000
10000000
01000000
00010000
,
00000000
00001000
00010000
00001000
00000100
00000000
00000001
00000000
,
00000110
00000000
00000000
00000000
00001010
00000000
00000000
00021000
,
00000000
00130000
10000000
01000000
,
00110000
00000000
00001000
00010000
00001000
00000000
00000100
00000010
,
00000000
00001000
00000100
00000001
00000100
00000000
00011000
00000000
,
01010000
00000000
00000000
00000000
11000000
00000000
00000000
00120000
,
00000000
01000000
01030000
01000000
00000000
00001000
00001000
00000000
,
00010000
00000000
00000100
00001000
00000000
00000001
00000010
00000100
,
00000000
00001000
00000100
00001000
00000000
00000100
00010000
00001000
,
01000000
00000000
00010000
00100000
00010000
00000000
10000000
00020000
,
00000000
00000000
00130000
00001000
00010000
00001000
00000100
00000000
,
00000101
00000000
00000000
00000000
00000011
00000000
00000000
00001100
,
00000000
00010000
00001000
00100000
00010000
01000000
00100000
00000000
,
10000000
00010000
00100000
00001000
00010000
00000100
00001000
00000000
,
00000001
00000010
00000100
00001000
00000100
00010000
00001000
00100000
,
00000000
00010000
10000000
01000000
00010000
00001000
00000010
00000000
,
00000100
00001000
00000100
00000010
00000100
00000001
00000100
00001000
,
00000000
00000010
00010000
00000000
00001000
00010000
00001000
00000000
,
01000000
01010000
10000000
11000000
,
00220000
00000000
00330000
00000000
00022000
00000000
00033000
00001010
,
00000000
00000100
00001000
00000100
00000010
00000001
00000100
00000000
,
00000001
00000100
00001000
00010000
01000000
10000000
01000000
00000000
,
00100000
00010000
10000000
01000000
00010000
00001000
00000100
00000001
,
00000000
00000010
00000100
00001000
00000100
00010000
00001000
00000000
,
00100000
00010000
00100000
01000000
00100000
10000000
00100000
00010000
,
00000000
10000000
01000000
00000000
00100000
00010000
01000000
00000000
,
00001000
00010000
00000100
00000000
00001000
00000010
00000100
00000001
,
00000000
00001000
00000100
00010000
00001000
00100000
00001000
00010000
,
00000100
00010000
00001000
00100000
00001000
00010000
00000010
00002000
,
00000000
00000000
00003100
00000000
00010000
00000000
00001000
00010000
,
00100000
01000000
00100000
00000000
10000000
01000000
00100000
00010000
,
01000000
00000000
00001000
00000000
00010000
00001000
00010000
00000100
,
00001000
00000000
00000100
00000010
00000000
00000010
00000001
00000000
,
00000100
00000110
00000000
00000010
00001010
00000000
00010000
00011000
,
00000000
00001000
01001000
00000000
10010000
00000000
00100000
01100000
,
00000000
10000000
01000000
00010000
00001000
00000100
00000001
00000200
,
00000000
00000010
00000310
00000000
00000000
00000000
00000000
00001000
,
00000000
00000100
00000010
00000000
00000100
00001000
00000100
00000000
,
00010000
00001000
00010000
01000000
10000000
00100000
01000000
00010000
,
00000000
01000000
00100000
00000000
01000000
00010000
01000000
00000000
,
00011000
00000000
00010100
00000000
00000010
00001000
00000100
00000010
,
00000000
00000001
00000010
00000100
00000010
00000100
00001000
00000010
,
00010000
00000010
00000000
00011000
00000000
00100000
00010000
00100000
,
00000000
00010000
01000000
10000000
01000000
00010000
10000000
00200000
,
00000000
00000000
00320000
00000000
00001000
00031000
00000000
00000010
,
00000000
00000100
00001000
00000000
00000010
00000100
00000010
00000000
,
00001000
00000010
00001000
00000100
00000010
00000001
00000100
00001000
,
00000000
00010000
00001000
00000000
01000000
00010000
01000000
00000000
,
10010000
00000000
00011000
00000000
00000100
00001000
00000010
00000100
,
00000000
00000001
00000010
00000000
00000100
00001000
00000100
00000000
,
00011000
00000000
01000000
01010000
00000000
00100000
10000000
00100000
,
00000000
10000000
01000000
10000000
00100000
00010000
00001000
00000010
,
00000001
00000101
00000000
00001100
00000000
00011000
00000000
00110000
,
00020000
01000000
20030000
00100000
,
30020000
00001000
00030020
00000100
,
00000031
00000000
00001000
00000100
00000010
00000001
00001000
00000100
,
00010000
00000000
00000000
00000000
00000000
00000000
00000000
01000000
,
00000000
10000000
00100000
00000000
01000000
00010000
01000000
00000000
,
00001000
00010000
00001000
00000000
00010000
00001000
00000100
00000001
,
00000000
00000010
00000100
00001000
00000100
00010000
00000100
00000000
,
00010000
00001000
00010000
00001000
00100000
00010000
00100000
00010000
,
00000000
10000000
01000000
00000000
00100000
00010000
00100000
00000000
,
00001000
00010000
00001000
00010000
00000100
00001000
00000100
00000010
,
00000000
00000001
00000100
00000010
00001000
00000010
00010000
00000000
,
00001000
00100000
00010000
01000000
10000000
01000000
00010000
10000000
,
00000000
00000000
00000000
00000000
00000000
00000000
00000000
10000000
,
00100000
00010000
00001000
00010000
00001000
00000100
00000001
00001001
,
00000000
00000000
00000000
00000000
;
