
//----- song ID: inos -----//
#TITLE:イノセントバイブル;
#ARTIST:Vanitas Lacrimosa;
#TITLETRANSLIT:Innocent bible;
#BANNER:Innocent bible.png;
#BACKGROUND:Innocent bible-bg.png;
#CDTITLE:./CDTitles/DDR A20 PLUS.png;
#MUSIC:Innocent bible.ogg;
#SAMPLESTART:56.379;
#SAMPLELENGTH:15;
#BPMS:0=105;
#NOTES:
     dance-single:
     :
     Beginner:
     2:
     :
0000
0000
0000
0000
,
0000
0000
0000
0000
,
0000
0000
0000
0000
,
0000
0000
0000
0000
,
0001
0000
0000
0001
,
0000
0000
1001
0000
,
0000
1001
0000
0000
,
1000
0000
0000
0100
,
0000
0000
0100
0000
,
0000
0010
0000
0000
,
0001
0000
0000
0010
,
0000
0000
0100
0000
,
0000
0100
0000
0000
,
1000
0000
0000
0002
,
0000
0000
0003
0000
,
0000
0200
0000
0000
,
0300
0000
0000
0010
,
0000
0000
0010
0000
,
0000
0100
0000
0000
,
0100
0000
0000
1000
,
0000
0000
1000
0000
,
0000
0010
0000
0000
,
0010
0000
0000
0001
,
0000
0000
2002
0000
,
0000
3003
0000
0000
,
0001
0000
0000
0010
,
0000
0000
0100
0000
,
0000
0100
0000
0000
,
1000
0000
0000
0010
,
0000
0000
0100
0000
,
0000
0100
0000
0000
,
0002
0000
0000
0003
,
0000
0000
0200
0000
,
0000
0300
0000
0000
,
0020
0000
0000
0030
,
0000
0000
2000
0000
,
0000
3000
0000
0000
,
1000
0000
0000
1000
0000
0000
1000
0000
,
0000
0000
0010
0000
,
0000
0100
0000
0000
,
0001
0000
0000
0001
0000
0000
0001
0000
,
0000
0000
0010
0000
,
0000
0100
0000
0000
,
1000
0000
0000
1000
0000
0000
1000
0000
,
0000
0000
0010
0000
,
0000
0100
0000
0000
,
0001
0000
0000
0100
,
0000
0000
1000
0000
,
0000
1001
0000
0000
,
0000
0000
0000
0000
;
#NOTES:
     dance-single:
     :
     Easy:
     4:
     :
0000
0000
0000
0000
,
0000
0000
0000
0000
,
0000
0000
0000
0000
,
0000
0000
0000
0000
,
0001
0000
0000
0001
0000
0000
1000
0000
,
0000
1000
0000
0000
0110
0000
0000
0000
,
0000
1001
0000
0000
,
1000
0000
0000
1000
0000
0000
0100
0000
,
0000
0100
0000
0000
0010
0000
0000
0001
,
0000
0000
0100
0000
0000
0001
0000
0000
,
1000
0000
0000
0010
0000
0000
1000
0000
,
0000
0100
0000
0000
0010
0000
0000
0001
,
0001
0000
1000
0000
0000
0100
0100
0000
,
1000
0000
0000
0001
0000
0000
0020
0000
,
0000
0030
0000
0000
0200
0000
0000
0300
,
0000
0000
2000
0000
0000
3000
0000
0000
,
0002
0000
0000
0003
0000
0000
0001
0000
,
0000
0001
0000
0000
0100
0000
0010
0100
,
0000
0000
1000
0000
0000
1000
0000
0000
,
0100
0000
0010
0100
0000
0000
0001
0000
,
0000
0001
0000
0000
1000
0000
0000
1000
,
0000
0000
0010
0000
0000
0010
0000
0000
,
0100
0000
0000
0100
0000
0000
0110
0000
,
0000
0000
1001
0000
,
0000
0000
2002
0000
0000
3003
0000
0000
,
0001
0000
0000
0100
0000
0000
0010
0000
,
0010
0100
0000
0000
1000
0000
0000
0100
,
0000
0000
0010
0000
0010
0100
0000
0000
,
0001
0000
0000
0100
0000
0000
0010
0000
,
0010
1000
0000
0000
1000
0000
0000
0100
,
0000
0000
0010
0000
0010
0001
0000
0000
,
2000
0000
0000
3000
,
0000
1001
0000
0000
0002
0000
0000
0000
,
0000
0000
0003
0000
0000
1001
0000
0000
,
0020
0000
0000
0030
,
0000
0110
0000
0000
0200
0000
0000
0000
,
0000
0000
0300
0000
0000
0110
0000
0000
,
1000
0000
0000
0100
0000
0000
0001
0000
,
0000
0000
1001
0000
,
0000
0000
2002
0000
0000
3003
0000
0000
,
1000
0000
1000
0100
0000
0000
1000
0000
,
1000
0010
0000
0000
0100
0000
0100
0001
,
0000
0000
1000
0000
1000
0001
0000
0000
,
0001
0000
0001
0010
0000
0000
0001
0000
,
0001
0100
0000
0000
0110
0000
0000
0000
,
0000
1001
0000
0000
,
2000
0000
0000
0001
0000
0000
0001
0000
,
0000
3001
0000
0000
0010
0000
0000
0100
,
0010
0220
0000
0000
,
0000
0000
0000
0000
,
0000
0330
0000
0000
,
0000
0000
0000
0000
;
#NOTES:
     dance-single:
     :
     Medium:
     7:
     :
0000
0000
0000
0000
,
0000
0000
0000
0000
,
0000
0000
0000
0000
,
0000
0000
0000
0000
,
0001
0000
0001
0100
0000
0100
0010
0000
,
0010
0000
1000
0000
0000
0000
1000
0000
0100
0000
0000
0100
0000
0000
0000
0000
,
0000
0000
0000
0000
0010
0000
0000
0010
0000
0000
0000
0000
0000
0000
0000
0000
,
0002
0000
0000
0000
0003
0000
0001
0000
0100
0000
0010
0000
0100
0000
0000
0100
,
0000
0110
0000
0000
1000
0100
1000
0100
,
0000
0000
0010
0001
0010
0001
0000
0000
,
0001
0000
0100
1000
0000
0000
1000
0000
,
0100
0001
0000
0000
1000
0100
0000
1000
,
0010
0000
0001
0100
0000
0001
0010
0000
,
0001
0000
0000
0001
0000
0000
1000
0000
0000
1000
0000
0000
0020
0000
0000
0000
,
0030
0010
0100
0010
0200
0000
0300
0100
,
0010
0100
0002
0000
0003
0001
1000
0001
,
2000
0000
3000
1000
0001
1000
0100
0000
,
0100
0010
0000
0000
0100
0000
0100
1000
,
0000
0000
0001
0000
0001
0100
0000
0000
,
0001
0000
0001
0010
0000
0000
0001
0100
,
0010
1000
0000
0000
0001
0010
0100
1000
,
0000
0000
1000
0010
0100
0001
0000
0000
,
1000
0100
0010
0001
0000
0000
1000
0001
,
1000
0000
0001
0000
1000
0000
0001
0000
0010
0000
0000
0010
0000
0000
0010
0000
,
0000
0000
2002
0000
0000
3003
0000
0000
,
1000
0010
1000
0010
0000
0000
1000
0100
,
0010
0001
0000
0000
0100
0001
0100
0001
,
0000
0000
0010
0100
1000
0001
0000
0000
,
0100
0010
1000
0010
0000
0000
1000
0001
,
0010
0001
0000
0000
0001
0100
0010
0100
,
0000
0000
0010
1000
0001
0010
0000
0000
,
0002
0000
0000
0003
0000
0000
0020
0000
,
0000
0030
0000
0000
0200
0000
0000
0300
,
0000
0000
2000
0000
0000
3000
0000
0000
,
1000
0000
1000
0010
0000
0000
0001
0000
,
0001
0010
0000
0000
1000
0000
1000
0100
,
0000
0000
0001
0000
0001
0100
0000
0000
,
0010
1000
0001
1000
0001
1000
0001
0000
,
0000
0000
0000
0000
2002
0000
0000
3003
,
0000
0000
0220
0000
0000
0330
0000
0000
,
0001
0000
0001
0100
0000
0100
1000
0000
,
1000
0010
0000
0000
1000
0000
1000
0100
,
0000
0100
0001
0000
0001
0010
0000
0000
,
0001
0000
0100
0010
0000
1000
0001
0000
,
0010
0000
0100
0000
0000
0000
0000
0000
1000
0000
0000
1000
0000
0000
0000
0000
,
0000
0000
0000
0000
0001
0000
0000
0001
0000
0000
0000
0000
0000
0000
0000
0000
,
2000
0000
0000
0000
3000
0000
1000
0000
0010
0000
0100
0000
0010
0000
0000
0010
,
0000
0110
0000
0000
0001
0000
0100
0010
,
0000
1000
0002
0000
0000
0000
0000
0000
,
0000
0000
0000
0000
,
0000
0003
0000
0000
,
0000
0000
0000
0000
;
#NOTES:
     dance-single:
     :
     Hard:
     10:
     :
0000
0000
0000
0000
,
0000
0000
0000
0000
,
0000
0000
0000
0000
,
0000
0000
0000
0000
,
0001
0100
0100
0010
1000
0100
0010
0100
,
0100
0000
1000
0000
0100
0000
0100
0000
1000
0000
0000
1010
0000
0000
0000
0000
,
0000
0000
0000
0000
0001
0000
0000
0011
0000
0000
0000
0000
0000
0000
0000
0000
,
0002
0000
0010
0000
0013
0000
0001
0000
0100
0000
0010
0000
1000
0010
0000
1000
,
0000
0010
0000
0000
0000
0000
0000
0000
1000
0000
0000
1000
0000
0000
0010
0000
,
0001
0010
1000
0001
0001
0010
0100
0100
,
0010
0000
0001
0000
0100
0000
1000
0010
1000
0000
0000
0000
0100
0000
0001
0000
,
0010
0000
1000
0100
1000
0000
0000
0000
0010
0000
0101
0000
0000
0000
0010
0000
,
1100
0000
0100
0011
0000
0100
1010
0000
,
0001
0000
0000
0100
0000
0000
1000
0000
0000
0100
0000
0000
0002
0000
0010
0000
,
0013
2000
0010
3010
0002
0100
0103
2000
,
0100
3100
0020
0001
0031
0200
1000
1300
,
0020
0001
0031
0200
1000
1300
0001
1000
,
0010
0000
1000
0000
0100
0010
0100
0000
0000
0000
0010
0000
0010
0000
0001
0000
,
1000
0001
0020
0000
0000
1030
0010
0001
,
0200
0000
0000
0000
1300
0000
0100
0000
0001
1000
0001
0000
0010
0000
0001
0000
,
0010
0100
1000
0100
1000
0010
1000
0001
,
0100
0001
2000
0002
0000
0000
0000
0000
,
3003
0000
0000
0000
1000
0001
1000
0000
0010
0000
0100
0000
0001
0000
0010
0000
,
0100
0000
1000
0000
0010
0000
0100
0000
0001
0000
0000
0011
0000
0000
1001
0000
,
0000
0001
0010
0100
1000
0100
0000
1000
0000
0010
2000
0000
0000
0000
3000
0000
,
0001
0000
0100
0010
0100
0000
0001
0000
1000
0100
1000
0000
0100
0010
0000
0001
,
0000
0100
0010
0000
1000
0000
0010
0000
1000
0000
0100
0010
0100
0000
1000
0000
,
0001
0100
0001
0000
1000
0000
0000
1100
0000
0000
0001
0000
0000
0011
0000
0000
,
0001
0000
0100
1000
0100
0000
0001
0000
0010
1000
0010
0000
0001
0100
0000
0001
,
0000
0010
0100
0000
1000
0000
0100
0000
1000
0000
0010
0000
0100
0000
1000
0000
,
0100
0001
0100
0000
0002
0000
0000
0000
0000
0000
2000
0000
0000
0000
3003
0000
,
1000
0000
0100
0010
0000
0010
0001
0000
,
0001
1000
0000
1000
0002
0000
0000
0203
,
0000
0000
0310
0100
0010
1000
0010
1000
,
0001
0000
1000
0100
0000
0100
0010
0000
,
0010
0000
0001
0000
0000
0000
0001
0000
1000
0000
0010
0100
0010
0000
1000
0000
,
0100
0010
0100
0000
1000
0000
0001
0000
1000
0000
0200
0000
0000
0000
0300
0000
,
0010
0000
0001
0000
0100
0000
0010
0000
1000
0001
1000
0000
0010
0000
0000
0000
,
0000
0000
0000
0000
0001
0102
0100
0013
,
0100
0100
1000
2010
0010
3100
0010
0010
,
0001
0000
1000
0001
1000
0000
0010
0000
0100
0010
0100
0000
0001
0000
0010
0000
,
0100
1000
0100
0000
0010
0000
0001
0000
1000
0000
0010
0000
1000
0000
0100
0000
,
0010
0100
0010
0001
0100
0010
1000
0010
,
1000
0000
0001
1000
0001
0000
0100
0000
0001
0100
0001
0000
0010
0000
0100
0000
,
1000
0001
1000
0000
0010
0000
0100
0000
0001
0000
0000
0101
0000
0000
0000
0000
,
0000
0000
0000
0000
1000
0000
0000
1100
0000
0000
0000
0000
0000
0000
0000
0000
,
0200
0000
0010
0000
0310
0000
0001
0000
1000
0000
0001
0000
0100
0001
0000
0100
,
0000
0001
1000
0000
0000
0000
0000
0000
0001
0000
0100
0000
0010
0000
1000
0000
,
0100
0010
0002
0000
0000
0000
0000
0000
,
0000
0000
0000
0000
,
0000
0003
0000
0000
,
0000
0000
0000
0000
;
#NOTES:
     dance-double:
     :
     Easy:
     4:
     :
00000000
00000000
00000000
00000000
,
00000000
00000000
00000000
00000000
,
00000000
00000000
00000000
00000000
,
00000000
00000000
00000000
00000000
,
00010000
00000000
00000000
00010000
00000000
00000000
00001000
00000000
,
00000000
00001000
00000000
00000000
00011000
00000000
00000000
00000000
,
00000000
00011000
00000000
00000000
,
00000010
00000000
00000000
00000010
00000000
00000000
00000100
00000000
,
00000000
00000100
00000000
00000000
00001000
00000000
00000000
00010000
,
00000000
00000000
00001000
00000000
00000000
00010000
00000000
00000000
,
01000000
00000000
00000000
01000000
00000000
00000000
00100000
00000000
,
00000000
00100000
00000000
00000000
00001000
00000000
00000000
00010000
,
00010000
00000000
00001000
00000000
00000000
00010000
00010000
00000000
,
00000100
00000000
00000000
00000010
00000000
00000000
00000002
00000000
,
00000000
00000003
00000000
00000000
00002000
00000000
00000000
00003000
,
00000000
00000000
00020000
00000000
00000000
00030000
00000000
00000000
,
00200000
00000000
00000000
00300000
00000000
00000000
10000000
00000000
,
00000000
01000000
00000000
00000000
00100000
00000000
00100000
00010000
,
00000000
00000000
00001000
00000000
00000000
00001000
00000000
00000000
,
00000100
00000000
00000100
00000010
00000000
00000000
00000001
00000000
,
00000000
00000001
00000000
00000000
00000100
00000000
00000000
00000010
,
00000000
00000000
00001000
00000000
00000000
00001000
00000000
00000000
,
00010000
00000000
00000000
00010000
00000000
00000000
00011000
00000000
,
00000000
00000000
01100000
00000000
,
00000000
00000000
20020000
00000000
00000000
30030000
00000000
00000000
,
10000000
00000000
00000000
00100000
00000000
00000000
01000000
00000000
,
01000000
00010000
00000000
00000000
00100000
00000000
00000000
00001000
,
00000000
00000000
00010000
00000000
00010000
00000100
00000000
00000000
,
00000010
00000000
00000000
00000001
00000000
00000000
00000100
00000000
,
00000100
00000010
00000000
00000000
00001000
00000000
00000000
00000100
,
00000000
00000000
00010000
00000000
00010000
00001000
00000000
00000000
,
00020000
00000000
00000000
00030000
,
00000000
00011000
00000000
00000000
00002000
00000000
00000000
00000000
,
00000000
00000000
00003000
00000000
00000000
00011000
00000000
00000000
,
00200000
00000000
00000000
00300000
,
00000000
01100000
00000000
00000000
02000000
00000000
00000000
00000000
,
00000000
00000000
03000000
00000000
00000000
01100000
00000000
00000000
,
10000000
00000000
00000000
00100000
00000000
00000000
00010000
00000000
,
00000000
00000000
00002000
00000000
,
00000000
00000000
00020000
00000000
00000000
00033000
00000000
00000000
,
00000100
00000000
00000100
00000001
00000000
00000000
00000010
00000000
,
00000010
00001000
00000000
00000000
00010000
00000000
00010000
01000000
,
00000000
00000000
10000000
00000000
10000000
00100000
00000000
00000000
,
01000000
00000000
00100000
00010000
00000000
00000000
00001000
00000000
,
00000100
00000010
00000000
00000000
00000110
00000000
00000000
00000000
,
00000000
00001001
00000000
00000000
,
00002000
00000000
00000000
00010000
00000000
00000000
00010000
00000000
,
00000000
00013000
00000000
00000000
01000000
00000000
00000000
01000000
,
00100000
02200000
00000000
00000000
,
00000000
00000000
00000000
00000000
,
00000000
03300000
00000000
00000000
,
00000000
00000000
00000000
00000000
;
#NOTES:
     dance-double:
     :
     Medium:
     7:
     :
00000000
00000000
00000000
00000000
,
00000000
00000000
00000000
00000000
,
00000000
00000000
00000000
00000000
,
00000000
00000000
00000000
00000000
,
10000000
00000000
10000000
01000000
00000000
00100000
00010000
00000000
,
00100000
00000000
00001000
00000000
00000000
00000000
00001000
00000000
00010000
00000000
00000000
00010000
00000000
00000000
00000000
00000000
,
00000000
00000000
00000000
00000000
00001000
00000000
00000000
00001000
00000000
00000000
00000000
00000000
00000000
00000000
00000000
00000000
,
00020000
00000000
00000000
00000000
00030000
00000000
00000010
00000000
00001000
00000000
00000010
00000000
00000100
00000000
00000000
00000100
,
00000000
00000110
00000000
00000000
00000001
00000010
00000001
00000010
,
00000000
00000000
00000100
00001000
00000100
00001000
00000000
00000000
,
00010000
00000000
00010000
01000000
00000000
00000000
00100000
00000000
,
00100000
10000000
00000000
00000000
00000000
11000000
00000000
00000000
,
01010000
00000000
00000000
01100000
00000000
00000000
00101000
00000000
,
00001000
00000000
00000000
00001000
00000000
00000000
00010000
00000000
00000000
00010000
00000000
00000000
00002000
00000000
00000000
00000000
,
00003000
00000010
00000001
00000010
00000200
00000000
00000300
00000100
,
00010000
00001000
00020000
00000000
00030000
00001000
01000000
00001000
,
02000000
00000000
03000000
00100000
10000000
00100000
01000000
00000000
,
01000000
00010000
00000000
00000000
00010000
00000000
00010000
00001000
,
00000000
00000000
00001000
00000000
00001000
00000010
00000000
00000000
,
00000010
00000000
00000010
00000001
00000000
00000000
00000001
00000100
,
00001000
00000100
00000000
00000000
00001000
00010000
00001000
00010000
,
00000000
00000000
00100000
10000000
00100000
00010000
00000000
00000000
,
00010000
00001000
00010000
00001000
00000000
00000000
00000100
00000001
,
00000100
00000000
00000001
00000000
00001000
00000000
00000001
00000000
00000010
00000000
00000000
00000010
00000000
00000000
00000010
00000000
,
00000000
00000000
00002002
00000000
00000000
00003003
00000000
00000000
,
00000100
00001000
00010000
00001000
00000000
00000000
01000000
00010000
,
00100000
01000000
00000000
00000000
10000000
01000000
00100000
00010000
,
00000000
00000000
01000000
00001000
00010000
00000100
00000000
00000000
,
00000010
00001000
00000010
00000001
00000000
00000000
00000100
00000010
,
00000100
00001000
00000000
00000000
00010000
01000000
00100000
01000000
,
00000000
00000000
10000000
00100000
00010000
00100000
00000000
00000000
,
02000000
00000000
00000000
03000000
00000000
00000000
00002000
00000000
,
00000000
00003000
00000000
00000000
00020000
00000000
00000000
00030000
,
00000000
00000000
00000020
00000000
00000000
00000030
00000000
00000000
,
00000001
00000000
00000100
00000010
00000000
00000000
00000010
00000000
,
00000100
00001000
00000000
00000000
00010000
00000000
00100000
01000000
,
00000000
00000000
10000000
00000000
10000000
01000000
00000000
00000000
,
00010000
00100000
00010000
00100000
00001000
00010000
00001000
00000000
,
00000000
00000000
00020000
00000000
,
00000000
00000000
00002000
00000000
00000000
00033000
00000000
00000000
,
00000100
00000000
00000100
00000001
00000000
00000001
00000010
00000000
,
00000010
00001000
00000000
00000000
00010000
00000000
00010000
01000000
,
00000000
01000000
10000000
00000000
10000000
00100000
00000000
00000000
,
00010000
00000000
00001000
00000100
00000000
00000010
00000001
00000000
,
00000010
00000000
00000100
00000000
00000000
00000000
00000000
00000000
00010000
00000000
00000000
00010000
00000000
00000000
00000000
00000000
,
00000000
00000000
00000000
00000000
00001000
00000000
00000000
00001000
00000000
00000000
00000000
00000000
00000000
00000000
00000000
00000000
,
02000000
00000000
00000000
00000000
03000000
00000000
01000000
00000000
00010000
00000000
10000000
00000000
01000000
00000000
00000000
01000000
,
00000000
01100000
00000000
00000000
00010000
00000000
00001000
00000010
,
00000000
00000001
00002000
00000000
00000000
00000000
00000000
00000000
,
00000000
00000000
00000000
00000000
,
00000000
00003000
00000000
00000000
,
00000000
00000000
00000000
00000000
;
#NOTES:
     dance-double:
     :
     Hard:
     10:
     :
00000000
00000000
00000000
00000000
,
00000000
00000000
00000000
00000000
,
00000000
00000000
00000000
00000000
,
00000000
00000000
00000000
00000000
,
10000000
01000000
01000000
00100000
01000000
01000000
00010000
00001000
,
00010000
00000000
00000100
00000000
00001000
00000000
00000100
00000000
00000010
00000000
00000000
00000011
00000000
00000000
00000000
00000000
,
00000000
00000000
00000000
00000000
00001000
00000000
00000000
00001010
00000000
00000000
00000000
00000000
00000000
00000000
00000000
00000000
,
00000001
00000000
00000100
00000000
00000100
00000000
00001000
00000000
00010000
00000000
00010000
00000000
00001000
00010000
00000000
00001000
,
00000000
00010000
00000000
00000000
00000000
00000000
00000000
00000000
00001000
00000000
00000000
00001000
00000000
00000000
01000000
00000000
,
00010000
00100000
01000000
10000000
10000000
01000000
00100000
00100000
,
00010000
00000000
00100000
00000000
00001000
00000000
00010000
00001000
00010000
00000000
00000000
00000000
00000100
00000000
00001000
00000000
,
00000010
00000000
00010000
00001000
00010000
00000000
00000000
00000000
00000100
00000000
00000001
00000000
00000000
00000000
00000100
00000000
,
00010000
00000000
00001000
01000000
00000000
10000000
01000000
00000000
,
00010000
00000000
00000000
00100000
00000000
00000000
00001000
00000000
00000000
00000010
00000000
00000000
00000002
00000000
00000000
00000000
,
00000003
00000200
00000000
00000300
00002000
00000000
00003000
00020000
,
00000000
00030000
00002000
00000000
00003000
00020000
00000000
00030000
,
02000000
00000000
03000000
20000000
00000000
30000000
00100000
01000000
,
00010000
00000000
00100000
00000000
01000000
00100000
01000000
00000000
00000000
00000000
00010000
00000000
00010000
00000000
00001000
00000000
,
00000010
00001000
00000020
00000000
00000030
00000001
00000100
00001000
,
00020000
00000000
00000000
00000000
00031000
00000000
00010000
00000000
01000000
00000000
10000000
00000000
00100000
00000000
01000000
00100000
,
01000000
00000000
00100000
00000000
00010000
00001000
00010000
00000000
00001000
00000000
00000100
00001000
00000100
00000000
00000001
00000000
,
00001000
00000100
00001000
00000000
00000002
00000000
00002000
00000000
00000000
00000000
00000000
00000000
00000000
00000000
00000000
00000000
,
00003003
00000000
00000000
00000000
00000010
00000100
00000010
00000000
00000001
00000000
00000100
00000000
00000010
00000000
00001000
00000000
,
00000100
00000000
00010000
00000000
00001000
00000000
00100000
00000000
00010000
00000000
00000000
01010000
00000000
00000000
01100000
00000000
,
00000000
10000000
00100000
01000000
00010000
10000000
00000000
00010000
00000000
00100000
00020000
00000000
00000000
00000000
00030000
00000000
,
00100000
00000000
01000000
00000000
10000000
01000000
00100000
00000000
01000000
00000000
00010000
00000000
01000000
00000000
10000000
00000000
,
00010000
01000000
00001000
00000000
00010000
00000000
00000010
00000000
00001000
00000000
00010000
00000000
00001000
00000010
00010000
00000000
,
00001000
00000000
00000010
00000000
00000001
00000000
00000000
00001100
00000000
00000000
00000010
00000000
00000000
00000101
00000000
00000000
,
00000010
00000000
00000100
00000000
00000001
00000100
00000010
00000000
00000100
00000000
00001000
00000000
00000100
00000000
00000001
00000000
,
00000010
00000100
00010000
00000000
00001000
00000000
00100000
00000000
00010000
00000000
00001000
00000000
00010000
00000000
00100000
00000000
,
00010000
01000000
00200000
00000000
00000000
02000000
00000000
03300000
,
10000000
00000000
01000000
00010000
00000000
00001000
00000100
00000000
,
00000001
00000010
00000000
00000001
00000100
00000000
00001000
00010000
,
00000000
01000000
10000000
00000000
00010000
10000000
00000000
00000000
,
10000000
00000000
00100000
00010000
00000000
00001000
00000010
00000000
,
00000001
00000100
00000000
00001000
00020000
00000000
00000000
00030000
,
00001000
00010000
02000000
00000000
00000000
03100000
00000000
00000000
,
10000000
00000000
01000000
00000000
00010000
00000000
00001000
00000000
00000010
00000100
00000010
00000000
00000001
00000000
00000000
00000000
,
00000000
00000000
00000000
00000000
00000021
00000001
00000001
00000130
,
00010000
00001000
01020000
01000000
01000000
00130000
01000000
10000000
,
00010000
00000000
00100000
00000000
00010000
01000000
00001000
00000000
00010000
00000000
00001000
00000000
00000010
00000000
00000100
00000000
,
00001000
00000100
00000010
00000000
00000100
00000000
00000010
00000000
00000001
00000000
00000100
00000000
00000001
00000100
00000010
00000000
,
00000100
00000000
00001000
00000000
00010000
00000000
00001000
00000000
00010000
00100000
01000000
00000000
00010000
00000000
01000000
00000000
,
00100000
00000000
10000000
00000000
00100000
01000000
00010000
00000000
00100000
00000000
00001000
00000000
00010000
00000000
00001000
00000000
,
00000010
00000100
00001000
00000000
00000010
00000000
00001000
00000000
00000001
00000000
00000000
00000101
00000000
00000000
00000000
00000000
,
00000000
00000000
00000000
00000000
00001000
00000000
00000000
00001100
00000000
00000000
00000000
00000000
00000000
00000000
00000000
00000000
,
00010000
00000000
00001000
00000000
01000000
00000000
00010000
00000000
00100000
00000000
01000000
00000000
10000000
00010000
00000000
10000000
,
00000000
00010000
10000000
00000000
00000000
00000000
00000000
00000000
01000000
00000000
00100000
00000000
00010000
00000000
00001000
00000000
,
00000100
00000010
00000002
00000000
00000000
00000000
00000000
00000000
,
00000000
00000000
00000000
00000000
,
00000000
00000003
00000000
00000000
,
00000000
00000000
00000000
00000000
;
