
//----- song ID: inpa -----//
#TITLE:In the past;
#ARTIST:PSYQUI;
#BANNER:In the past.png;
#BACKGROUND:In the past-bg.png;
#CDTITLE:./CDTitles/DDR A20 PLUS.png;
#MUSIC:In the past.ogg;
#SAMPLESTART:73.63;
#SAMPLELENGTH:15;
#BPMS:0=81,36=162;
#NOTES:
     dance-single:
     :
     Beginner:
     4:
     :
0000
0000
0000
0000
,
0000
0000
0000
0000
,
0000
0000
0000
0000
,
0000
0000
0000
0000
,
0000
0000
0000
0000
,
0001
0001
0001
0000
,
1000
1000
1000
0000
,
0010
0000
0100
0000
,
1001
0000
0000
0000
,
0000
0000
0001
0000
,
0010
0000
0001
0000
,
1000
0000
0100
0000
,
1000
0000
0000
0000
,
0010
0000
1000
0000
,
0010
0000
1000
0000
,
0001
0000
0100
0000
,
0001
0000
0000
0000
,
1001
0000
0000
0000
,
0010
0010
0010
0000
,
1001
0000
0000
0000
,
0010
0010
0010
0000
,
1001
0000
0000
0000
,
0100
0100
0100
0000
,
0001
0000
1000
0000
,
1001
0000
0000
0000
,
1000
0000
1000
0000
,
1000
0000
0000
0000
,
0010
0000
0010
0000
,
0010
0000
0000
0000
,
0100
0000
0100
0000
,
0100
0000
0000
0000
,
0001
0000
0001
0000
,
0001
0000
0000
0000
,
0001
0000
0100
0000
,
1000
0000
0010
0000
,
0001
0000
0010
0000
,
1000
0000
0100
0000
,
0001
0001
0100
0000
,
0001
0001
0010
0000
,
1000
1000
0100
0000
,
1001
0000
0000
0000
,
0001
0010
0100
0000
,
0001
0000
0100
0000
,
1000
0010
0100
0000
,
1000
0000
0100
0000
,
0001
0001
0010
0000
,
0010
0010
0100
0000
,
0100
0000
1000
0000
,
1001
0000
0000
0000
,
1000
0010
0100
0000
,
1000
0000
0100
0000
,
0001
0010
0100
0000
,
0001
0000
0100
0000
,
1000
1000
0010
0000
,
0010
0010
0100
0000
,
0100
0000
0001
0000
,
1001
0000
0000
0000
,
0002
0000
0003
0000
,
0020
0000
0030
0000
,
0200
0000
0300
0000
,
2000
0000
3000
0000
,
0001
0000
0010
0000
,
1000
0000
0010
0000
,
0001
0000
0010
0000
,
1000
0000
0001
0000
,
1001
0000
0000
0000
,
0000
0000
0000
0000
;
#NOTES:
     dance-single:
     :
     Easy:
     7:
     :
0000
0000
0000
0000
,
0000
0000
0000
0000
,
0000
0000
0000
0000
,
0000
0000
0000
0000
,
0000
0000
0000
0000
,
0010
0100
0010
0000
0100
0010
0100
0000
,
0001
1000
0001
0000
1000
0001
1000
0000
,
0001
0001
0010
0010
0100
0100
1000
1000
,
0001
1000
0001
0000
1001
0000
0000
0000
,
0001
0100
0001
0010
,
0100
1000
0010
0010
,
1000
0001
0100
0001
,
0010
0100
0110
0000
,
1000
0100
1000
0010
,
0100
0001
0010
0010
,
0001
1000
0100
1000
,
2002
0000
3003
0000
,
0010
1000
0100
1000
,
0010
0100
0001
0001
,
1000
0001
0010
0001
,
0100
0010
0200
0300
,
0001
0010
1000
0010
,
0001
0100
1000
0100
,
0001
0001
1000
1000
,
2002
0000
0000
3003
,
0001
0001
0001
0000
,
0010
0010
0010
0000
,
0100
0100
0100
0000
,
1000
1000
1000
0000
,
0001
0001
0001
0000
,
0100
0100
0100
0000
,
1000
1000
1000
0000
,
0100
0100
0100
0000
,
0001
0100
0010
0010
,
1000
0001
0100
0100
,
0010
1000
0100
0100
,
1000
0001
1000
1000
,
0001
1000
0001
0011
,
1000
0001
1000
1010
,
0100
0010
0100
0010
,
1001
0000
0000
0000
,
0010
1000
0100
0010
,
0001
0010
0100
1001
,
0010
0001
0100
0010
,
1000
0000
0100
0000
0010
0100
0010
0000
,
0001
0100
1000
0100
,
0001
1000
0100
1001
,
0010
0001
0100
0010
,
1000
1000
1000
0000
2002
0000
3003
0000
,
0010
0100
0001
1000
,
0001
0000
0100
0000
0010
1000
0010
0000
,
0100
0001
0010
0100
,
1000
0010
1000
0000
0001
0010
0001
0000
,
0100
0000
0010
0000
1000
0001
1000
0000
,
0100
0000
0010
0000
0001
1000
0001
0000
,
0100
0010
1000
0000
0100
0010
0001
0000
,
2002
0000
0000
3003
,
0020
0030
2000
3000
,
0002
0003
0100
0010
,
0200
0300
0002
0003
,
2000
3000
0100
0010
,
0011
0000
0101
0000
,
1100
0000
1010
0000
,
1001
0000
0110
0000
,
2002
0000
0000
0000
,
3003
0000
0000
0000
,
0000
0000
0000
0000
;
#NOTES:
     dance-single:
     :
     Medium:
     12:
     :
0000
0000
0000
0000
,
0000
0000
0000
0000
,
0000
0000
0000
0000
,
0000
0000
0000
0000
,
0000
0000
0000
0000
,
0001
0000
0100
0000
0001
1000
0001
0000
1000
0000
0100
0000
1000
0001
1000
0000
,
0010
0000
0100
0000
0010
1000
0010
0000
0100
0000
0001
0000
0010
0100
0010
0000
,
0001
0010
0001
0000
0001
0010
0001
0000
1000
0010
1000
0000
1000
0010
1000
0000
,
0001
0100
0001
0100
0010
1000
0001
0000
1001
0000
0000
0000
0000
0000
0000
0000
,
0001
0100
0010
1000
0100
1000
0010
0010
,
1000
0010
0001
0010
1000
0100
1000
1000
,
0020
0230
0310
1000
0001
0100
0001
0001
,
0010
0100
1000
0001
1000
1000
1001
0000
,
1000
0010
0100
0010
1000
0100
0010
0010
,
0001
0100
1000
0100
0001
0010
0001
0001
,
1000
0100
1000
0100
0010
0100
1000
0001
,
2002
0000
0000
0000
3003
0000
0000
1001
,
0000
1001
0010
0100
0010
0001
1000
0100
,
1000
0010
0100
0001
0010
0100
0010
0010
,
0002
0203
0310
1000
0100
0010
1000
0010
,
0001
0100
0010
1000
1010
0000
0101
0000
,
1001
0100
0010
1000
0001
0010
0100
0001
,
0100
0010
0001
1000
0010
0100
0010
0010
,
1000
0010
0001
0010
1000
0010
0001
0000
,
2002
0000
0000
3003
,
0002
0010
0010
0013
,
2000
0010
0010
3010
,
0002
0010
0010
0013
,
2000
0010
0010
3010
,
0200
0001
0001
0301
,
0020
1000
1000
1030
,
0002
0100
0100
0103
,
2000
0010
0010
3010
,
0001
0100
0001
0000
1000
0100
1000
0000
,
0010
1000
0010
0000
0010
0001
0010
0000
,
0001
0010
0001
0000
1000
0010
1000
0000
,
0100
1000
0100
0000
0100
0001
0100
0000
,
0001
0010
0100
1000
0100
0010
0001
0000
,
1000
0010
0100
0001
0100
0010
1000
0000
,
0010
0100
0010
0100
0001
1000
0001
0000
,
1001
0000
0000
0000
,
0001
0010
0001
0010
0100
1000
0100
0010
,
1000
0010
0100
0001
1000
0001
0100
0010
,
0001
1000
0100
0010
0001
0100
0010
1000
,
0100
0000
0010
0000
1000
0000
0001
0100
0001
0000
0010
0000
0001
0000
0000
0000
,
1000
0001
0100
0010
1000
0100
0010
0100
,
0001
1000
0010
0100
0001
0100
0010
0100
,
1000
0001
0010
0100
1000
0001
0100
0010
,
0001
0100
0001
1000
2002
0000
3003
0000
,
0001
0000
0100
0000
0010
0000
0100
0000
0001
0000
0100
0000
0001
0000
1000
0001
,
1000
0100
0010
0001
0100
0100
0010
0010
,
1000
0000
0100
0000
0001
0000
0100
0000
1000
0000
0001
0000
0100
0000
0010
1000
,
0010
0100
0001
0010
0001
0001
1000
1000
,
0010
0000
1000
0000
0010
0000
1000
0000
0100
0000
0010
0000
0001
0000
0100
0010
,
0100
0010
1000
0010
0100
0010
1000
1000
,
0001
0100
1000
0100
0001
1000
0001
1000
,
2002
0000
0000
3003
,
0001
0000
0001
0100
0010
0000
0010
1000
,
0100
0000
0100
0010
0100
0000
0110
0000
,
1001
0000
1000
0100
0010
0000
0010
0001
,
0100
0000
0100
0010
0100
1000
0100
0000
,
0001
0000
0010
0000
,
1000
0000
0100
0000
,
0001
0000
0010
0000
,
2002
0000
0000
0000
,
3003
0000
0000
0000
,
0000
0000
0000
0000
;
#NOTES:
     dance-single:
     :
     Hard:
     16:
     :
0000
0000
0000
0000
,
0000
0000
0000
0000
,
0000
0000
0000
0000
,
0000
0000
0000
0000
,
0000
0000
0000
0000
,
0110
1000
0100
0000
1000
0010
0100
0000
0110
0001
0100
0000
0010
1000
0100
0000
,
1100
0001
0100
0000
0001
0010
0100
0000
0011
1000
0001
0000
0100
0010
1000
0000
,
0001
0100
1000
0100
0001
0010
0100
1000
0001
1000
0100
0001
0100
1000
0010
0100
,
0001
1000
0100
1000
0001
0100
0010
1000
1001
0000
0000
0000
0000
0000
0000
0000
,
1001
0000
0000
0000
0010
0000
0001
0100
0000
0001
0100
0000
0010
0000
1000
0000
,
0100
0000
0001
0000
0100
0000
0010
0001
0000
1000
0100
0000
1000
0000
0010
0100
,
0002
0000
2003
0000
3010
0000
1000
0100
0000
1000
0100
0000
0010
0000
0001
0100
,
0010
0000
0100
0000
0001
0000
1000
0010
0000
0100
0001
0000
0010
0000
0000
0000
,
1001
0000
0000
0000
0100
0000
1000
0001
0000
0100
0001
0000
0010
0000
0100
0000
,
1000
0000
0010
0000
0001
0000
0010
1000
0000
0010
1000
0000
0001
0000
0010
0100
,
2000
0000
0000
0000
3001
0000
0100
0010
0000
0100
0010
0000
1000
0000
0100
0010
,
0002
0000
0000
0000
0000
0000
0003
0110
,
0000
0000
0010
0000
1001
0000
1000
0100
0000
0010
0100
0000
0010
0000
0002
0000
,
1003
0000
0010
0000
0100
0000
1000
0100
0000
0010
0100
0000
0001
0000
0010
0000
,
0002
0000
2003
0000
3010
0000
0001
0010
0000
0100
0010
0000
1000
0000
2002
0000
,
3003
0001
0100
1000
0200
0000
0320
0000
,
1030
0000
1100
0000
0001
0000
0010
0001
0000
0100
0001
0000
1000
0000
1001
0000
,
0010
0000
0100
0000
0001
0000
1000
0100
0000
0010
0001
0000
0100
0000
0110
0000
,
0001
0000
1000
0000
0100
0000
1000
0010
0000
0001
0010
0000
1000
0000
0001
0000
,
1001
0000
0010
1000
0010
1000
0001
0100
0001
0010
0100
1000
0002
0000
0000
0000
,
0103
1000
0100
0100
,
0001
0100
0001
0001
,
0010
0001
0010
0010
,
1000
0010
1000
1000
,
0010
1000
0010
0010
,
0001
0010
0001
0001
,
0100
0001
0100
0100
,
1000
0100
1000
1000
,
0100
1000
0000
1000
0010
0001
0000
0010
,
0001
0100
0000
0001
0100
1000
0000
0100
,
1000
0010
0000
1000
0100
0001
0000
0100
,
0001
0010
0000
0001
0010
1000
0000
0010
,
0001
0100
0001
0100
0010
1000
0100
0010
,
0001
1000
0001
1000
0100
1000
0001
0010
,
0100
1000
0100
0000
0010
0001
0010
0000
0001
1000
0001
0000
0100
0010
0100
0000
,
0110
0000
0000
0000
0000
0000
0000
0000
0000
0000
0010
0100
0001
0010
0100
1000
,
0001
0010
0000
0001
0010
0000
0100
0000
1000
0100
0000
1000
0100
0000
0010
0000
,
0001
1000
0000
0001
1000
0000
0010
0000
0100
0001
0000
0100
0001
0000
1000
0000
,
0010
0100
0000
0010
0100
0000
0010
0000
1000
0100
0000
1000
0100
0000
0010
0000
,
0001
0100
0000
0001
0100
0000
0001
0000
0010
0100
0000
0010
0100
1000
0100
0000
,
0010
0001
0000
1000
0001
0000
0100
0000
0010
1000
0000
0100
1000
0000
0001
0000
,
0010
0100
0000
1000
0100
0000
1000
0000
0010
0100
0000
0001
0100
0000
0001
0000
,
0010
0100
0000
1000
0001
0000
0100
0000
0010
1000
0000
0001
0100
0000
0001
0000
,
1000
0010
0000
0100
0001
0000
1000
0000
1001
0000
0100
0010
0001
1000
0010
0100
,
0001
0010
0000
0010
0100
1000
0001
0000
0100
0010
0000
0010
1000
0100
0010
0000
,
0001
0100
0000
0100
0010
1000
0100
0000
1000
0001
0000
0001
0100
0010
1000
0000
,
0100
0010
0000
0010
0001
0100
0010
0000
0100
0010
0000
0010
1000
0001
0010
0000
,
0001
0100
0000
0100
0010
1000
0100
0000
0010
0001
0000
0001
1000
0010
0100
0000
,
0001
0010
0000
0001
0010
0100
1000
0000
1000
0010
0000
1000
0010
0100
0001
0000
,
0001
0100
0000
0001
1000
0010
0100
0000
0100
0010
0000
1000
0001
0010
0100
0000
,
1000
0001
0000
0100
0001
0010
0100
0000
1000
0010
0000
0100
0001
0010
0100
0000
,
2000
0001
0000
0001
0000
0001
0000
3001
0100
0000
0100
0000
1001
0000
0000
0000
,
0001
0010
0001
0000
0100
0010
0100
0000
,
0001
0010
0100
0000
1000
0100
0010
0000
,
0001
1000
0001
0000
1000
0010
1000
0000
,
0100
0010
0100
0000
1000
0010
0100
0000
,
0001
0000
0000
1000
0100
0000
0000
1000
,
0010
0000
0000
0100
0001
0000
0000
0010
,
0001
0000
0000
0100
1000
0000
0000
0100
,
0001
0000
0000
0100
0020
0000
0030
0000
,
1001
0000
0000
0000
,
0000
0000
0000
0000
;
#NOTES:
     dance-double:
     :
     Easy:
     7:
     :
00000000
00000000
00000000
00000000
,
00000000
00000000
00000000
00000000
,
00000000
00000000
00000000
00000000
,
00000000
00000000
00000000
00000000
,
00000000
00000000
00000000
00000000
,
10000000
00000000
01000000
00000000
00100000
00001000
00010000
00000000
,
00000100
00000000
00001000
00000000
00000010
00000100
00000001
00000000
,
00000001
00000001
00000100
00000000
00001000
00010000
00001000
00000000
,
00010000
00100000
10000000
00000000
10010000
00000000
00000000
00000000
,
10000000
00100000
01000000
00100000
,
10000000
01000000
00010000
00001000
,
00010000
00001000
00000010
00001000
,
00000010
00000001
00001001
00000000
,
00000001
00000010
00000100
00000010
,
00000001
00000100
00001000
00010000
,
00001000
00010000
00100000
10000000
,
20020000
00000000
30030000
00000000
,
00100000
10000000
01000000
10000000
,
00100000
00010000
00001000
00000100
,
00000001
00001000
00000100
00010000
,
00000100
00001000
00000002
00000003
,
00000010
00000001
00000100
00000001
,
00000010
00001000
00010000
01000000
,
10000000
00010000
01000000
00001000
,
00022000
00000000
00000000
00033000
,
00000100
00000000
00000010
00000000
,
00000001
00000001
00000001
00000000
,
00000100
00000000
00001000
00000000
,
00010000
00010000
00010000
00000000
,
00100000
00000000
10000000
00000000
,
01000000
01000000
01000000
00000000
,
00001000
00000000
00010000
00000000
,
00001000
00001000
00001000
00000000
,
00000100
00000001
00000010
00000001
,
00000100
00001000
00010000
00010000
,
01000000
10000000
00100000
10000000
,
01000000
00010000
00001000
00001000
,
00000010
00000001
00000011
00000000
,
00001000
00000100
00001100
00000000
,
00010000
00001000
00100000
00010000
,
10010000
00000000
00000000
00000000
,
00100000
00010000
00100000
10000000
,
01000000
00100000
00001000
00011000
,
00010000
00001000
00000100
00000010
,
00001000
00000000
00000100
00000000
00000010
00000001
00000010
00000000
,
00000001
00000010
00001000
00010000
,
00001000
00000100
00001000
00011000
,
00010000
01000000
00010000
00001000
,
00000100
00000010
00002002
00003003
,
00000010
00001000
00000010
00000001
,
00000100
00000000
00000010
00000000
00010000
00001000
00010000
00000000
,
00001000
00010000
01000000
00100000
,
00010000
01000000
00010000
00000000
10000000
00100000
10000000
00000000
,
00100000
00000000
10000000
00000000
01000000
00010000
01000000
00000000
,
00010000
00000000
00001000
00000000
00010000
00001000
00010000
00000000
,
00001000
00000100
00001000
00000000
00010000
00001000
00010000
00000000
,
00022000
00000000
00000000
00033000
,
00000200
00000300
00000020
00000030
,
00000002
00000003
00001000
00010000
,
02000000
03000000
00200000
00300000
,
20000000
30000000
00010000
00001000
,
00010000
00000000
00001100
00000000
,
00001000
00000000
01010000
00000000
,
00001000
00000000
00010000
00000000
,
00022000
00000000
00000000
00000000
,
00033000
00000000
00000000
00000000
,
00000000
00000000
00000000
00000000
;
#NOTES:
     dance-double:
     :
     Medium:
     12:
     :
00000000
00000000
00000000
00000000
,
00000000
00000000
00000000
00000000
,
00000000
00000000
00000000
00000000
,
00000000
00000000
00000000
00000000
,
00000000
00000000
00000000
00000000
,
10000000
00000000
01000000
00000000
00010000
01000000
00010000
00000000
01000000
00000000
00100000
00000000
00001000
00010000
00001000
00000000
,
00000100
00000000
00000010
00000000
00001000
00000100
00001000
00000000
00000001
00000000
00000010
00000000
00001000
00000001
00001000
00000000
,
00000010
00001000
00000010
00000000
00000010
00010000
00000010
00000000
00010000
00000010
00010000
00000000
00010000
00001000
00010000
00000000
,
00001000
00100000
00010000
01000000
00100000
10000000
00010000
00000000
10010000
00000000
00000000
00000000
00000000
00000000
00000000
00000000
,
10000000
00100000
01000000
00010000
00100000
00001000
00010000
00010000
,
00001000
00000100
00000001
00000100
00000010
00001000
00000100
00000100
,
00000020
00000032
00000103
00000010
00010000
00001000
01000000
01000000
,
00010000
00100000
01000000
10000000
00010000
00000000
10010000
00000000
,
10000000
01000000
00100000
01000000
10000000
00100000
01000000
01000000
,
00010000
00100000
00001000
00010000
00001000
00000010
00000001
00000001
,
00000100
00001000
00000100
00001000
00010000
00001000
00010000
00001000
,
00022000
00000000
00000000
00000000
00033000
00000000
00000000
00011000
,
00000000
01010000
00100000
10000000
00100000
01000000
00010000
00100000
,
00010000
10000000
01000000
00100000
00001000
00010000
00001000
00001000
,
00000020
00000230
00001300
00000001
00000100
00000010
00000001
00000010
,
00001000
00000100
00010000
00001000
00011000
00000000
01010000
00000000
,
10010000
00100000
10000000
01000000
00100000
10000000
00100000
00010000
,
01000000
00001000
00010000
00000100
00001000
00000010
00000100
00000100
,
00000001
00000100
00001000
00000100
00000001
00000100
00001000
00000000
,
00002002
00000000
00000000
00003003
,
00000002
00000010
00000010
00000013
,
00002000
00000010
00000010
00003010
,
00000200
00010000
00010000
00010300
,
00002000
00010000
00010000
00013000
,
00200000
00010000
00010000
00310000
,
20000000
00010000
00010000
30010000
,
00200000
01000000
01000000
01300000
,
00002000
00010000
00010000
00013000
,
00000100
00001000
00000100
00000000
00000010
00000001
00000010
00000000
,
00000001
00000100
00000001
00000000
00001000
00000100
00001000
00000000
,
00000100
00010000
00000100
00000000
00010000
00001000
00010000
00000000
,
00010000
01000000
00010000
00000000
00100000
00010000
00100000
00000000
,
01000000
10000000
01000000
00100000
00010000
00100000
00001000
00010000
,
00000100
00001000
00000100
00000010
00000001
00001000
00000001
00000100
,
00000001
00000100
00000010
00001000
00010000
01000000
00100000
00000000
,
10010000
00000000
00000000
00000000
,
10000000
00100000
10000000
00100000
01000000
00010000
00100000
00001000
,
00010000
00100000
00001000
00010000
00000100
00001000
00000010
00000100
,
00001000
00000001
00000010
00000100
00001000
00000010
00000100
00000010
,
00000001
00000000
00000100
00000000
00001000
00000000
00010000
00001000
00010000
00000000
00001000
00000000
00100000
00000000
00000000
00000000
,
00010000
01000000
00100000
10000000
01000000
00100000
00010000
01000000
,
10000000
00100000
01000000
00010000
00100000
00001000
00010000
00000100
,
00001000
00010000
00000010
00001000
00000010
00000100
00000001
00000010
,
00001000
00000010
00000100
00000001
00002002
00000000
00003003
00000000
,
00000001
00000000
00000100
00000000
00001000
00000000
00000100
00000000
00000010
00000000
00001000
00000000
00000100
00000000
00000010
00000100
,
00000010
00001000
00010000
00001000
01000000
01000000
00100000
00100000
,
10000000
00000000
00100000
00000000
01000000
00000000
00010000
00000000
00100000
00000000
00010000
00000000
01000000
00000000
00100000
10000000
,
00100000
01000000
00010000
00100000
00001000
00001000
00010000
00010000
,
00000100
00000000
00001000
00000000
00000100
00000000
00001000
00000000
00000010
00000000
00000100
00000000
00000001
00000000
00000010
00000100
,
00000010
00000001
00000100
00000010
00000001
00000010
00001000
00001000
,
00000100
00010000
00001000
00010000
01000000
00100000
01000000
00100000
,
02200000
00000000
00000000
03300000
,
10000000
00000000
10000000
01000000
00100000
00000000
00100000
00001000
,
00010000
00000000
00010000
00000100
00001000
00000000
00000110
00000000
,
00001001
00000000
00000001
00000100
00000010
00000000
00000010
00010000
,
00001000
00000000
00001000
01000000
00010000
00100000
01000000
00000000
,
10000000
00000000
01000000
00000000
,
00010000
00000000
00010000
00000000
,
00001000
00000000
00000100
00000000
,
00002002
00000000
00000000
00000000
,
00003003
00000000
00000000
00000000
,
00000000
00000000
00000000
00000000
;
#NOTES:
     dance-double:
     :
     Hard:
     16:
     :
00000000
00000000
00000000
00000000
,
00000000
00000000
00000000
00000000
,
00000000
00000000
00000000
00000000
,
00000000
00000000
00000000
00000000
,
00000000
00000000
00000000
00000000
,
11000000
10000000
01000000
00000000
00100000
00010000
00100000
00000000
00011000
00001000
00010000
00000000
00000100
00001000
00000010
00000000
,
00000101
00000001
00000100
00000000
00000010
00001000
00000010
00000000
00011000
00010000
00001000
00000000
01000000
00010000
00100000
00000000
,
00010000
01000000
10000000
01000000
00010000
00100000
01000000
00010000
00001000
00010000
00001000
00000100
00000010
00000001
00000010
00001000
,
00000001
00000010
00000100
00010000
00001000
00100000
01000000
10000000
10010000
00000000
00000000
00000000
00000000
00000000
00000000
00000000
,
10010000
00000000
00000000
00000000
00100000
00000000
10000000
01000000
00000000
10000000
01000000
00000000
00100000
00000000
00010000
00000000
,
01000000
00000000
00100000
00000000
00010000
00000000
00001000
00010000
00000000
00001000
00010000
00000000
00001000
00000000
00000100
00000010
,
00002000
00000000
00003200
00000000
00000301
00000000
00000100
00000010
00000000
00000100
00000010
00000000
00000001
00000000
00000100
00000000
,
00001000
00010000
00000010
00000100
00002000
00000000
00013000
00000000
,
00011000
00000000
00000000
00000000
00100000
00000000
10000000
00010000
00000000
01000000
00010000
00000000
00100000
00000000
01000000
00000000
,
00010000
00000000
01000000
00000000
10000000
00000000
00010000
01000000
00000000
00010000
01000000
00000000
00001000
00000000
00100000
00001000
,
00020000
00000000
00000000
00000000
00030100
00000000
00001000
00000001
00000000
00001000
00000001
00000000
00000100
00000000
00000001
00000010
,
00000200
00000000
00000000
00000000
00000000
00000000
00000300
00001001
,
00000000
00000000
00000001
00000000
00000110
00000000
00000010
00001000
00000000
00000100
00001000
00000000
00000100
00000000
00020000
00000000
,
00031000
00000000
00100000
00000000
01000000
00000000
10000000
00100000
00000000
00010000
00100000
00000000
10000000
00000000
01000000
00000000
,
00020000
00000000
00032000
00000000
00013000
00000000
00100000
00010000
00000000
00001000
00010000
00000000
00001000
00000000
00022000
00000000
,
00033000
00001000
00000100
00000001
00000020
00000000
00000230
00000000
,
00001300
00000000
00001100
00000000
00000001
00000000
00000010
00000001
00000000
00000100
00000001
00000000
00001000
00000000
00001001
00000000
,
00000010
00000000
00000100
00000000
00010000
00000000
00001000
00100000
00000000
00010000
01000000
00000000
00100000
00000000
01100000
00000000
,
10000000
00000000
01000000
00000000
00010000
00000000
01000000
00100000
00000000
00010000
01000000
00000000
00100000
00000000
00010000
00000000
,
00011000
00000000
00001000
00010000
00000010
00001000
00000010
00001000
00000100
00000010
00000001
00000100
00000020
00000000
00000000
00000000
,
00000130
00000001
00000100
00000000
,
00000100
00001000
00000100
00000000
,
00010000
00001000
00010000
00000000
,
00010000
00100000
00010000
00000000
,
10000000
00100000
10000000
00000000
,
10000000
01000000
10000000
00000000
,
00010000
01000000
00010000
00000000
,
00010000
00001000
00010000
00000000
,
00001000
00010000
00000000
00010000
00001000
00000100
00000000
00001000
,
00000100
00000001
00000000
00000100
00000001
00000010
00000000
00000010
,
00001000
00010000
00000000
00001000
00010000
00100000
00000000
00010000
,
00100000
10000000
00000000
00100000
10000000
01000000
00000000
01000000
,
10000000
00100000
10000000
01000000
00100000
00001000
00010000
00000100
,
00000010
00000001
00000100
00001000
00000100
00000001
00000010
00000100
,
00001000
00000100
00001000
00000000
00000100
00010000
00000100
00000000
00010000
00001000
00010000
00000000
01000000
00100000
01000000
00000000
,
01100000
00000000
00000000
00000000
00000000
00000000
00000000
00000000
00000000
00000000
10000000
01000000
00100000
00010000
00100000
00010000
,
01000000
00100000
00000000
01000000
00100000
00000000
00010000
00000000
00001000
00010000
00000000
00001000
00010000
00000000
00000010
00000000
,
00001000
00000001
00000000
00001000
00000001
00000000
00000010
00000000
00000100
00010000
00000000
00000100
00010000
00000000
00001000
00000000
,
01000000
00010000
00000000
01000000
00010000
00000000
00100000
00000000
01000000
10000000
00000000
01000000
10000000
00000000
01000000
00000000
,
00100000
00001000
00000000
00100000
00001000
00000000
00010000
00000000
00000100
00001000
00000000
00000100
00001000
00000100
00000010
00000000
,
00000001
00000100
00000000
00000001
00000010
00000000
00000100
00000000
00010000
00001000
00000000
01000000
00001000
00000000
00010000
00000000
,
00100000
01000000
00000000
10000000
01000000
00000000
00100000
00000000
10000000
01000000
00000000
00010000
01000000
00000000
00100000
00000000
,
00001000
00010000
00000000
00000010
00001000
00000000
00000001
00000000
00000010
00001000
00000000
00000001
00000100
00000000
00001000
00000000
,
00000010
00000100
00000000
00001000
00010000
00000000
00001000
00000000
00011000
00000000
01000000
00010000
00100000
01000000
10000000
00100000
,
01000000
00010000
00000000
00010000
00100000
00001000
00010000
00000000
00000010
00000100
00000000
00000100
00000001
00000010
00000100
00000000
,
00001000
00000010
00000000
00000010
00000100
00001000
00010000
00000000
00001000
00100000
00000000
00100000
00010000
01000000
00100000
00000000
,
10000000
01000000
00000000
01000000
00100000
00001000
00010000
00000000
00001000
00010000
00000000
00010000
00000010
00000100
00000001
00000000
,
00001000
00000100
00000000
00000100
00000010
00000001
00001000
00000000
00000010
00000100
00000000
00000100
00001000
00010000
00001000
00000000
,
00100000
00010000
00000000
00100000
00010000
10000000
01000000
00000000
01000000
00100000
00000000
00010000
00100000
00001000
00010000
00000000
,
00010000
00000010
00000000
00000010
00001000
00000100
00000010
00000000
00000010
00001000
00000000
00000010
00000001
00000100
00000010
00000000
,
00010000
00001000
00000000
00100000
00010000
01000000
00100000
00000000
00010000
00100000
00000000
10000000
01000000
00100000
00001000
00000000
,
00020000
00001000
00000000
00001000
00000000
00001000
00000000
00031000
00010000
00000000
00010000
00000000
00011000
00000000
00000000
00000000
,
00000010
00001000
00000010
00000000
00000100
00000001
00000100
00000000
,
00000001
00000010
00000100
00000000
00001000
00000000
00010000
00000000
,
01000000
00100000
01000000
00000000
00100000
10000000
00100000
00000000
,
01000000
00100000
00010000
00000000
00001000
00000000
00000001
00000000
,
00000010
00000000
00000000
00000001
00000100
00000000
00000000
00000010
,
00001000
00000000
00000000
00010000
01000000
00000000
00000000
00100000
,
10000000
00000000
00000000
10000000
01000000
00000000
00000000
00100000
,
00010000
00000000
00000000
00010000
00002000
00000000
00003000
00000000
,
00011000
00000000
00000000
00000000
,
00000000
00000000
00000000
00000000
;
