
//----- song ID: ifif -----//
#TITLE:If;
#ARTIST:Pa's Lam System;
#BANNER:If.png;
#BACKGROUND:If-bg.png;
#CDTITLE:./CDTitles/MUSECA 1.5.png;
#MUSIC:If.ogg;
#SAMPLESTART:80.724;
#SAMPLELENGTH:15;
#BPMS:0=170;
#BGSTAGE:15;
#NOTES:
     dance-single:
     :
     Beginner:
     4:
     :
0000
0000
0000
0000
,
0000
0000
0000
0000
,
0000
0000
0000
0000
,
0000
0000
0000
0000
,
0000
0000
0000
0000
,
0002
0000
0000
0000
,
0003
0000
0000
0000
,
2000
0000
0000
0000
,
3000
0000
0000
0000
,
0010
0000
0010
0000
,
0100
0100
0100
0000
,
1000
0000
1000
0000
,
0001
0001
0001
0000
,
0010
0000
0010
0000
,
0001
0001
0001
0000
,
0100
0000
0100
0000
,
1000
1000
1000
0000
,
0010
0000
1000
0000
,
0100
0000
1000
0000
,
0001
0000
0010
0000
,
0001
0000
0100
0000
,
0001
0000
0010
0000
,
0100
0000
1000
0000
,
0001
0001
0001
0000
,
2002
0000
3003
0000
,
1001
0000
0010
0000
,
0100
0100
0010
0000
,
1000
0000
0001
0000
,
0010
0010
0001
0000
,
1000
0000
0100
0000
,
1000
1000
0010
0000
,
1000
0000
0010
0000
,
0001
0000
1001
0000
,
0010
0000
0010
0000
,
0100
0100
0100
0000
,
0001
0001
1000
0000
,
1000
1000
0001
0000
,
0010
0000
0001
0000
,
0100
0010
1000
0000
,
1000
0000
0100
0000
,
0010
0000
1001
0000
,
0200
0000
0300
0000
,
0002
0000
0003
0000
,
0020
0000
0030
0000
,
2000
0000
3000
0000
,
0002
0000
0003
0000
,
0020
0000
0030
0000
,
2000
0000
3000
0000
,
0002
0000
0003
0000
,
1000
0000
0100
0000
,
0010
0010
0010
0000
,
0001
0000
0100
0000
,
0010
0010
0010
0000
,
1000
0000
1000
0000
,
0001
0000
0001
0000
,
1001
0000
0000
0000
,
0110
0000
0000
0000
,
0001
0000
0100
0000
,
0010
1000
0010
0000
,
1000
0000
0001
0000
,
0100
0010
0100
0000
,
1000
0000
0100
0000
,
0010
0001
0010
0000
,
0001
0000
1000
0000
,
0010
0100
0010
0000
,
1000
0000
0100
0000
,
0001
0100
0010
0000
,
0001
0000
0010
0000
,
1000
0010
0100
0000
,
1001
0000
0000
0000
,
0110
0000
0000
0000
,
1000
1000
0010
0000
,
0001
0001
0010
0000
,
2002
0000
0000
0000
,
0000
0000
0000
0000
,
3003
0000
0000
0000
,
0000
0000
0000
0000
;
#NOTES:
     dance-single:
     :
     Easy:
     8:
     :
0000
0000
0000
0000
,
0000
0000
0000
0000
,
0000
0000
0000
0000
,
0000
0000
0000
0000
,
0000
0000
0000
0000
,
2020
0000
0000
3030
,
2200
0000
0000
3300
,
2002
0000
0000
0000
,
0000
0000
0000
3003
,
0010
0001
0010
0000
,
0001
0100
0001
0000
,
0010
1000
0010
0000
,
1000
0100
1000
0000
,
0010
0100
0001
0000
,
0010
0100
1000
0000
,
0001
1000
0100
0000
,
1000
0001
0100
0000
,
0001
0010
0100
1000
,
0100
0010
0001
0000
,
1000
0010
0100
0001
,
0100
0010
1000
0000
,
0100
0010
0100
0000
1000
0000
0001
0000
,
0100
0010
0100
0000
0001
0000
1000
0000
,
0010
0000
0100
0000
0001
1000
0001
0000
,
2002
0000
0000
3003
,
1001
0000
0010
0000
0001
0000
0000
1001
,
0000
0001
0100
0000
0010
0000
0010
0000
,
1001
0000
0010
0000
0100
0000
0000
0110
,
0000
1000
0001
0000
0010
0000
0010
0000
,
1001
0000
0100
0000
0010
0000
0000
0110
,
0000
1000
0100
0000
1000
0000
0001
0000
,
0010
0000
0000
0010
0000
0000
0100
0000
,
0000
0100
0000
0000
0110
0000
0110
0000
,
0000
0000
1000
0000
0001
0000
0000
0110
,
0000
0001
1000
0000
0002
0000
0003
0000
,
1000
0000
0010
0000
0100
0000
0000
0110
,
0000
0001
1000
0000
0010
0000
0010
0000
,
0110
0000
0001
0000
1000
0000
0000
1001
,
0000
1000
0100
0000
0010
0000
0001
0000
,
1000
0000
0000
0010
0000
0000
0001
0000
,
0000
0100
0000
0000
2002
0000
3003
0000
,
0020
0000
0000
0030
,
0200
0000
0000
0300
,
0001
0010
1000
0000
,
1000
0010
0001
0000
,
0200
0000
0000
0300
,
0020
0000
0000
0030
,
1000
0010
0001
0000
,
0001
0010
1000
0000
,
1000
0010
1000
0010
,
0100
0001
0100
0001
,
0010
0100
0010
0100
,
1000
0001
1000
0001
,
0100
0001
0100
0000
0010
0000
1000
0000
,
0100
1000
0100
0000
0010
0000
0001
0000
,
1000
0000
0000
1000
0000
0000
0001
0000
,
0000
0001
0000
0000
1000
0000
1001
0000
,
0000
0001
0100
0010
,
1000
0000
0100
0000
0010
0100
0010
0000
,
0001
0000
1000
0000
0001
0100
0001
0000
,
1000
0010
0100
0001
,
1000
0100
0010
0001
,
0100
0000
0010
0000
0100
0010
0100
0000
,
1000
0100
0001
0100
,
0010
1000
0100
0010
,
0000
0110
1000
0001
,
0100
0001
0010
0010
,
0001
0100
1000
0100
,
0001
0000
1000
0000
0100
0100
0100
0000
,
1000
0000
0001
0000
0010
0000
0000
0110
,
0000
0100
1000
1000
,
0010
0000
0000
0001
0000
0000
0100
0000
,
0000
1000
0010
0100
,
0220
0000
0000
0000
,
0000
0000
0000
0000
,
0330
0000
0000
0000
,
0000
0000
0000
0000
;
#NOTES:
     dance-single:
     :
     Medium:
     12:
     :
0000
0000
0000
0000
,
0000
0000
0000
0000
,
0000
0000
0000
0000
,
0000
0000
0000
0000
,
0000
0000
0000
0000
,
2000
0000
0000
0000
,
3100
0000
0010
0000
,
0002
0000
0000
0000
,
0103
0000
0010
0000
,
1000
0000
0001
0000
1000
0001
1000
0000
,
0100
0000
0010
0000
0100
0010
0100
0000
,
1000
0000
0010
0000
1000
0010
1000
0000
,
0001
0000
0100
0000
0001
0100
0001
0000
,
0010
0000
0001
0000
0010
0001
0010
0000
,
0100
0000
1000
0000
0100
1000
0100
0000
,
1000
0000
0001
0000
1000
0001
1000
0000
,
0010
0100
0010
0100
0010
0000
0100
0000
,
0001
0010
0001
0100
,
0001
0010
0001
0100
,
1000
0010
1000
0100
,
1000
0010
1000
0100
,
1000
0010
0100
0000
0100
0010
1000
0000
,
0001
0010
0100
0000
0100
0010
0001
0000
,
0100
0010
0100
0010
1000
0001
1000
0000
,
2002
0000
0000
3003
,
1001
0000
0001
0001
0100
0010
0000
0110
,
0000
0010
1000
0001
0100
0000
0100
0000
,
1001
0000
1000
1000
0010
0100
0000
0110
,
0000
0010
1000
0001
0200
0000
0310
0000
,
1001
0000
0100
0100
0001
0010
0001
1000
,
0000
0100
0001
0100
2000
0000
3010
0000
,
0100
0000
0100
0001
0000
0001
0010
0000
,
0010
1000
0000
1000
0200
0000
0310
0000
,
0110
0000
0001
0001
1000
0010
0000
0110
,
0000
0100
0001
0010
0002
0000
1003
0000
,
1001
0000
0010
0010
1000
0001
0000
1000
,
0000
0010
0001
0010
2000
0000
3001
0000
,
1001
0000
0000
0000
0100
0000
0010
0000
0001
0000
0000
0001
0000
0000
0001
0000
,
0000
1000
0100
1000
0010
0000
0010
0100
,
0001
0000
0001
0100
0000
0100
1000
0000
,
0000
1000
0010
0000
0010
0001
0010
0000
,
0002
0000
0100
1003
,
2000
0000
0100
3001
,
0011
0000
0010
0000
0100
1000
0100
0000
,
1000
0000
0100
0000
0001
0100
1000
0000
,
0020
0000
1000
0130
,
0200
0000
0001
0310
,
1000
0000
0001
0000
0010
0100
0010
0000
,
0001
1000
0001
0000
0100
0000
0010
0000
1000
0000
1000
0000
1000
0000
0000
0000
,
0010
1000
0010
0000
1000
0100
1000
0000
,
0100
0001
0100
0000
0001
0010
0001
0000
,
1000
0010
1000
0000
0010
0001
0010
0000
,
0001
0100
0001
0000
0100
1000
0100
0000
,
1000
0100
0001
0000
0100
0000
1000
0000
,
0001
0100
1000
0000
0100
0000
0001
0000
,
0010
0000
0000
1001
0000
0000
0100
0000
,
0000
1001
0000
0000
0010
0000
0100
0000
,
0000
0000
0110
0000
0100
0001
0100
0001
,
0000
0001
1000
0010
1000
0100
0010
0000
,
0002
0000
0013
0001
1000
0100
1000
0010
,
0100
0001
0100
0010
1000
0100
0010
0001
,
1000
0010
0001
0000
0001
0010
1000
0000
,
0001
0100
1000
0100
0001
1000
0010
0000
,
1000
0100
0010
0001
0100
0010
1000
0100
,
0000
0100
1000
0010
0001
0010
1000
0000
,
0000
0000
1001
0000
0100
0010
0100
0001
,
0000
0001
1000
0001
0020
0000
0130
0000
,
1000
0010
0001
1000
0100
0001
1000
0010
,
0001
1000
0100
0001
1000
0100
0010
0000
,
1001
0000
0000
0000
0001
0000
0010
0000
0100
0000
0000
0100
0000
0000
0100
0000
,
0000
0100
1000
0010
0100
0001
1000
0000
,
0001
0010
1000
1000
0010
0001
1000
0001
,
0000
0100
0010
0100
0010
0000
1000
0000
,
2002
0000
0000
0000
,
0000
0000
0000
0000
,
3003
0000
0000
0000
,
0000
0000
0000
0000
;
#NOTES:
     dance-single:
     :
     Hard:
     15:
     :
0000
0000
0000
0000
,
0000
0000
0000
0000
,
0000
0000
0000
0000
,
0000
0000
0000
0000
,
0000
0000
0000
0000
,
0020
0000
0000
0000
,
0230
0000
0000
0000
,
0302
0000
0000
0000
,
2003
0000
0002
3003
,
0010
0000
1000
0000
0100
0010
0001
0000
,
0100
0000
0010
0000
1000
0010
0100
0000
,
0001
0000
1000
0000
0100
0010
0100
0000
,
1000
0000
0001
0000
0100
0010
0100
0000
,
1000
0000
0001
0000
0010
0001
0100
0000
,
0001
0000
1000
0000
0100
1000
0010
0000
,
0100
0000
0001
0000
1000
0001
1000
0000
,
0010
1000
0010
0000
0100
0000
0001
0000
0010
0000
0100
1000
0100
0000
0000
0000
,
1001
0000
1000
0000
1000
0010
1000
0000
,
1001
0000
0001
0000
0001
0010
0001
0000
,
0110
0000
0100
0000
0100
1000
0100
0000
,
0110
0000
0010
0000
0010
0001
0010
0000
,
0001
0010
1000
0000
1000
0010
0001
0000
,
1000
0010
0001
0000
0001
0010
1000
0000
,
0001
0100
0001
0000
0010
0001
0010
0000
0100
1000
0100
0000
1000
0010
1000
0000
,
2002
0000
0000
3003
,
1001
0000
0000
0000
0010
0001
0010
0100
0010
0000
0011
0000
0000
0000
1100
0000
,
0000
0000
0001
1000
0001
1000
0001
0000
1001
0000
0000
0000
0110
0000
0000
0000
,
1001
0000
0000
0000
0100
0010
0100
0001
0100
0000
0001
1000
0000
0001
1000
0000
,
0000
1000
0100
0010
0002
0000
2003
0000
,
3001
0000
0000
0000
0100
0010
0100
1000
0100
0000
1000
0001
1000
0000
0010
0000
,
0000
0100
0001
0000
0100
0001
0000
0000
0010
0001
0010
0001
0010
0000
0001
1000
,
0001
0100
0110
1000
0100
0110
0001
0100
,
0110
1000
0100
0110
0002
0000
2003
0000
,
3000
0000
0000
0000
0100
0010
0100
0010
0100
0000
1000
0000
0000
0000
1010
0000
,
0000
0000
0010
0000
0100
0001
0000
0010
0002
0000
0000
0000
1003
0000
0000
0000
,
1001
0000
0000
0000
0100
1000
0100
0010
0100
0000
1000
0010
0000
0100
0010
0000
,
0100
0000
0001
0000
1000
0001
1000
0001
2000
0000
0000
0000
3002
0000
0000
0000
,
1003
0000
0000
0000
0010
0100
0001
0000
1000
0000
0000
1000
0000
0000
1001
0000
,
0000
0000
0100
0010
0001
0000
0010
0100
1000
0000
0001
0000
0100
0000
0010
0000
,
1000
0001
0110
0001
1000
0110
2002
0000
,
3003
0010
0001
0010
1000
0010
0100
0000
,
2000
0010
0100
3010
,
0002
0010
0100
0013
,
0001
0000
0000
0000
0100
0000
0100
0010
0100
0000
0001
0000
0010
0000
0100
0000
,
2000
0000
3010
0001
0010
1000
0001
0000
,
0020
0001
1000
0031
,
0200
1000
0001
1300
,
0010
1000
0001
0000
0100
0010
1000
0000
,
0001
0010
0100
0000
1000
0000
0010
0000
1000
0000
0001
0100
0001
0010
0001
0000
,
1000
0100
1000
0100
0010
0001
0100
0001
,
0010
0001
0010
0001
0100
0010
1000
0010
,
0100
0001
0100
0001
1000
0100
0010
0001
,
1000
0001
1000
0001
0100
0010
0100
0010
,
1000
0010
0001
0000
1000
0100
0001
0000
,
0001
0010
1000
0000
0001
0100
1000
0000
,
0011
0000
0000
1100
0000
0000
1010
0000
,
0000
0101
0000
0000
1001
0000
1001
0000
,
0000
0000
0010
0010
0100
0010
0000
1001
,
0000
0000
0000
0000
0110
0000
0100
0010
1000
0000
0100
0010
0001
0000
0100
0010
,
1000
0000
0000
0000
0100
0010
0100
1000
0100
0000
1000
0010
0000
0100
0001
0000
,
1000
0001
0010
0000
0001
1000
0010
0000
0100
0001
1000
0000
0100
1000
0001
0000
,
0010
0000
0001
0000
1000
0000
0010
0000
0100
0001
0100
0001
0100
0000
0010
0000
,
1000
0000
0001
0000
0010
0100
1000
0001
0010
0000
0001
0000
0100
0000
0001
0000
,
1000
0000
0010
0000
0100
0001
0010
0000
0001
0000
1000
0010
0100
0000
0001
0000
,
1000
0100
0010
0000
0100
0000
1000
0001
1000
0000
0000
0000
1001
0000
0000
0000
,
0000
0000
0000
0000
0010
0100
0010
0100
0010
0000
0001
0000
0000
0000
1100
0000
,
0000
0000
0010
0100
1000
0000
0010
0100
0002
0000
0000
0000
1003
0000
0000
0000
,
1001
0000
0000
0000
0010
0100
0001
1000
0010
0000
0100
0001
0000
0100
0010
0000
,
1000
0000
0100
0010
0001
0000
1000
0001
0100
0000
0000
0000
0010
0000
0000
0000
,
1001
0000
0000
0000
1000
0100
0010
0001
0100
0000
0000
0100
0000
0000
0110
0000
,
0000
0000
0010
1000
0100
0000
1000
0010
0100
0000
0000
0000
1001
0000
0000
0000
,
0001
0000
0010
0100
0010
0000
1000
0000
0010
0100
0010
0000
0001
0000
1000
0000
,
0000
1000
0100
0001
0100
1000
0001
0100
,
0220
0000
0000
0000
,
0000
0000
0000
0000
,
0330
0000
0000
0000
,
0000
0000
0000
0000
;
#NOTES:
     dance-single:
     :
     Challenge:
     17:
     :
0000
0000
0000
0000
,
0000
0000
0000
0000
,
0000
0000
0000
0000
,
0000
0000
0000
0000
,
0000
0000
0000
0000
,
2002
0000
0000
3000
,
0200
0003
0020
0330
,
0220
0000
0000
0300
,
2000
0030
0002
3000
,
0023
0000
0032
0000
2003
0000
3100
0002
,
0000
0000
0000
0003
0001
0100
1000
0002
,
0000
2003
0000
3100
0001
0100
1000
0001
,
0000
0101
0000
0100
0020
0000
0030
0000
,
0020
0000
2030
0000
3002
0000
0013
2000
,
0000
0000
0000
3000
1000
0010
0001
1000
,
0001
0010
0100
1000
0001
0010
0100
1000
,
0001
0010
0100
0000
1000
0000
0001
0000
1000
0000
0010
0100
0010
0100
0010
0000
,
1001
0000
1000
0100
0010
0000
0001
0000
0100
0010
0000
0100
0010
0000
0010
0000
,
1001
0000
0001
0100
0010
0000
1000
0000
0100
0010
0000
0100
0010
0000
0010
0000
,
1001
0000
1000
0001
0100
0000
0010
0000
1000
0100
0000
1000
0100
0000
0100
0000
,
1001
0000
0001
1000
0100
0000
0010
0000
0001
0100
0000
0001
0100
0000
0100
0000
,
0010
1000
0010
1000
0001
0100
0001
0100
,
0010
1000
0100
0001
0100
1000
0010
0001
,
0010
0100
0010
0100
0010
1000
0010
1000
0100
0010
0100
0010
0001
0010
0100
1000
,
0001
1000
0001
0000
0100
0000
0110
0000
0010
1000
0010
0100
0001
0000
0000
0000
,
1001
0000
0000
0000
1000
0100
0001
0100
1000
0000
1010
0000
0000
0000
0101
0000
,
0000
0000
0001
0010
1000
0010
0001
0000
0011
0000
0000
0000
1100
0000
0000
0000
,
1001
0000
0000
0000
0001
0100
0010
0100
0001
0000
0010
1000
0000
0001
0100
0000
,
2000
0000
3010
0000
0001
0010
0001
0010
1000
0010
1000
0100
0010
0001
0100
0010
,
0100
0000
0000
0000
0001
0100
1000
0100
0001
0000
0010
0100
1000
0000
1100
0000
,
0000
1000
0010
0000
0001
1000
0100
0000
0001
0010
0100
1000
0001
0010
0100
1000
,
0001
0000
0101
0000
0001
1000
0100
0000
0110
0000
0010
0001
0100
0000
0110
0000
,
0010
0100
0001
0000
0011
0000
0001
0100
2000
0000
3000
0000
0200
0000
0300
0000
,
0020
0000
0030
0000
0001
0010
1000
0100
0001
0000
0101
0000
0000
0000
1100
0000
,
0000
0000
0001
0000
0100
0010
0000
0010
0200
0000
0000
0000
1300
0000
0000
0000
,
0110
0000
0000
0000
0010
0100
1000
0100
0001
0000
0010
0001
0000
0010
1000
0000
,
0010
0000
0001
0000
0001
1000
0001
1000
0010
0100
0001
1000
0001
0100
0010
1000
,
0001
0000
0000
0000
1000
0010
0100
0001
0010
0000
0000
0011
0000
0000
1001
0000
,
0000
0000
0001
1000
0200
0000
0000
0000
0301
0100
0010
0100
1000
0100
0001
0100
,
1000
0000
0010
0001
0010
0000
1000
0000
0100
0000
0001
0100
0002
0000
0000
0000
,
0003
0101
0000
0000
0110
0000
1001
0000
,
0020
0000
0000
0000
0030
0000
0000
0000
0010
0000
0010
0100
0010
0000
2002
0000
,
0000
0000
3003
0000
1001
0000
0000
0000
1010
0000
0010
0100
0001
0000
1000
0000
,
0200
0000
0300
0000
0100
0000
0100
0001
0100
1000
0010
0001
0020
0000
2030
0000
,
3200
0000
0000
0000
0310
0000
0001
0000
0010
0000
0010
0001
0020
0000
0000
0000
,
0032
0000
0000
0000
0000
0000
0003
0000
0001
0010
0100
0000
1000
0000
2020
0000
,
0000
0000
3030
0000
1000
0000
0010
0000
0100
0000
0001
1000
0010
0000
0100
0000
,
0002
0000
0103
0010
0100
0010
0100
0010
,
0100
0010
1000
0000
0100
0000
0010
0000
0001
0000
0010
0100
1000
0010
0100
0010
,
1000
0000
0000
0000
1000
0000
0000
0000
0100
0000
0000
0000
0100
0000
0100
0010
,
0001
0000
0000
0000
0001
0000
0000
0000
0100
0000
0000
0000
0100
0000
0100
0010
,
1000
0000
0000
0000
0010
0000
0000
0000
1000
0000
0000
0000
0010
0000
0100
0001
,
0010
0001
0010
0001
,
1000
0100
1000
0100
0001
0100
1000
0100
,
1000
0010
1000
0010
0001
0010
1000
0010
,
1010
0000
0000
1001
0000
0000
0101
0000
,
0100
0001
0100
0000
0010
0000
1000
0000
0100
0010
0100
0010
0001
1000
0001
1000
,
0000
0000
0000
0000
1001
0000
0001
0000
0100
0010
0001
0010
0100
0000
0001
0000
,
0010
0000
1000
0010
0001
0000
1000
0000
0100
0001
0100
0001
0100
1000
0100
1000
,
0100
0000
0000
0000
1000
0010
0001
0010
1000
0000
0001
0100
0000
1000
0001
0000
,
0010
1000
0010
1000
0100
0001
0100
0001
1000
0010
1000
0010
0001
0100
0001
0100
,
0001
0000
0100
1000
0100
0000
0001
0000
0010
0100
0001
0100
0010
0000
1000
0000
,
1000
0010
0100
0000
1000
0010
0100
0000
1000
0100
0010
0100
1000
0000
0100
0000
,
0001
0000
0011
0000
0001
0010
0100
0000
1100
0000
1000
0100
0010
0000
0011
0000
,
0001
0100
0010
0000
1010
0000
0001
0000
1000
0000
0010
0000
0202
0000
0000
0000
,
0303
0000
0000
0000
0010
0001
0100
0010
1000
0000
1020
0000
0000
0000
0031
0000
,
0000
0000
0001
0010
0100
0001
0010
0100
2000
0000
0000
0000
3100
0000
0000
0000
,
1000
0010
1000
0010
0100
0001
0010
0001
0010
0001
1000
0100
1000
0001
1000
0001
,
0000
0001
0100
0010
1000
0010
1000
0010
0100
0001
0100
0001
0100
0010
1000
0100
,
0010
0000
0000
0000
0001
0100
1000
0100
0001
0000
0000
0011
0000
0000
1001
0000
,
0000
0000
1000
0100
0010
0000
0001
0100
0000
0100
0001
0010
0100
1000
0100
1000
,
0010
0000
0110
0000
0001
1000
0100
0000
0110
0000
0001
1000
0010
0000
2010
0000
,
0000
3100
0001
0010
0001
0100
1000
0010
,
0200
0000
0000
0000
,
0000
0000
0000
0000
,
0300
0000
0000
0000
,
0000
0000
0000
0000
;
#NOTES:
     dance-double:
     :
     Easy:
     8:
     :
00000000
00000000
00000000
00000000
,
00000000
00000000
00000000
00000000
,
00000000
00000000
00000000
00000000
,
00000000
00000000
00000000
00000000
,
00000000
00000000
00000000
00000000
,
20000000
00000000
00000000
30000000
,
02000000
00000000
00000000
03000000
,
00200000
00000000
00000000
00000000
,
00000000
00000000
00000000
00300000
,
00001000
00010000
00001000
00000000
,
00010000
00001000
00010000
00000000
,
00001000
00000010
00000001
00000000
,
00000010
00000001
00000100
00000000
,
00000010
00000100
00000010
00000000
,
00000100
00000010
00000100
00000000
,
00000100
00001000
00010000
00000000
,
00001000
00010000
00001000
00000000
,
01000000
00010000
01000000
00010000
,
00100000
01000000
10000000
00000000
,
00100000
01000000
00100000
01000000
,
00010000
00100000
00010000
00000000
,
00100000
00001000
00010000
00000100
,
00001000
00000010
00000100
00000001
,
00000010
00000000
00000100
00000000
00001000
00000001
00001000
00000000
,
00002002
00000000
00000000
00003003
,
00000100
00000000
00001000
00000000
00010000
00001000
00000000
00011000
,
00000000
00010000
00100000
00100000
,
10000000
00000000
01000000
00000000
00010000
01000000
00000000
01100000
,
00000000
00010000
10000000
10000000
,
01000000
00000000
00100000
00000000
00001000
00000000
00000000
00011000
,
00000000
00010000
00001000
00000000
00000010
00000000
00000010
00000000
,
00000001
00000000
00000000
00000100
00000000
00000000
00000010
00000000
,
00000000
00001000
00000000
00000000
00010000
00000000
00010000
00000000
,
00000000
00000000
01000000
00000000
00100000
01000000
00000000
01100000
,
00000000
00010000
20000000
30000000
,
10000000
00000000
01000000
00000000
00100000
01000000
00000000
00110000
,
00000000
00001000
00010000
00010000
,
00001000
00000000
00000010
00000000
00000100
00000000
00000000
00000110
,
00000000
00000001
00000100
00000000
00001000
00000000
00001000
00000000
,
00010000
00000000
00000000
00010000
00000000
00000000
00001000
00000000
,
00000000
00001000
00000000
00000000
00022000
00000000
00033000
00000000
,
02000000
00000000
00000000
03000000
,
00200000
00000000
00000000
00300000
,
10000000
01000000
00100000
00010000
,
00001000
00000100
00000010
00000001
,
00000200
00000000
00000000
00000300
,
00000020
00000000
00000000
00000030
,
00000001
00000100
00000010
00001000
,
00010000
01000000
00100000
10000000
,
01000000
00100000
01000000
00000000
,
00010000
00000000
00001000
00000000
,
00000010
00000100
00000010
00000000
,
00000001
00000000
00000100
00000000
,
00001000
00010000
00001000
01000000
,
00010000
00100000
01000000
10000000
,
00100000
00000000
00000000
00100000
00000000
00000000
01000000
00000000
,
00000000
01000000
00000000
00000000
00001000
00000000
00010000
00000000
,
00000000
00011000
00000100
00001000
,
00000010
00000001
00000010
00001000
,
00000100
00010000
00001000
01000000
,
00010000
00100000
00010000
00000000
00100000
00000000
00000000
00000000
,
10000000
01000000
00010000
01000000
,
00100000
00001000
00010000
00001000
,
00010000
00000010
00001000
00000010
,
00000001
00000000
00000010
00000000
00001000
00000001
00001000
00000000
,
00000000
00000110
00000001
00001000
,
00000010
00010000
00001000
00001000
,
00100000
00010000
01000000
10000000
,
01000000
00000000
00010000
00000000
10000000
00010000
10000000
00000000
,
01000000
00000000
00100000
00000000
00001000
00000000
00000000
00011000
,
00000000
00010000
00001000
00000000
00000100
00000000
00000100
00000000
,
00000001
00000000
00001000
00000001
00000000
00001000
00000001
00000000
,
00000100
00001000
00010000
00000000
,
00022000
00000000
00000000
00000000
,
00000000
00000000
00000000
00000000
,
00033000
00000000
00000000
00000000
,
00000000
00000000
00000000
00000000
;
#NOTES:
     dance-double:
     :
     Medium:
     12:
     :
00000000
00000000
00000000
00000000
,
00000000
00000000
00000000
00000000
,
00000000
00000000
00000000
00000000
,
00000000
00000000
00000000
00000000
,
00000000
00000000
00000000
00000000
,
02000000
00000000
00000000
00000000
,
03100000
00000000
00010000
00000000
,
00002000
00000000
00000000
00000000
,
00003010
00000000
00000100
00000000
,
00001000
00000000
00000001
00000000
00001000
00000001
00001000
00000000
,
00000010
00000000
00000100
00000000
00000010
00000100
00000010
00000000
,
00000100
00000000
00001000
00000000
00010000
00001000
00010000
00000000
,
00001000
00000000
00010000
00000000
00100000
00010000
00100000
00000000
,
10000000
00000000
00010000
00000000
10000000
00010000
10000000
00000000
,
01000000
00000000
00100000
00000000
00010000
00100000
00010000
00000000
,
01000000
00000000
00001000
00000000
00010000
00001000
00010000
00000000
,
00001000
00010000
00001000
00010000
00001000
00000000
00000000
00000000
,
00010000
00010000
00000100
00000100
,
00000010
00000010
00000100
00000100
,
00010000
00010000
00001000
00001000
,
01000000
01000000
00100000
00100000
,
10000000
01000000
00100000
00000000
00010000
01000000
00100000
00000000
,
01000000
00001000
00010000
00000000
00000100
00001000
00000010
00000000
,
00000100
00000001
00000100
00000001
00001000
00000010
00010000
00002000
,
00020000
00000000
00000000
00033000
,
00011000
00000000
00010000
00010000
00100000
01000000
00100000
01000000
,
00000000
01000000
10000000
01000000
00010000
00000000
00010000
00000000
,
10010000
00000000
10000000
10000000
01000000
00100000
00000000
00100000
,
00000000
00001000
00010000
00000100
00002000
00000000
00003010
00000000
,
00001001
00000000
00000001
00000001
00000100
00000010
00001000
00000100
,
00000000
00010000
00001000
00010000
00002000
00000000
00013000
00000000
,
00011000
00000000
00010000
00100000
00000000
00100000
10000000
00000000
,
10000000
01000000
00000000
01000000
00200000
00000000
01300000
00000000
,
01100000
00000000
00010000
00010000
00001000
00000010
00000000
00000110
,
00000000
00000100
00000010
00000001
00000020
00000000
00000130
00000000
,
00001001
00000000
00000010
00000010
00001000
00000100
00000000
00000100
,
00010000
00001000
01000000
00010000
00200000
00000000
01300000
00000000
,
01100000
00000000
00000000
00000000
10000000
00000000
00100000
00000000
00010000
00000000
00000000
00001000
00000000
00000000
00010000
00000000
,
00000000
00010000
00000100
00001000
00000100
00000000
00000010
00000001
,
00000010
00000000
00000001
00000100
00000000
00000100
00001000
00000000
,
00000000
00001000
00010000
00000000
00010000
00001000
00010000
00000000
,
00002000
00000010
00000010
00003000
,
00020000
00100000
00100000
00030000
,
00011000
00000000
00010000
00001000
00010000
00000000
01000000
00000000
,
10000000
00100000
00010000
00000000
,
00020000
00100000
00100000
00030000
,
00002000
00000010
00000010
00003000
,
00010000
00000000
00001000
00000000
00000100
00000010
00000100
00000000
,
00000001
00000000
00000010
00000000
00001000
00010000
00001000
00000000
,
00010000
00000000
00001000
00000000
01000000
00010000
00100000
00000000
,
01000000
00000000
10000000
00000000
00100000
01000000
00010000
00000000
,
00100000
00000000
00001000
00000000
00010000
00000010
00001000
00000000
,
00000100
00000000
00000010
00000000
00000001
00000010
00000100
00000000
,
00001000
00000000
00000010
00000000
00000100
00001000
00010000
00000000
,
00100000
00000000
01000000
00000000
00010000
00100000
01000000
00000000
,
10000000
00000000
00000000
00100000
00000000
00000000
00010000
00000000
,
00000000
00001000
00000000
00000000
00010000
00000000
00011000
00000000
,
00000000
00000000
00011000
00000000
00010000
00000010
00001000
00000010
,
00000000
00000010
00001000
00000000
00000001
00000010
00000100
00000000
,
00020000
00000000
00031000
01000000
00010000
00100000
01000000
00000000
,
10000000
00100000
01000000
00100000
00010000
00001000
00010000
00000000
,
00000100
00001000
00000010
00000000
00000100
00000001
00000010
00000000
,
00000001
00000100
00001000
00000000
00000100
00001000
00010000
00000000
,
00100000
01000000
00100000
10000000
00100000
01000000
00010000
00100000
,
00000000
01000000
00010000
00000000
00011000
00000000
00011000
00000000
,
00000000
00000000
00001010
00000000
00000010
00001000
00000100
00000010
,
00000000
00000010
00000001
00001000
00000002
00000000
00000103
00000000
,
00000010
00000100
00001000
00010000
00100000
01000000
00100000
00010000
,
00001000
00000100
00000010
00000000
00010000
00001000
00010000
00000000
,
00011000
00000000
00000000
00000000
00010000
00000000
01000000
00000000
10000000
00000000
00000000
10000000
00000000
00000000
10000000
00000000
,
00000000
00010000
10000000
00000000
00100000
01000000
00100000
00000000
,
00010000
00000000
00001000
00000010
00000000
00000100
00000010
00000001
,
00000000
00000100
00001000
00000100
00001000
00000000
00010000
00000000
,
00022000
00000000
00000000
00000000
,
00000000
00000000
00000000
00000000
,
00033000
00000000
00000000
00000000
,
00000000
00000000
00000000
00000000
;
#NOTES:
     dance-double:
     :
     Hard:
     15:
     :
00000000
00000000
00000000
00000000
,
00000000
00000000
00000000
00000000
,
00000000
00000000
00000000
00000000
,
00000000
00000000
00000000
00000000
,
00000000
00000000
00000000
00000000
,
20000000
00000000
00000000
00000000
,
30200000
00000000
00000000
00000000
,
00320000
00000000
00000000
00000000
,
00032000
00000000
00013000
00000000
,
00010000
00000100
00001000
00000000
00000010
00000100
00000001
00000000
,
00000010
00000100
00000010
00000000
00001000
00010000
00001000
00000000
,
01000000
00010000
00100000
00000000
00010000
00100000
01000000
00000000
,
10000000
01000000
00010000
00000000
01000000
10000000
00010000
00000000
,
00100000
01000000
00010000
00000000
00001000
00010000
00001000
00000000
,
00000010
00000100
00001000
00000000
00000010
00000100
00001000
00000000
,
00000100
00000010
00000100
00000000
00000001
00001000
00000001
00000000
,
00001000
00000100
00010000
00001000
00100000
00010000
01000000
00100000
,
10000000
00000000
00100000
00000000
10000000
00000000
00100000
00000000
01000000
00010000
00000000
01000000
00010000
00000000
00100000
00000000
,
00001000
00000000
00010000
00000000
00001000
00000000
00010000
00000000
00000010
00001000
00000000
00000010
00001000
00000000
00000001
00000000
,
00000010
00000000
00000100
00000000
00000010
00000000
00000100
00000000
00001000
00000100
00000000
00001000
00000100
00000000
00010000
00000000
,
00001000
00000000
00100000
00000000
00001000
00000000
00100000
00000000
00010000
01000000
00000000
00010000
01000000
00000000
00100000
00000000
,
10000000
00100000
00010000
00100000
00010000
00100000
10000000
01000000
,
00100000
00001000
00010000
00001000
00000010
00000100
00001000
00000001
,
00000100
00000000
00001000
00000000
00000100
00000000
00000010
00000000
00010000
00000000
00001000
00000000
00010000
00001000
00010000
00000000
,
00022000
00000000
00000000
00033000
,
00011000
00000000
00000000
00000000
01000000
00010000
01000000
00010000
01000000
00000000
00100000
00000000
00000000
00000000
10100000
00000000
,
00000000
00000000
10000000
01000000
10000000
01000000
10000000
00000000
02000000
00000000
00000000
00000000
03010000
00000000
00000000
00000000
,
00011000
00000000
00000000
00000000
00000100
00001000
00000010
00000000
00000100
00000000
00000001
00001000
00000000
00000001
00001000
00000000
,
00000000
00000001
00000010
00000100
00002000
00000000
00003010
00000000
,
00000110
00000000
00000000
00000000
00000010
00001000
00000010
00001000
00000010
00000000
00010000
00000000
00001000
00000000
00011000
00000000
,
00000000
01000000
00010000
00000000
00100000
00010000
00000000
00000000
01000000
00010000
01000000
00000000
00100000
00000000
10000000
00000000
,
01000000
01000000
00010000
00100000
00001000
00010000
00000100
00000100
,
00000010
00001000
00000001
00000010
00002000
00000000
00013000
00000000
,
00011000
00000000
00000000
00000000
00010000
00001000
00010000
00001000
00010000
00000000
00100000
00000000
00000000
00000000
10100000
00000000
,
00000000
00000000
10000000
00000000
01000000
00100000
00000000
01000000
00200000
00000000
00000000
00000000
00310000
00000000
00000000
00000000
,
10010000
00000000
00000000
00000000
00010000
01000000
00001000
00010000
00001000
00000000
00010000
00000010
00000000
00001000
00000010
00000000
,
00000100
00000000
00000001
00000000
00000010
00000100
00000010
00000000
00000002
00000000
00000000
00000000
00001003
00000000
00000000
00000000
,
00001001
00000000
00000000
00000000
00000010
00000100
00000001
00000000
00000100
00000000
00000000
00000100
00000000
00000000
00000100
00000000
,
00000000
00000000
00001000
00010000
00001000
00010000
00001000
00000000
00010000
00000000
01000000
00000000
10000000
00000000
00000000
00000000
,
10000000
00100000
00100000
01000000
00010000
00001000
00000010
00000000
,
00000000
00000001
00000100
00000000
00000011
00000000
00000101
00000000
,
00000020
00000001
00000000
00010030
,
00001000
00100000
00010000
00000000
00100000
00000000
01000000
00000000
,
00200000
10000000
00000000
00301000
,
00010000
00001000
00010000
00010000
00001000
00001000
00010000
00000000
,
00000200
00000001
00000000
00010300
,
00000010
00001000
00010000
00000000
01000000
00001000
00010000
00000000
,
02000000
10000000
00000000
03001000
,
00010000
00100000
00001000
00010000
00000010
00000100
00001000
00010000
,
00100000
00000000
00100000
00000000
10000000
01000000
00010000
00000000
,
00001000
00000000
00001000
00000000
00000010
00000001
00000100
00000000
,
00001000
00010000
00001000
00000000
00001000
00000010
00001000
00000000
,
00001000
00010000
00100000
00010000
00001000
00010000
00001000
00000000
,
01000000
00010000
00100000
00010000
01000000
00100000
10000000
01000000
,
10000000
00010000
00100000
00001000
00010000
00000010
00000100
00000001
,
00000011
00000000
00000000
00001010
00000000
00000000
00000101
00000000
,
00000000
00001100
00000000
00000000
00011000
00000000
00011000
00000000
,
00000000
00000000
00001000
00010000
01000000
10000000
00000000
10010000
,
00000000
00000000
00000000
00000000
01100000
00000000
00010000
00100000
00010000
00000000
01000000
00001000
01000000
00000000
00001000
00000000
,
00020000
00000000
00000000
00000000
00030100
00010000
00000100
00001000
00000100
00000000
00000010
00000100
00000000
00000010
00000100
00000000
,
00001000
00000001
00000100
00000000
00000010
00000100
00000001
00000000
00000010
00000000
00001000
00000000
00010000
00000000
01000000
00000000
,
10000000
00000000
00100000
00000000
00010000
00000000
00100000
00000000
10000000
00010000
10000000
00010000
10000000
00000000
01000000
00000000
,
00010000
00001000
00100000
00001000
00010000
00001000
00000010
00000100
,
00001000
00000000
00000010
00000000
00000100
00000001
00000100
00000000
00000001
00000000
00000010
00000100
00001000
00000000
00000100
00000000
,
00010000
00001000
00010000
00000000
00100000
00000000
01000000
00100000
01000000
00000000
00000000
00000000
01100000
00000000
00000000
00000000
,
00000000
00000000
00000000
00000000
00010000
10000000
00010000
10000000
00010000
00000000
00100000
00000000
00000000
00000000
01100000
00000000
,
00000000
00000000
01000000
00100000
00010000
00000000
00100000
00001000
00020000
00000000
00000000
00000000
00031000
00000000
00000000
00000000
,
00011000
00000000
00000000
00000000
00000010
00001000
00000010
00001000
00000010
00000000
00000100
00000001
00000000
00000010
00000001
00000000
,
00000100
00000010
00000100
00000000
00001000
00000100
00001000
00000000
00010000
00000000
00000000
00000000
01000000
00000000
00000000
00000000
,
01100000
00000000
00000000
00000000
10000000
01000000
00100000
00010000
00100000
00000000
00000000
00001000
00000000
00000000
00011000
00000000
,
00000000
00000000
00010000
00000100
00001000
00000000
00000010
00000100
00000001
00000000
00000000
00000000
00000001
00000000
00000000
00000000
,
00000100
00000000
00001000
00010000
00001000
00000000
01000000
00000000
00010000
00100000
01000000
00000000
10000000
00000000
00010000
00000000
,
00000000
00010000
01000000
00001000
00100000
00001000
00010000
00000000
,
00022000
00000000
00000000
00000000
,
00000000
00000000
00000000
00000000
,
00033000
00000000
00000000
00000000
,
00000000
00000000
00000000
00000000
;
#NOTES:
     dance-double:
     :
     Challenge:
     17:
     :
00000000
00000000
00000000
00000000
,
00000000
00000000
00000000
00000000
,
00000000
00000000
00000000
00000000
,
00000000
00000000
00000000
00000000
,
00000000
00000000
00000000
00000000
,
20000000
00000000
00000000
00000000
,
30200000
00000000
00320000
00000000
,
00032000
00000000
00000000
00000000
,
00003002
00000000
00000203
00000000
,
00020300
00000000
00030020
00000000
00000230
00000000
00001300
00020000
,
00000000
00000000
00000000
00030000
00010000
00001000
00010000
01000000
,
00000000
01100000
00000000
00000000
00100000
01000000
00010000
00001000
,
00000000
00011000
00000000
00001000
00000200
00000000
00000000
00000000
,
00000302
00000000
00000023
00000000
00002030
00000000
00103000
02000000
,
00000000
00000000
00000000
03000000
01000000
00010000
01000000
10000000
,
00000000
00100000
00010000
00000000
00001000
00000100
00000001
00000010
,
00000001
00001000
00000001
00000000
00000100
00000000
00010000
00000000
00001000
00000000
00100000
00000000
00010000
00000000
00001000
00000000
,
00010000
00000000
01000000
10000000
01000000
00000000
00100000
00000000
00010000
10000000
00000000
00010000
10000000
00000000
00100000
00000000
,
00010000
00000000
00001000
00010000
00001000
00000000
00000010
00000000
00000100
00001000
00000000
00000100
00001000
00000000
00000010
00000000
,
00000100
00000000
00000001
00000010
00000100
00000000
00001000
00000000
00000001
00000100
00000000
00000001
00000100
00000000
00000010
00000000
,
00001000
00000000
00000010
00010000
00001000
00000000
01000000
00000000
00010000
00100000
00000000
00010000
00100000
00000000
01000000
00000000
,
10000000
01000000
00010000
00000000
00001000
00000010
00000001
00000000
,
00000001
00000100
00001000
00000000
00010000
00100000
10000000
00000000
,
00010000
01000000
00010000
01000000
00001000
00010000
00001000
00010000
00000010
00001000
00000010
00001000
00000010
00000100
00000010
00000000
,
00001000
00000100
00000001
00000100
00000000
00000100
00000010
00000000
,
00001001
00000000
00000000
00000000
00000001
00000100
00000010
00001000
00000010
00000000
00010000
00000000
00000000
00000000
00011000
00000000
,
00000000
00001000
00000100
00001000
00010000
01000000
10000000
00000000
,
01100000
00000000
00000000
00000000
10000000
01000000
00100000
00010000
00100000
00000000
00001000
00010000
00000000
00001000
00010000
00000000
,
00000000
00000000
00000100
00000000
00001000
00000010
00001000
00000010
00000100
00000001
00000010
00000000
00000100
00000001
00000100
00000000
,
00010000
00000000
00000000
00000000
00001000
01000000
00010000
00100000
00010000
00000000
00100000
01000000
10000000
00000000
11000000
00000000
,
00000000
10000000
00100000
00000000
00010000
00001000
00010000
00000000
01000000
00010000
00001000
00000000
00010000
00001000
00000010
00000000
,
00000001
00000000
00001000
00000000
00000010
00000100
00000010
00000000
00000100
00000000
00001000
00010000
00001000
00000000
01000000
00000000
,
00100000
10000000
01000000
00000000
00010000
00000000
10000000
00100000
00010000
00000000
00100000
00000000
00001000
00000000
00000000
00000000
,
00011000
00000000
00000000
00000000
00000100
00000010
00000100
00000010
00000100
00000000
00000110
00000000
00000000
00000000
00000110
00000000
,
00000000
00000000
00000001
00000000
00000100
00001000
00000000
00001000
00020000
00000000
00000000
00000000
00031000
00000000
00000000
00000000
,
00011000
00000000
00000000
00000000
00010000
00100000
10000000
00100000
00010000
00000000
00100000
01000000
00000000
00100000
01000000
00000000
,
10000000
00000000
01000000
00000000
00010000
00100000
00010000
00100000
00001000
00010000
00001000
00010000
00000100
00001000
00000100
00001000
,
00000010
00000000
00000000
00000000
00000001
00000010
00000001
00000010
00001000
00000000
00000000
00001100
00000000
00000000
00010100
00000000
,
00000000
00000000
00010000
00001000
00020000
00000000
00000000
00000000
00031000
01000000
00010000
00100000
00001000
01000000
00010000
00100000
,
00001000
00010000
00100000
00001000
00100000
00010000
00001000
00000010
,
00010000
00000010
00001000
00010000
00022000
00000000
00033000
00000000
,
00020000
00000000
00000000
00000000
00030000
00000000
00000000
00000000
01000000
00000000
01000000
00100000
01000000
00000000
20020000
00000000
,
00000000
30030000
10000000
01000000
00010000
00001000
00000010
00000000
,
00000002
00000000
00000003
00000000
00000001
00000000
00000100
00001000
00000100
00000001
00000010
00000000
00000100
00000000
00010000
00000000
,
00002000
00000000
00103000
00010000
01000000
00100000
10000000
00000000
,
20000000
00000000
00000000
00000000
00000000
00000000
30000000
00000000
10000000
00100000
01000000
00000000
00100000
00000000
00020000
00000000
,
00000000
00000000
00031000
00000010
00001000
00010000
00000100
00000010
,
00000002
00000000
00000103
00001000
00010000
00000010
00000100
00001000
,
00010000
00100000
01000000
00000000
00001000
00000000
00010000
00000000
01000000
00000000
10000000
01000000
10000000
01000000
00100000
00010000
,
00100000
00000000
00100000
00000000
00001000
00000000
00001000
00000010
,
00000001
00000000
00000001
00000000
00000100
00000000
00000100
00010000
,
01000000
00000000
01000000
00000000
00001000
00000000
00001000
00000010
,
00010000
00000000
00010000
00000000
00100000
01000000
00100000
01000000
,
10000000
01000000
00010000
01000000
00010000
01000000
10000000
00100000
,
00010000
00001000
00000010
00001000
00000010
00001000
00010000
00001000
,
00011000
00000000
00000000
00001100
00000000
00000000
00000110
00000000
,
00000001
00000100
00000010
00000000
00001000
00000000
00000010
00000000
00010000
00001000
00010000
00001000
01000000
00001000
01000000
00001000
,
00000000
00000000
00000000
00000000
00011000
00000000
00001000
00000000
00010000
00100000
01000000
00000000
00010000
00100000
01000000
00000000
,
10000000
00000000
01000000
00010000
01000000
00000000
10000000
00000000
00100000
00000000
00100000
00010000
00001000
00000000
00010000
00001000
,
00000200
00000000
00000000
00000000
00000301
00000010
00000100
00000010
00000001
00000000
00000100
00000010
00000000
00000100
00000010
00000000
,
00000100
00001000
00000100
00001000
00010000
00001000
00010000
00000000
00100000
01000000
00100000
01000000
00100000
10000000
00100000
00000000
,
10000000
00000000
01000000
00000000
00010000
00000000
00001000
00000000
00010000
00100000
01000000
00100000
00010000
00000000
00001000
00000000
,
00000100
00000000
00000001
00000010
00000100
00000000
00001000
00000010
00000100
00000000
00000001
00000010
00000100
00000000
00001000
00000000
,
00010000
00000000
00100000
00000000
01000000
00100000
01000000
00000000
00010000
00000000
01000000
00100000
01000000
00000000
00100000
00000000
,
10000000
00100000
00010000
00000000
00100000
00000000
00001000
00000000
00000010
00000000
00000100
00000000
00000200
00000000
00000000
00000000
,
00000300
00000000
00000000
00000000
00000010
00000001
00000100
00000010
00001000
00000000
00001100
00000000
00000100
00000000
00010100
00000000
,
00000000
00000000
00010000
00100000
01000000
00010000
00100000
01000000
20000000
00000000
00000000
00000000
30010000
00000000
00000000
00000000
,
10000000
00100000
01000000
00100000
01000000
00000000
00010000
00100000
00001000
00010000
00001000
00010000
00000010
00000000
00001000
00000100
,
00000000
00000100
00000010
00000001
00000100
00000010
00000100
00000000
00000010
00000100
00001000
00000100
00001000
00010000
00001000
00000000
,
00100000
00000000
00000000
00000000
00010000
01000000
10000000
01000000
00010000
00000000
00000000
00100000
00000000
00000000
00110000
00000000
,
00000000
00000000
00001000
00010000
00001000
00000000
00010000
00000100
00000000
00000100
00001000
00000010
00001000
00000001
00000100
00000001
,
00000100
00000000
00000001
00000100
00001000
00000000
00010000
00000000
00100000
00000000
01000000
00100000
10000000
00000000
11000000
00000000
,
00000000
10000000
01000000
00010000
00001000
00010000
00001000
00000000
,
00022000
00000000
00000000
00000000
,
00000000
00000000
00000000
00000000
,
00033000
00000000
00000000
00000000
,
00000000
00000000
00000000
00000000
;
