
//----- song ID: ifly -----//
#TITLE:I'm Flying Away;
#ARTIST:Stepper;
#BANNER:I'm Flying Away.png;
#BACKGROUND:I'm Flying Away-bg.png;
#CDTITLE:./CDTitles/DDR HOTTEST PARTY.png;
#MUSIC:I'm Flying Away.ogg;
#SAMPLESTART:7.667;
#SAMPLELENGTH:15;
#BPMS:0=180;
#NOTES:
     dance-single:
     :
     Beginner:
     2:
     :
0000
0000
0000
0000
,
0000
0000
0000
0000
,
0000
0000
0000
0000
,
0000
0000
0000
0000
,
1000
0000
0000
0000
,
0001
0000
0000
0000
,
0001
0000
0000
0000
,
0100
0000
0000
0000
,
0010
0000
0000
0000
,
0000
0000
0000
0000
,
1000
0000
0000
0000
,
0100
0000
0000
0000
,
0010
0000
0000
0000
,
0000
0000
0000
0000
,
0001
0000
0001
0000
,
0100
0000
0000
0000
,
0010
0000
0010
0000
,
0100
0000
0000
0000
,
0001
0000
0000
0000
,
0100
0000
0000
0000
,
1000
0000
0000
0000
,
0000
0000
0000
0000
,
1000
0000
1000
0000
,
0100
0000
0000
0000
,
0010
0000
0010
0000
,
0100
0000
0000
0000
,
1000
0000
0000
0000
,
0100
0000
0000
0000
,
0001
0000
0000
0000
,
0000
0000
0000
0000
,
0010
0000
0010
0000
,
0001
0000
0000
0000
,
0100
0000
0000
0000
,
0000
0000
0000
0000
,
0010
0000
0010
0000
,
1000
0000
0000
0000
,
0100
0000
0000
0000
,
0000
0000
0000
0000
,
1001
0000
0000
0000
,
0000
0000
0000
0000
,
1001
0000
0000
0000
,
0000
0000
0000
0000
,
1001
0000
0000
0000
,
0000
0000
0000
0000
,
1000
0000
0001
0000
,
1000
0000
0000
0000
,
2000
0000
0000
0000
,
3000
0000
0000
0000
,
0100
0000
0010
0000
,
0100
0000
0000
0000
,
0002
0000
0000
0000
,
0003
0000
0000
0000
,
0100
0000
0010
0000
,
0100
0000
0000
0000
,
0001
0000
0000
0000
,
0001
0000
0000
0000
,
0010
0000
0000
0000
,
0010
0000
0000
0000
,
0100
0000
0000
0000
,
0100
0000
0000
0000
,
1000
0000
1000
0000
,
1000
0000
0000
0000
,
1000
0000
0100
0000
,
0100
0000
0000
0000
,
0010
0000
0000
0000
,
0000
0000
0000
0000
,
0001
0000
0100
0000
,
0100
0000
0000
0000
,
0010
0000
0000
0000
,
0000
0000
0000
0000
,
1000
0000
0000
0000
,
1000
0000
0000
0000
,
0001
0000
0000
0000
,
1001
0000
0000
0000
,
0000
0000
0000
0000
;
#NOTES:
     dance-single:
     :
     Easy:
     5:
     :
0000
0000
0000
0000
,
0000
0000
0000
0000
,
0000
0000
0000
0000
,
0000
0000
0000
0000
,
1000
0000
0001
0000
,
1000
0001
1001
0000
,
0001
0100
0001
0000
,
0020
0000
0030
0000
,
0001
0100
0010
0000
,
2000
0000
3000
0000
,
1000
0100
1000
0000
,
0002
0000
0003
0000
,
1000
0100
1000
0000
,
0001
0010
0001
0000
,
1000
0000
0001
0000
,
2002
0000
0000
3003
,
0010
0000
0100
0000
,
0220
0000
0000
0330
,
0001
0000
0100
0000
,
0010
0000
0010
0000
,
1000
0000
0100
0000
,
0220
0000
0000
0330
,
0001
0000
0100
0000
,
0001
0010
0001
0000
,
1000
0000
0100
0000
,
1000
0010
1000
0000
,
0100
0000
0100
0000
,
0010
0000
0010
0000
,
0001
0001
0010
0000
,
0100
0100
1000
0000
,
1000
0000
0100
0000
,
0010
0001
0010
0000
,
0001
0000
1000
0000
,
0001
1000
0001
0000
,
0001
0000
0100
0000
,
0010
1000
0010
0000
,
1000
0000
0001
0000
,
1000
0001
1000
0000
,
1001
0000
0000
0000
,
0110
0000
0000
0000
,
1001
0000
0000
0000
,
0110
0000
0000
0000
,
1001
0000
0000
0000
,
0110
0000
0000
0000
,
1001
0000
0110
0000
,
1000
0001
1001
0000
,
0002
0000
0000
0003
,
0200
0000
0000
0300
,
0020
0000
0000
0030
,
1000
0001
1000
0001
,
2000
0000
0000
3000
,
0200
0000
0000
0300
,
0010
0000
0100
0000
,
0110
0000
0000
0000
,
0001
0000
0001
0000
,
0100
0000
0100
0000
,
0010
0000
0010
0000
,
1000
0000
1000
0000
,
1000
0100
0010
0000
,
0100
0010
0001
0000
,
1000
0000
0001
0000
,
1000
0001
1000
0000
,
0001
0000
0100
0000
,
0010
1000
0100
0000
,
1000
0000
0100
0000
,
0010
0001
0100
0000
,
0010
0000
0100
0000
,
0001
1000
0001
0000
,
1000
0000
0100
0000
,
0010
0100
0010
0000
,
0220
0000
0000
0000
,
0000
0000
0000
0330
,
0001
0010
0100
1000
,
0000
1000
0001
0000
,
0000
0000
0000
0000
;
#NOTES:
     dance-single:
     :
     Medium:
     8:
     :
0000
0000
0000
0000
,
0000
0000
0000
0000
,
0000
0000
0000
0000
,
0000
0000
0000
0000
,
0001
0000
0001
0000
,
1000
0000
1000
0000
0001
1000
0000
0000
,
0001
0100
0001
0100
,
0001
0010
0001
0000
,
1000
0100
1000
0100
,
1000
0010
1000
0000
,
0001
0100
0001
0100
,
0010
1000
0010
0000
,
1000
0100
1000
0100
,
0010
0001
0010
0000
,
0001
0000
0100
0000
0010
1000
0010
0000
,
0100
0000
0000
0100
0000
0000
0010
0000
,
1000
0000
0100
0000
0010
0001
0010
0000
,
0100
0000
0000
0100
0000
0000
0010
0000
,
0001
0000
0100
0000
0001
0010
0001
0000
,
1000
0000
0100
0000
1000
0010
1000
0000
,
0001
0010
1000
0010
,
0001
0000
0000
1000
0000
0000
1001
0000
,
1000
0000
0100
0000
0010
0001
0010
0000
,
0001
0100
0010
1000
,
0001
0000
0010
0000
0100
1000
0100
0000
,
0010
0000
0000
0100
0000
0000
0110
0000
,
1000
0100
0001
0100
,
1000
1000
0001
0001
,
1000
0001
0010
0100
,
1000
0010
1000
0000
0001
0010
0001
0000
,
1000
0010
1000
0010
,
0100
0000
0001
1000
0000
0001
1000
0000
,
0001
0010
0001
0010
,
0100
0000
1000
0000
0100
1000
0100
0000
,
1000
0010
0001
0000
,
0001
0010
1000
0000
,
1001
0000
0110
0000
,
1001
0110
1001
0000
,
0000
0000
1001
0000
0000
0010
0000
0100
,
0000
0010
0100
0000
0010
0000
0100
0000
,
0000
0000
1001
0000
0000
0010
0000
0100
,
0000
0010
0100
0000
0010
0000
0100
0000
,
0000
0000
0110
0000
0000
1000
0000
0001
,
0000
1000
0001
0000
1000
0000
0001
0000
,
0000
0110
0000
1001
,
1000
0010
0100
0001
,
1000
0000
0100
0000
0010
0001
0010
0000
,
0001
0100
1000
0100
,
0001
0000
0100
0000
0010
1000
0010
0000
,
1000
0100
0001
0100
,
1000
0000
1000
0000
0010
0100
0010
0000
,
1000
0000
1000
0000
0100
0010
0100
0000
,
2000
3000
0002
0003
,
1000
0001
0000
2002
0000
0000
3003
0000
,
0002
0000
0010
0000
,
1000
0000
1003
0000
,
2000
0000
0010
0000
,
0001
0000
3001
0000
,
0002
0000
0103
0000
,
2000
0000
3100
0000
,
0001
0010
0001
0100
,
0010
0000
0010
0000
1000
0001
0000
0000
,
1000
0000
0010
0000
1000
0001
1000
0000
,
0001
0010
1000
0010
,
0001
0000
0100
0000
0001
1000
0001
0000
,
1000
0010
0001
0010
,
1000
0000
0100
0000
0010
0001
0010
0000
,
0001
0000
0100
0000
0010
1000
0010
0000
,
1000
0000
0000
0001
0000
0000
0100
0000
,
0010
0100
0010
0000
0100
0010
0100
0000
,
0001
0010
0100
0000
1000
0000
0000
0000
,
1000
0010
0100
0000
0001
0000
0000
0000
,
1000
0010
0100
0001
,
0000
1000
0001
1000
0001
0000
0000
0000
,
0000
0000
0000
0000
;
#NOTES:
     dance-single:
     :
     Hard:
     12:
     :
0000
0000
0000
0000
,
0000
0000
0000
0000
,
0000
0000
0000
0000
,
0000
0000
0000
0000
,
1000
0000
1000
0000
,
0001
0000
0001
0000
0100
0010
0000
0000
,
1000
0000
0001
0000
0100
0010
0100
0000
,
0001
0010
0001
0010
0100
1000
0100
0000
,
1000
0000
0001
0000
0010
0100
0010
0000
,
0001
0100
0001
0100
0010
1000
0010
0000
,
1000
0000
0100
0000
0001
0100
1000
0000
,
0100
0010
0100
0010
0001
1000
0001
0000
,
1000
0000
0010
0000
0001
0010
1000
0000
,
1100
1100
0110
0110
,
0002
0023
0230
2300
,
3001
0100
0001
0100
0010
1000
0010
1000
,
0002
0203
0320
2030
,
3001
0000
0000
0011
0000
0000
1001
0000
,
1000
0100
0010
0000
0001
0100
0010
0000
,
1000
0010
0100
0000
0001
0010
0100
0000
,
1000
0100
0010
0001
1000
0100
0010
0000
,
0110
0000
0000
1100
0000
0000
1001
0000
,
0001
0100
0001
0000
1000
0010
1000
0000
,
1010
0100
0101
0001
,
0010
0001
0010
0000
0100
1000
0100
0000
,
1100
0000
0000
0011
0000
0000
0011
0000
,
0002
0203
2300
3200
,
0301
1000
0010
0000
1000
0001
0010
0000
,
0001
0100
0010
1000
,
0001
0100
0001
0100
0010
1000
0010
1000
,
0010
0000
0100
0000
0001
1000
0001
0000
,
1000
0000
0100
0010
0000
0010
0100
0000
,
1000
0000
0010
0000
1000
0001
1000
0000
,
0002
0203
0320
2030
,
3001
0000
0010
0000
1000
0010
0001
0000
,
1000
0000
0100
0000
0001
0100
1000
0000
,
0001
0101
1000
1100
,
0010
0000
0110
0000
1000
0001
1000
0001
,
0000
0000
1001
0000
0000
0001
0000
1001
,
0000
1000
0001
0000
0001
1000
0001
0000
,
0000
0000
0110
0000
0000
0010
0000
0110
,
0000
0100
0010
0000
0010
0100
0010
0000
,
0000
0000
0101
0000
0000
0001
0000
0101
,
0000
0100
0001
0000
0001
0100
0001
0000
,
0000
1010
0000
1010
,
0010
1000
0010
0000
1000
0010
1000
0000
,
0001
0010
0100
1000
0010
0100
0001
1000
,
0001
0100
0010
1000
0100
0010
0001
0000
,
1000
0100
0010
0100
1000
0001
0010
0000
,
0011
0101
1100
1010
,
1000
0100
0010
0001
0100
0010
1000
0001
,
1000
0010
0100
0001
0010
0100
1000
0000
,
1100
0000
0101
0000
,
1000
0001
0000
1001
0000
0000
0000
0000
,
2000
3200
0320
0032
,
2003
3200
0302
0203
,
2300
3020
0230
0302
,
2003
3020
0032
0023
,
2030
3200
0320
0032
,
2003
3020
0230
0302
,
1003
1010
0001
0011
,
0110
0000
0110
0000
0001
1000
0000
0000
,
0001
0100
0001
0010
0100
1000
0100
0010
,
0001
0100
0010
1000
0100
1000
0010
0000
,
0100
0010
1000
0010
0100
0001
1000
0100
,
1000
0100
0010
0001
0100
0001
1000
0000
,
0010
1000
0100
0010
0001
0100
0001
1000
,
0010
0100
0010
1000
0100
0010
0001
0000
,
1000
0000
0001
0100
0000
0010
1000
0000
,
0001
0010
0001
0010
0100
1000
0100
1000
,
0001
0100
1000
0000
1000
0100
0001
0000
,
1000
0100
1000
0100
0001
0100
1000
0000
,
1010
1010
0101
0101
,
0000
0001
1000
0001
1001
0000
0000
0000
,
0000
0000
0000
0000
;
#NOTES:
     dance-double:
     :
     Easy:
     5:
     :
00000000
00000000
00000000
00000000
,
00000000
00000000
00000000
00000000
,
00000000
00000000
00000000
00000000
,
00000000
00000000
00000000
00000000
,
00001000
00000000
00010000
00000000
,
00001000
00010000
00011000
00000000
,
00001000
00010000
00000100
00000000
,
00000200
00000000
00000300
00000000
,
00000010
00000001
00000010
00000000
,
00000200
00000000
00000300
00000000
,
00010000
00001000
00010000
00000000
,
00002000
00000000
00003000
00000000
,
01000000
00000000
01000000
00000000
,
00100000
01000000
00100000
00000000
,
10000000
00000000
00010000
00000000
,
20020000
00000000
00000000
30030000
,
00100000
00000000
01000000
00000000
,
02200000
00000000
00000000
03300000
,
00001000
00000000
00010000
00000000
,
00001000
00000000
00001000
00000000
,
00010000
00000100
00001000
00000000
,
00000020
00000000
00000000
00000030
,
00001000
00000000
00000001
00000000
,
00000010
00000001
00000010
00000000
,
00000100
00000000
00001000
00000000
,
00000001
00001000
00000001
00000000
,
00000100
00000000
00000100
00000000
,
00000010
00000000
00000010
00000000
,
00001000
00001000
00000010
00000000
,
00010000
00010000
00001000
00000000
,
00010000
00000000
00001000
00000000
,
01000000
00010000
01000000
00000000
,
00010000
00000000
00100000
00000000
,
01000000
10000000
01000000
00000000
,
10000000
00000000
00010000
00000000
,
00100000
00001000
00100000
00000000
,
00001000
00000000
00001000
00000000
,
00010000
00001000
00010000
00000000
,
00011000
00000000
00000000
00000000
,
00011000
00000000
00000000
00000000
,
00000110
00000000
00000000
00000000
,
00000110
00000000
00000000
00000000
,
00011000
00000000
00000000
00000000
,
00011000
00000000
00000000
00000000
,
01100000
00000000
00000000
00000000
,
01100000
00000000
00000000
00000000
,
20000000
00000000
00000000
30000000
,
10000000
00000000
01000000
00000000
,
00200000
00000000
00000000
00300000
,
00100000
00001000
00010000
00001000
,
00020000
00000000
00000000
00030000
,
00010000
00000000
00000010
00000000
,
00002000
00000000
00000000
00003000
,
00000002
00000000
00000000
00000003
,
00000001
00000000
00000001
00000000
,
00000100
00000000
00000100
00000000
,
00000010
00000000
00000010
00000000
,
00001000
00000000
00001000
00000000
,
00010000
00000000
00010000
00000000
,
01000000
00000000
01000000
00000000
,
00100000
00000000
00100000
00000000
,
10000000
00100000
10000000
00000000
,
10000000
00000000
00010000
00000000
,
00100000
01000000
00100000
00000000
,
00010000
00000000
00100000
00000000
,
00001000
00010000
00001000
00000000
,
00010000
00000000
00000100
00000000
,
00001000
00000010
00001000
00000000
,
00000001
00000000
00000001
00000000
,
00000100
00000010
00000100
00000000
,
00002002
00000000
00000000
00000000
,
00000000
00000000
00000000
00003003
,
00000001
00000100
00001000
00000000
,
00010000
00000000
00011000
00000000
,
00000000
00000000
00000000
00000000
;
#NOTES:
     dance-double:
     :
     Medium:
     8:
     :
00000000
00000000
00000000
00000000
,
00000000
00000000
00000000
00000000
,
00000000
00000000
00000000
00000000
,
00000000
00000000
00000000
00000000
,
00001000
00000000
00001000
00000000
,
00010000
00000000
00010000
00000000
00001000
00010000
00000000
00000000
,
00001000
00010000
00000010
00010000
,
00001000
00010000
00000010
00000000
,
00001000
00000100
00000010
00000100
,
00001000
00000001
00000010
00000000
,
00000001
00000100
00000001
00001000
,
00000010
00001000
00000100
00000000
,
00010000
00010000
00001000
00001000
,
00010000
00001000
00010000
00000000
,
00001000
00000000
01000000
00000000
00010000
01000000
00010000
00000000
,
00100000
00000000
00000000
00100000
00000000
00000000
00100000
00000000
,
01000000
00000000
10000000
00000000
00100000
01000000
00100000
00000000
,
10000000
00000000
00000000
10000000
00000000
00000000
10000000
00000000
,
00010000
00000000
00100000
00000000
00001000
00010000
00001000
00000000
,
00010000
00000000
00000100
00000000
00001000
00000100
00001000
00000000
,
00000001
00000010
00001000
00000010
,
00000001
00000000
00000000
00001000
00000000
00000000
00001001
00000000
,
00000001
00000000
00000100
00000000
00000010
00000100
00000010
00000000
,
00000100
00001000
00010000
00100000
,
01000000
00000000
00010000
00000000
00100000
01000000
00100000
00000000
,
00010000
00000000
00000000
10000000
00000000
00000000
10010000
00000000
,
00010000
10000000
01000000
01000000
,
00100000
00001000
00010000
00010000
,
00000100
00000100
00001000
00001000
,
00000001
00000010
00000001
00000000
00001000
00000010
00001000
00000000
,
00000001
00000100
00000001
00000100
,
00000010
00000000
00010000
00001000
00000000
00010000
00001000
00000000
,
01000000
00010000
01000000
00010000
,
00100000
00100000
01000000
01000000
,
10000000
00100000
10000000
00100000
,
01000000
00001000
00010000
00000000
,
00011000
00000000
00011000
00000000
,
00000100
00000010
00000110
00000000
,
00000000
00000000
00001001
00000000
00000000
00000010
00000000
00000100
,
00000000
00000010
00000100
00000000
00000010
00000000
00000100
00000000
,
00000000
00000000
00000110
00000000
00000000
00010000
00000000
00001000
,
00000000
00010000
00001000
00000000
00010000
00000000
00001000
00000000
,
00000000
00000000
00011000
00000000
00000000
01000000
00000000
00100000
,
00000000
01000000
00100000
00000000
01000000
00000000
00100000
00000000
,
00000000
01100000
00000000
01100000
,
10000000
00010000
10000000
00000000
,
10000000
00000000
00100000
00000000
01000000
00010000
01000000
00000000
,
00010000
00100000
00001000
00010000
,
00000010
00000000
00001000
00000000
00000100
00000010
00000100
00000000
,
00001000
00000010
00000100
00000010
,
00001000
00000000
00001000
00000000
00000100
00010000
00000100
00000000
,
00010000
00000000
00010000
00000000
00001000
01000000
00001000
00000000
,
00020000
00030000
00002000
00003000
,
00010000
00001000
00000000
00022000
00000000
00000000
00033000
00000000
,
00021000
00000000
01000000
00000000
,
00001000
00000000
01000000
00000000
,
00032000
00000000
00000100
00000000
,
00010000
00000000
00000100
00000000
,
00023000
00000000
01000000
00000000
,
00032000
00000000
00000100
00000000
,
00013000
00001000
00010000
00000000
,
00001000
00000000
00001000
00000000
00010000
00001000
00000000
00000000
,
00010000
00000000
00001000
00000000
01000000
00010000
01000000
00000000
,
00010000
00100000
01000000
10000000
,
00100000
00000000
01000000
00000000
00001000
00010000
00001000
00000000
,
00010000
00000010
00001000
00000010
,
00000100
00000000
00000001
00000000
00000010
00000100
00000010
00000000
,
00000001
00000000
00000100
00000000
00000010
00001000
00000010
00000000
,
00000100
00000000
00000000
00001000
00000000
00000000
00010000
00000000
,
00001000
00010000
00001000
00000000
00010000
00001000
00010000
00000000
,
00001000
00000000
01000000
00000000
00010000
00100000
00010000
00000000
,
10000000
00000000
01000000
00000000
00100000
01000000
00100000
00000000
,
00001000
00010000
00000010
00001000
,
00000000
00000001
00001000
00000001
00001000
00000000
00000000
00000000
,
00000000
00000000
00000000
00000000
;
#NOTES:
     dance-double:
     :
     Hard:
     12:
     :
00000000
00000000
00000000
00000000
,
00000000
00000000
00000000
00000000
,
00000000
00000000
00000000
00000000
,
00000000
00000000
00000000
00000000
,
00001000
00000000
00010000
00000000
,
00001000
00000000
00010000
00000000
00001000
00010000
00000000
00000000
,
00001000
00000000
00000100
00000000
00000010
00000100
00000010
00000000
,
00001000
00000100
00001000
00000100
00000010
00000001
00000010
00000000
,
00000001
00000000
00000100
00000000
00000010
00000100
00000010
00000000
,
00000100
00001000
00000100
00001000
00010000
00001000
00010000
00000000
,
00100000
00000000
01000000
00000000
00010000
10000000
00010000
00000000
,
10000000
01000000
10000000
01000000
00100000
00010000
00100000
00000000
,
00010000
00000000
10000000
00000000
01000000
00100000
00010000
00000000
,
00100000
00110000
00001000
00011000
,
00020000
00030200
00002300
00003020
,
00000130
00000001
00000100
00000001
00001000
00000010
00001000
00000010
,
00002000
00003200
00020300
00032000
,
01003000
00000000
00000000
01010000
00000000
00000000
01100000
00000000
,
10000000
00100000
10000000
00000000
00010000
00100000
00010000
00000000
,
10000000
01000000
00100000
00000000
01000000
00100000
00010000
00000000
,
01000000
00100000
01000000
00100000
00010000
00001000
00010000
00000000
,
00001000
00000000
00000000
00011000
00000000
00000000
00010010
00000000
,
00000010
00001000
00000010
00000000
00000100
00000001
00000100
00000000
,
00000101
00000010
00000011
00000001
,
00000010
00000100
00000010
00000000
00000001
00001000
00000001
00000000
,
00000100
00000000
00000000
00000110
00000000
00000000
00000110
00000000
,
00000002
00000203
00002300
00023000
,
00130000
10000000
01000000
00000000
00100000
00010000
01000000
00000000
,
00100000
10000000
00010000
01000000
,
00010000
00100000
00010000
00100000
00001000
00010000
00001000
00010000
,
00001000
00000000
00000010
00000000
00000100
00000010
00000100
00000000
,
00000010
00000000
00000001
00001000
00000000
00001000
00000001
00000000
,
00000100
00000000
00000010
00000000
00001000
00000001
00001000
00000000
,
00000200
00020300
00032000
00203000
,
00310000
00000000
01000000
00000000
10000000
01000000
00010000
00000000
,
10000000
00000000
01000000
00000000
00010000
01000000
10000000
00000000
,
00010000
00110000
00100000
00101000
,
00001000
00000000
00011000
00000000
00010000
00001000
00010000
00001000
,
00000000
00000000
00000110
00000000
00000000
00000100
00000000
00000110
,
00000000
00000010
00000100
00000000
00000010
00000000
00000110
00000000
,
00000000
00000000
00011000
00000000
00000000
00010000
00000000
00011000
,
00000000
00001000
00010000
00000000
00001000
00000000
00011000
00000000
,
00000000
00000000
01100000
00000000
00000000
00100000
00000000
01100000
,
00000000
01000000
00100000
00000000
01000000
00000000
01100000
00000000
,
00000000
00011000
00000000
00011000
,
00001000
00010000
00001000
00000000
00010000
00001000
00010000
00000000
,
00000010
00001000
00000010
00001000
00000100
00000010
00000001
00001000
,
00000001
00000100
00000001
00000100
00000010
00001000
00000100
00010000
,
00001000
00010000
00001000
00010000
00100000
01000000
00010000
00100000
,
01000000
11000000
00010000
00110000
,
10000000
01000000
10000000
01000000
10000000
00100000
01000000
00010000
,
00100000
01000000
00100000
01000000
00010000
00001000
00010000
00000100
,
00001000
00001100
00000001
00000101
,
00000010
00000100
00000000
00000110
00000000
00000000
00000000
00000000
,
00000002
00000203
00000320
00002030
,
00023000
02030000
03200000
20300000
,
32000000
03200000
00302000
00023000
,
00030200
00002300
00003020
00000230
,
00000302
00000203
00002300
00023000
,
00230000
00320000
00032000
00023000
,
01030000
11000000
10000000
10100000
,
00100000
00000000
00010000
00000000
00001000
00010000
00000000
00000000
,
00001000
00010000
00001000
00010000
00000010
00001000
00000100
00001000
,
00000010
00000100
00001000
00000100
00001000
00010000
00100000
01000000
,
00010000
00100000
00010000
00100000
01000000
00100000
00010000
01000000
,
00100000
00010000
00001000
00010000
00001000
00000100
00000010
00000000
,
00001000
00000100
00000010
00000001
00000010
00000100
00001000
00000010
,
00010000
00001000
01000000
00010000
00100000
00010000
01000000
00000000
,
00100000
00000000
10000000
01000000
00000000
00100000
00010000
00000000
,
10000000
00100000
10000000
00100000
01000000
00010000
01000000
00000000
,
00010000
00100000
00001000
00000000
00010000
00000010
00001000
00000000
,
00000100
00000010
00000001
00000000
00000100
00000010
00001000
00000000
,
00001010
00001010
00011000
00011000
,
00000000
00010000
00001000
00010000
00011000
00000000
00000000
00000000
,
00000000
00000000
00000000
00000000
;
