
//----- song ID: ibwu -----//
#TITLE:I believe what you said;
#ARTIST:亜咲花;
#ARTISTTRANSLIT:Asaka;
#BANNER:I believe what you said.png;
#BACKGROUND:I believe what you said-bg.png;
#CDTITLE:./CDTitles/pnm 26 Kaimei riddles.png;
#MUSIC:I believe what you said.ogg;
#SAMPLESTART:48.426;
#SAMPLELENGTH:15;
#BPMS:0=138;
#NOTES:
     dance-single:
     :
     Beginner:
     2:
     :
0000
0000
0000
0000
,
0000
0000
0000
0000
,
0000
0000
0000
0000
,
0001
0000
0001
0000
,
0010
0000
0000
0000
,
0010
0000
0010
0000
,
0100
0000
0000
0000
,
1000
0000
1000
0000
,
0010
0000
0000
0000
,
0010
0000
0010
0000
,
0100
0000
0000
0000
,
0001
0000
0100
0000
,
0010
0000
0000
0000
,
0100
0000
0100
0000
,
0100
0000
0000
0000
,
1000
0000
0100
0000
,
0010
0000
0000
0000
,
0100
0000
0100
0000
,
0100
0000
0000
0000
,
1001
0000
0000
0000
,
1000
0000
0001
0000
,
1001
0000
0000
0000
,
0001
0000
1000
0000
,
2000
0000
3000
0000
,
0200
0000
0300
0000
,
0020
0000
0030
0000
,
0002
0000
0003
0000
,
1001
0000
0000
0000
,
0010
0000
0001
0000
,
0100
0000
0010
0000
,
1000
0000
0100
0000
,
1000
0000
0000
0000
,
0100
0000
1000
0000
,
0010
0000
0100
0000
,
0001
0000
0010
0000
,
0001
0000
0000
0000
,
0010
0000
0001
0000
,
0100
0000
0100
0000
,
0010
0000
1000
0000
,
0100
0000
0100
0000
,
1000
0000
0010
0000
,
0100
0000
0001
0000
,
0020
0000
0030
0000
,
0200
0000
0300
0000
,
1000
0000
0001
0000
,
2002
0000
0000
0000
,
3003
0000
0000
0000
,
0010
0000
0010
0000
,
0010
0000
0000
0000
,
2002
0000
0000
0000
,
0000
0000
0000
0000
,
3003
0000
0000
0000
,
0000
0000
0000
0000
;
#NOTES:
     dance-single:
     :
     Easy:
     4:
     :
0000
0000
0000
0000
,
0000
0000
0000
0000
,
0000
0000
0000
0000
,
1000
0000
0001
0000
,
0010
0000
0010
0000
,
0001
0000
1000
0000
,
0100
0000
0100
0000
,
1000
0000
0010
0000
,
1000
0000
0010
0000
,
0001
0000
0100
0000
,
0200
0000
0300
0000
,
0001
0001
0001
0000
,
0100
0000
0010
0000
,
1000
1000
1000
0000
,
0100
0000
0010
0000
,
0100
0100
0100
0000
,
1000
0000
0001
0000
,
0010
0010
0010
0000
,
0001
0000
1000
0000
,
2002
0000
3003
0000
,
0001
1000
0001
0000
,
0220
0000
0330
0000
,
0100
0010
0100
0000
,
0001
0001
0100
0000
,
1000
1000
0100
0000
,
0001
0001
0010
0000
,
1000
1000
0010
0000
,
2002
0000
3003
0000
,
0010
1000
0001
0100
,
0001
0000
0001
0000
,
0010
0001
1000
0100
,
1000
0000
1000
0000
,
0010
1000
0100
0000
,
0010
0001
0100
0000
,
0100
0010
1000
0000
,
0100
0010
0001
0000
,
0100
0001
1000
0010
,
1000
0000
1000
0000
,
0100
1000
0001
0010
,
0001
0000
0001
0000
,
0100
0001
0010
0000
,
0100
1000
0010
0000
,
0010
0100
0001
0000
,
0010
0100
1000
0000
,
0001
0001
1000
1000
,
2002
0000
0000
0000
,
3003
0000
0000
0000
,
1001
0000
0110
0000
,
2002
0000
3003
0000
,
0020
0000
0030
0000
,
0200
0000
0300
0000
,
0000
0000
0000
0000
;
#NOTES:
     dance-single:
     :
     Medium:
     8:
     :
0000
0000
0000
0000
,
0000
0000
0000
0000
,
0000
0000
0000
0000
,
1000
0100
1000
0100
,
0010
0000
0001
0000
1000
0001
1000
0000
,
0001
0100
0001
0100
,
0010
0000
1000
0000
0001
1000
0001
0000
,
1000
0010
0001
0010
,
1000
0000
0001
0000
1000
0100
1000
0000
,
0001
1000
0001
0000
1000
0001
1000
0000
,
2002
0000
3003
0000
,
0010
0000
0010
0000
1000
0100
1000
0000
,
0010
0001
0100
0001
,
0010
0000
0010
0000
0001
0100
0001
0000
,
0010
1000
0100
1000
,
0010
0000
0010
0000
0100
0010
1000
0000
,
0100
0001
0100
1000
,
0010
0000
0010
0000
0100
0010
0001
0000
,
1000
0100
0001
0100
,
2000
0010
3010
0000
,
0002
0010
0013
0000
,
2000
0100
3100
0000
,
0002
0100
0103
0000
,
0010
1000
0100
0001
,
0100
1000
0010
0010
,
0100
0001
0010
1000
,
0010
0001
1000
0100
,
0110
0000
0001
1000
0000
1001
0000
0000
,
1000
0000
0010
0000
1000
0100
0010
0000
,
0001
0100
0001
0000
1000
0010
1000
0000
,
0001
0000
0010
0000
0001
0100
0010
0000
,
1000
0010
1000
0000
0001
0100
0001
0000
,
1000
0000
0010
0000
0001
0010
1000
0000
,
0001
0000
0010
0000
1000
0010
0001
0000
,
1000
0100
0010
0000
0001
1000
0100
0000
,
0010
0000
0000
0010
0000
0000
0010
0000
0000
0000
0010
0000
1001
0000
0000
0000
,
0001
0000
0100
0000
0001
0010
0100
0000
,
1000
0010
1000
0000
0001
0010
0001
0000
,
1000
0000
0100
0000
1000
0010
0100
0000
,
0001
0100
0001
0000
1000
0100
1000
0000
,
0001
0000
0100
0000
1000
0100
0001
0000
,
1000
0000
0100
0000
0001
0100
1000
0000
,
0001
0010
0100
0000
1000
0001
0010
0000
,
0100
0010
0100
0010
0100
0010
0100
0000
,
1000
0001
0100
0000
0001
1000
0100
0000
,
1000
0001
1000
0001
1000
0001
1000
0001
,
1000
0000
0000
0000
,
0010
0000
0000
0010
0000
0000
0000
0000
0100
0000
0000
0100
0000
0000
0000
0000
,
1000
0000
0000
0001
0000
0000
1000
0000
0001
0000
0000
0000
0000
0000
0000
0000
,
2000
0000
0100
0000
,
3002
0000
0100
0000
,
0003
0000
0000
0000
,
0000
0000
0000
0000
;
#NOTES:
     dance-single:
     :
     Hard:
     12:
     :
0000
0000
0000
0000
,
0000
0000
0000
0000
,
0000
0000
0000
0000
,
0000
1000
0010
0000
0100
0001
0000
0010
,
0001
0000
1000
0100
0000
0010
0001
0000
,
0000
0001
0010
0000
0100
1000
0000
0010
,
1000
0000
0001
0100
0000
0010
1000
0000
,
0100
1000
0100
1000
0001
0100
0001
0100
,
0010
1000
0010
1000
0001
0010
0001
0010
,
0100
1000
0010
1000
0100
1000
0010
1000
,
0200
0000
0000
0300
,
0001
0000
0010
0000
0001
0000
0000
1000
0010
0000
1000
0000
0100
0000
0010
0000
,
0001
0000
1000
0000
0001
0000
0000
0100
0010
0000
1000
0000
0001
0000
0100
0000
,
0001
0000
0010
0000
0100
0000
0000
1000
0010
0000
0100
0000
0010
0000
1000
0000
,
0001
0100
1000
0100
0001
1000
0010
0000
,
1000
0000
0100
0000
1000
0000
0000
0001
0100
0000
0001
0000
0010
0000
0100
0000
,
1000
0000
0001
0000
1000
0000
0000
0010
0100
0000
0001
0000
1000
0000
0010
0000
,
1000
0000
0100
0000
0010
0000
0000
0001
0100
0000
0010
0000
0100
0000
0001
0000
,
1000
0010
0001
0010
1000
0001
0100
0000
,
0011
0000
0000
1000
1010
0000
1000
1100
,
0000
0100
0000
2002
0000
0000
3003
0000
,
1010
0000
0000
0001
0011
0000
0001
0101
,
0000
0000
0100
0000
0000
0000
2000
0000
0001
0000
0000
0001
0000
0000
3001
0000
,
0100
0000
0100
0010
1000
0000
1000
0001
,
0010
0000
0001
0000
0100
0000
0010
0100
0010
0000
1000
0000
1001
0000
0000
0000
,
0010
0000
0010
0100
0001
0000
0001
1000
,
0100
0000
1000
0000
0010
0100
0000
0000
0001
1000
0000
1000
0000
1000
0000
0000
,
1001
0000
0000
0000
0010
0100
0010
0000
0000
0000
0110
0000
0000
0000
0000
0000
,
1000
0010
0100
0010
0001
0010
0100
0010
,
1000
0001
0010
0100
1000
0010
0100
1000
,
0100
0010
0100
0001
0100
0010
0100
0001
,
1000
0001
0010
0100
1000
0010
0100
0001
,
1000
0100
0001
0000
0001
0100
1000
0000
,
0001
0010
1000
0000
1000
0010
0001
0000
,
1000
0010
0100
0001
1000
0010
0100
0001
,
1000
0000
0000
1010
0000
0000
0011
0000
0000
0000
0001
0000
1000
0000
1000
0000
,
0001
0100
0010
0001
0010
1000
0001
0100
,
0010
0000
1000
0000
0100
0000
0010
0000
0001
0000
1000
0000
0100
0010
0100
0000
,
1000
0010
0100
1000
0100
0010
1000
0001
,
0100
0000
0001
0000
0010
0000
0100
0000
1000
0000
0010
0000
1000
0001
1000
0000
,
0001
0010
1000
0000
1000
0010
0001
0000
,
1000
0010
0001
0000
0001
0010
1000
0000
,
0100
0010
0100
0010
0001
0010
0001
0010
,
0001
1000
0000
0001
1000
0000
0001
1000
0000
0001
1000
0000
0100
0000
0010
0000
,
0001
1000
0100
0001
0100
1000
0001
0010
,
0100
0000
1000
0000
0001
0000
0100
0000
0010
0100
0000
0010
0100
0000
0010
0100
,
0010
0000
0000
0000
,
1000
0000
0000
0110
0000
0000
0110
0000
0001
0000
0000
0110
0000
0000
0110
0000
,
2002
0000
3003
0000
,
0020
0000
0100
0000
,
0000
0100
0100
0100
,
0030
0000
0000
0000
,
0000
0000
0000
0000
;
#NOTES:
     dance-double:
     :
     Easy:
     4:
     :
00000000
00000000
00000000
00000000
,
00000000
00000000
00000000
00000000
,
00000000
00000000
00000000
00000000
,
10000000
00000000
01000000
00000000
,
00100000
00000000
00100000
00000000
,
00001000
00000000
00010000
00000000
,
00001000
00000000
00001000
00000000
,
00000010
00000000
00000100
00000000
,
00000010
00000000
00000100
00000000
,
00001000
00000000
00000001
00000000
,
00002000
00000000
00003000
00000000
,
00000100
00000000
00000100
00000000
,
00010000
00001000
00010000
00000000
,
00001000
00000000
00100000
00000000
,
00010000
00000000
00100000
00000000
,
01000000
00000000
00010000
00000000
,
00001000
00010000
00001000
00000000
,
00000010
00000000
00000100
00000000
,
00001000
00000000
00000001
00000000
,
00002002
00000000
00003003
00000000
,
00000010
00000000
00010000
00000000
,
00022000
00000000
00033000
00000000
,
00001000
00000000
00100000
00000000
,
00010000
00000000
01000000
00000000
,
00100000
00000000
10000000
00000000
,
01000000
00000000
00100000
00000000
,
00001000
00000000
00010000
00000000
,
00022000
00000000
00033000
00000000
,
00000010
00001000
00000010
00001000
,
00000001
00000000
00000100
00000000
,
00001000
00010000
00001000
01000000
,
00010000
00000000
00100000
00000000
,
00010000
00000000
10000000
00000000
,
01000000
00010000
00001000
00000000
,
00100000
00000000
00001000
00000000
,
00022000
00000000
00033000
00000000
,
00010000
00000100
00010000
00000100
,
00001000
00000000
00000010
00000000
,
00000100
00000001
00000100
00000001
,
00001000
00000000
00000100
00000000
,
00010000
00000000
00001000
00000000
,
00010000
00100000
10000000
00000000
,
01000000
00000000
00100000
00000000
,
01000000
00010000
00001000
00000000
,
00010000
00010000
00001000
00001000
,
00022000
00000000
00000000
00000000
,
00033000
00000000
00000000
00000000
,
00000100
00000000
00000010
00000000
,
00000220
00000000
00000330
00000000
,
00002002
00000000
00000000
00000000
,
00000000
00000000
00000000
00000000
,
00003003
00000000
00000000
00000000
,
00000000
00000000
00000000
00000000
;
#NOTES:
     dance-double:
     :
     Medium:
     8:
     :
00000000
00000000
00000000
00000000
,
00000000
00000000
00000000
00000000
,
00000000
00000000
00000000
00000000
,
10000000
00100000
10000000
00100000
,
01000000
00000000
00010000
00000000
00100000
00010000
00100000
00000000
,
00001000
00010000
00001000
00010000
,
00000100
00000000
00001000
00000000
00000010
00000100
00000010
00000000
,
00000001
00000010
00001000
00000100
,
00010000
00001000
01000000
01000000
,
00100000
10000000
00100000
00000000
01000000
00010000
01000000
00000000
,
20020000
00000000
30030000
00000000
,
01000000
01000000
00100000
00100000
,
00001000
00010000
00001000
00000000
00010000
00000000
00010000
00000000
,
00000010
00000010
00000100
00000100
,
00001000
00010000
00001000
00000000
00010000
00000000
00010000
00000000
,
00100000
10000000
00100000
00010000
,
00001000
00010000
01000000
00010000
,
00001000
00000010
00001000
00010000
,
00001000
00000100
00000001
00000000
,
00002000
00000000
00003010
00000000
,
00020000
00100000
00130000
00000000
,
00020000
00000000
01030000
00000000
,
00002000
00000100
00003100
00000000
,
00000010
00000001
00000100
00000010
,
00001000
00000100
00010000
00001000
,
00100000
00010000
01000000
00100000
,
10000000
01000000
00010000
01000000
,
01100000
00000000
00100000
00100000
00000000
00100000
00000000
00000000
,
10000000
00000000
01000000
00000000
00010000
00001000
00010000
00000000
,
00001000
00000100
00001000
00010000
,
00001000
00000000
00000010
00000000
00000001
00000100
00000001
00000000
,
00000100
00001000
00010000
01000000
,
00010000
00000000
00001000
00000000
00010000
00100000
10000000
00000000
,
00100000
00000000
00010000
00000000
00001000
00010000
00001000
00000000
,
00000010
00000001
00000010
00001000
,
00010000
00000000
00000000
00001000
00000000
00000000
00010000
00000000
00000000
00000000
00010000
00000000
00001000
00000000
00000000
00000000
,
00000100
00000000
00001000
00000000
00010000
00100000
00010000
00000000
,
00100000
10000000
01000000
00010000
,
00001000
00000000
00010000
00000000
00100000
00010000
00100000
00000000
,
00010000
00001000
00000100
00000001
,
00000010
00000000
00001000
00000000
00010000
00001000
00010000
00000000
,
00100000
00000000
00010000
00000000
00001000
00010000
00001000
00000000
,
00000010
00000100
00001000
00000010
,
00000100
00000000
00001000
00000000
00010000
00001000
00010000
00000000
,
00001000
01000000
00010000
00100000
,
01000000
00100000
01000000
00100000
01000000
00100000
01000000
00100000
,
01000000
00000000
00000000
00000000
,
00010000
00000000
00000000
00010000
00000000
00000000
00000000
00000000
00001000
00000000
00000000
00001000
00000000
00000000
00000000
00000000
,
00010000
00000000
00000000
00001000
00000000
00000000
00010000
00000000
00001000
00000000
00000000
00000000
00000000
00000000
00000000
00000000
,
00000220
00000000
00000000
00000000
,
00000000
00000000
00000000
00000000
,
00000330
00000000
00000000
00000000
,
00000000
00000000
00000000
00000000
;
#NOTES:
     dance-double:
     :
     Hard:
     11:
     :
00000000
00000000
00000000
00000000
,
00000000
00000000
00000000
00000000
,
00000000
00000000
00000000
00000000
,
00000000
01000000
00100000
00000000
01000000
00010000
00000000
00100000
,
00010000
00000000
00100000
00001000
00000000
00010000
00001000
00000000
,
00000000
00000010
00000100
00000000
00000010
00000001
00000000
00001000
,
00000100
00000000
00010000
00000100
00000000
00010000
00001000
00000000
,
01000000
00010000
01000000
00010000
00100000
00010000
00100000
00010000
,
00100000
00001000
00010000
00001000
00000010
00000100
00001000
00000010
,
00010000
00000100
00001000
00000100
00010000
00000100
00001000
00000100
,
00000020
00000000
00000000
00000030
,
00000001
00000100
00001000
00010000
00000010
00000100
00001000
00010000
,
00100000
01000000
00001000
00010000
00001000
00100000
01000000
00100000
,
00010000
10000000
01000000
00010000
01000000
00100000
00001000
00010000
,
00100000
00010000
00001000
00010000
00000100
00001000
00000010
00000000
,
00000100
00000001
00000100
00001000
00010000
00000100
00010000
00001000
,
01000000
00010000
00100000
01000000
00010000
01000000
10000000
00010000
,
00100000
00001000
00010000
00100000
00010000
00001000
00000010
00000100
,
00001000
00000010
00000100
00001000
00000100
00000010
00010000
00000000
,
00001000
00000000
00000010
00000001
00000010
00000000
00000100
00001000
,
00000000
00010000
00000000
00200000
00000000
00000000
00300000
00000000
,
10000000
00000000
00100000
10000000
00100000
00000000
01000000
00010000
,
00000000
00001000
00000000
00000020
00000000
00000000
00000030
00000000
,
00000010
00010000
00001000
00000000
00000010
00001000
00010000
00000000
,
00000010
00001000
00010000
01000000
00100000
10000000
01000000
00000000
,
00100000
00001000
00010000
00000000
00100000
00010000
00001000
00000000
,
00100000
00010000
00001000
00000100
00000010
00000100
00000010
00000000
,
00000110
00000000
00000000
00000000
00000001
00001000
00000001
00000000
00000000
00000000
00001001
00000000
00000000
00000000
00000000
00000000
,
00000010
00001000
00000100
00000000
00000001
00000100
00001000
00000000
,
00000001
00000100
00001000
00010000
00100000
10000000
00100000
00000000
,
01000000
00010000
00100000
00000000
01000000
10000000
00100000
00000000
,
10000000
01000000
00010000
00001000
00000010
00000001
00000010
00000000
,
00001000
00000000
00010000
00000000
00001000
00000100
00001000
00000000
,
00010000
00000000
00100000
00000000
00010000
00001000
00010000
00000000
,
01000000
00000000
00010000
00000000
00001000
00000010
00001000
00000000
,
00010000
00000000
00000000
01000000
00000000
00000000
00100000
00000000
00000000
00000000
00010000
00000000
10000000
00000000
00100000
00000000
,
01000000
00010000
00100000
00000000
10000000
00100000
00010000
00000000
,
10000000
00100000
00010000
00001000
00000100
00000001
00000100
00000000
,
00000010
00001000
00000100
00000000
00000010
00000001
00000100
00000000
,
00000001
00000010
00001000
00010000
01000000
10000000
01000000
00000000
,
00010000
00000000
00001000
00000000
00010000
00100000
00010000
00000000
,
00001000
00000000
00000100
00000000
00001000
00010000
00001000
00000000
,
00000010
00000000
00001000
00000000
00010000
01000000
00010000
00000000
,
00001000
00010000
00000000
00001000
00010000
00000000
00001000
00010000
00000000
00001000
00010000
00000000
00000010
00000000
00001000
00000000
,
00000001
00000100
00000010
00000100
00001000
00010000
00001000
01000000
,
00010000
00000000
00100000
00000000
01000000
00000000
10000000
00000000
00010000
10000000
00000000
00010000
10000000
00000000
00010000
10000000
,
00010000
00000000
00000000
00000000
,
00100000
00000000
00000000
00001000
00000000
00000000
00010000
00000000
00000010
00000000
00000000
00010000
00000000
00000000
00001000
00000000
,
00000020
00000000
00000030
00000000
,
00002000
00000000
00010000
00000000
,
00023000
00001000
00001000
00001000
,
00030000
00000000
00000000
00000000
,
00000000
00000000
00000000
00000000
;
