
//----- song ID: hotu -----//
#TITLE:ほしのつくりかた;
#ARTIST:D-wacrew;
#TITLETRANSLIT:Hoshi no tsukurikata;
#ARTISTTRANSLIT:;
#BANNER:Hoshi no tsukurikata.png;
#BACKGROUND:Hoshi no tsukurikata-bg.png;
#CDTITLE:./CDTitles/pnm rhythmin.png;
#MUSIC:Hoshi no tsukurikata.ogg;
#SAMPLESTART:54.614;
#SAMPLELENGTH:15;
#BPMS:0=180;
#NOTES:
     dance-single:
     :
     Beginner:
     3:
     :
0000
0000
0000
0000
,
0000
0000
0000
0000
,
0000
0000
0000
0000
,
0000
0000
0000
0000
,
0000
0000
0000
0000
,
1000
0000
0000
0000
,
1000
0000
0000
0000
,
0001
0000
0000
0000
,
0001
0000
0000
0000
,
1001
0000
0000
0000
,
1001
0000
0000
0000
,
0110
0000
0000
0000
,
0110
0000
0000
0000
,
1000
0000
1000
0000
,
0010
0000
0010
0000
,
1000
0000
1000
0000
,
0001
0000
0001
0000
,
0010
0000
0010
0000
,
0001
0000
1000
0000
,
0010
0000
0010
0000
,
1000
0000
0001
0000
,
1000
0000
0001
0000
,
1000
0000
0001
0000
,
1000
0000
1000
0000
,
0001
0000
0001
0000
,
0010
0000
0100
0000
,
0010
0000
0100
0000
,
0010
0010
0000
0000
,
0100
0100
0000
0000
,
1000
0000
1000
0000
,
0001
0000
0001
0000
,
1000
0001
1000
0000
,
0001
1000
0001
0000
,
2000
0000
0000
0000
,
3000
0000
0000
0000
,
0002
0000
0000
0000
,
0003
0000
0000
0000
,
2000
0000
0000
0000
,
3000
0000
0000
0000
,
2002
0000
0000
0000
,
3003
0000
0000
0000
,
0001
0000
0001
0000
,
1000
1000
0000
0000
,
0010
0000
0010
0000
,
0100
0100
0000
0000
,
0001
0001
0000
0000
,
0100
0100
0000
0000
,
0010
0010
0000
0000
,
1000
1000
0000
0000
,
0010
0000
1000
0000
,
0001
0000
0100
0000
,
0001
0001
0000
0000
,
1000
1000
0000
0000
,
0010
0000
0100
0000
,
0001
0000
1000
0000
,
1001
0000
0000
0000
,
1001
0000
0000
0000
,
0020
0000
0000
0000
,
0030
0000
0000
0000
,
0200
0000
0000
0000
,
0300
0000
0000
0000
,
0001
0000
1000
0000
,
0001
0000
1000
0000
,
0001
1000
0001
0000
,
1000
0001
1000
0000
,
2002
0000
0000
0000
,
3003
0000
0000
0000
,
0000
0000
0000
0000
;
#NOTES:
     dance-single:
     :
     Easy:
     6:
     :
0000
0000
0000
0000
,
0000
0000
0000
0000
,
0000
0000
0000
0000
,
0000
0000
0000
0000
,
0000
0000
0000
0000
,
0001
0000
0001
0000
,
1000
0000
1000
0000
,
0010
0100
0001
0000
,
0010
0100
1000
0000
,
1001
0000
0000
0000
,
0110
0000
0000
0000
,
1001
0000
0000
0000
,
0110
0000
0000
0000
,
1000
0001
0100
0000
,
0001
1000
0010
0000
,
0010
0100
0010
0000
,
1000
0001
1000
0000
,
0001
0010
0001
1000
,
0010
0100
0010
0000
,
1000
0010
1000
0001
,
0010
0100
0010
0000
,
0001
0000
1001
0000
,
1000
0000
1001
0000
,
0010
0010
0001
0100
,
0001
1000
0010
0000
,
1000
0010
1000
0001
,
0010
0001
1000
0010
,
0100
0100
0100
0000
,
0010
0010
0010
0000
,
1000
0001
1001
0000
,
0001
1000
1001
0000
,
0001
0100
0001
0010
,
0100
1000
0010
1000
,
0020
0000
0000
0000
,
0030
0000
0000
0000
,
0200
0000
0000
0000
,
0300
0000
0000
0000
,
0001
0001
0100
0000
,
1000
1000
0100
0000
,
1000
0100
0001
0100
,
1000
0001
0100
0000
,
0001
0001
0001
0010
,
0100
0010
0100
0000
,
1000
1000
1000
0010
,
0100
0010
0100
0000
,
0001
0001
0100
0100
,
1000
1000
0010
0010
,
1000
0001
1001
0000
,
0010
0100
0110
0000
,
0001
0100
0110
0000
,
0010
1000
1001
0000
,
0001
1000
0001
1001
,
1000
0001
1001
0000
,
0010
0100
0110
0000
,
0100
0010
0110
0000
,
0001
1001
1000
1001
,
0010
1001
0100
1001
,
0220
0000
0000
0000
,
0330
0000
0000
0000
,
2002
0000
0000
0000
,
3003
0000
0000
0000
,
0001
0001
0010
0100
,
1000
1000
0010
0100
,
0001
1000
0100
0010
,
0001
0001
1000
1000
,
2002
0000
0000
0000
,
3003
0000
0000
0000
,
0000
0000
0000
0000
;
#NOTES:
     dance-single:
     :
     Medium:
     10:
     :
0000
0000
0000
0000
,
0000
0000
0000
0000
,
0000
0000
0000
0000
,
0000
0000
0000
0000
,
0000
0000
0000
0000
,
0010
0100
1000
0000
1001
0000
0000
0000
,
0010
0100
0001
0000
1001
0000
0000
0000
,
0001
0010
0001
0000
1000
0010
1000
0000
,
0010
1000
0010
0000
1001
0000
0101
0000
,
0012
0000
0000
0000
,
1003
0000
0000
0000
,
2010
0000
0000
0000
,
3001
0000
0000
0000
,
0010
0000
0001
0000
0010
0100
1000
0000
,
0010
0000
1000
0000
0100
0010
0001
0000
,
1000
0000
0001
0000
1000
0001
0100
0000
,
0010
1000
0100
0000
0010
0001
0100
0000
,
0010
0000
1000
0000
0001
0100
0001
0000
,
0010
0000
0001
0000
1000
0100
1000
0000
,
0010
0000
0100
0000
0001
1000
0100
0000
,
0010
0000
0100
0000
1000
0001
0100
0000
,
0001
0101
1000
1010
,
0100
0110
0001
0011
,
0100
0100
1000
0010
,
0100
0000
0100
0000
0001
0100
1000
0000
,
0100
0000
0001
0000
0010
0100
0010
0000
,
0100
0000
1000
0000
0010
0100
0010
0000
,
0100
0001
1000
0000
0100
0010
0100
0000
,
0001
0100
1000
0000
0010
0100
0001
0000
,
0100
0000
0001
0000
0010
0001
0100
0000
,
0010
0000
1000
0000
0100
1000
0010
0000
,
0100
0001
0100
0000
0010
1000
0010
0000
,
1000
0001
0100
0001
1000
0000
0010
0000
,
1002
0000
0203
0000
,
0320
0000
2030
0000
,
3200
0000
0302
0000
,
0203
0000
2300
0000
,
3010
0100
1010
0000
,
0100
0001
0101
0000
,
0010
1000
0010
0000
0100
0001
0100
0000
,
0010
1000
0100
0010
0001
1000
0010
0000
,
0100
0001
0100
1000
,
0100
0001
0010
0100
,
1000
0010
1000
0000
0001
0100
0001
0000
,
0010
0100
0010
0000
0001
0010
0001
0000
,
0010
0001
0010
1000
,
0010
0001
0100
0010
,
1000
0100
0001
0000
0100
1000
0001
0000
,
0100
0001
0010
0000
0001
0010
1000
0000
,
0010
0001
1000
1001
,
0001
1000
0001
0110
,
1000
1010
0100
0101
,
0010
0011
0110
1001
,
1000
0000
0010
0000
1000
0010
1000
0000
,
0001
0000
0010
0000
0001
0010
0001
0000
,
0010
0110
1000
1001
,
0010
0110
1010
0011
,
2002
0000
0000
0000
,
3003
0000
0000
0000
,
1000
0000
0001
1000
0000
0001
1000
0010
,
0000
0100
0000
0001
0000
0010
0001
0000
,
0001
0000
1000
0001
0000
1000
0001
0010
,
0000
0100
0000
1000
0000
0010
1000
0000
,
0010
0100
0010
0000
0100
0001
0100
0000
,
0010
1000
0010
0000
0100
0001
0010
0100
,
2000
0000
0000
0000
,
3000
0000
0000
0000
,
0000
0000
0000
0000
;
#NOTES:
     dance-single:
     :
     Hard:
     14:
     :
0000
0000
0000
0000
,
0000
0000
0000
0000
,
0000
0000
0000
0000
,
0000
0000
0000
0000
,
0000
0000
0000
0000
,
0010
0100
0001
0100
0010
1000
0100
0000
,
0010
0100
1000
0100
0010
0001
0100
0000
,
0010
1000
0001
0100
0010
0100
0001
0000
,
0010
0001
1000
0100
0010
0100
1000
0000
,
1010
1000
0000
0000
0001
0000
0000
0000
,
0011
0001
0000
0000
1000
0000
0000
0000
,
1001
1000
0000
0000
0001
1000
0000
0000
,
0110
0100
0000
0000
0010
0000
0000
0000
,
1001
0010
0001
1000
0010
1000
0001
0000
,
1001
0010
1000
0001
0010
0001
1000
0000
,
1001
0100
0001
0100
0010
0100
1001
0000
,
0100
0000
0001
0000
0010
0000
0001
0000
1000
0000
0010
0000
1000
0001
1000
0000
,
0100
0010
0001
0100
0001
0100
0010
1000
,
0100
0001
0100
1000
0010
0100
0001
0000
,
0100
0010
1000
0100
1000
0100
0010
0001
,
0100
1000
0100
0001
0010
0100
1000
0000
,
1000
0010
1010
0000
0100
0001
0101
0000
,
0010
0001
0011
0000
0100
1000
1100
0000
,
0100
0010
0100
1000
0010
0100
0001
0010
,
0100
0000
0010
0000
0001
0000
0100
0000
0010
0000
0100
0010
0100
0000
0001
0000
,
1000
0010
0100
0010
1000
0100
0010
0001
,
1000
0100
0010
0100
1000
0010
0100
0001
,
0100
0010
1001
0000
0100
1000
1001
0000
,
0100
0001
1001
0000
1000
0010
1001
0000
,
0100
1000
0001
0100
0001
1000
0010
0100
,
0010
1000
0001
0010
0001
0100
0010
0100
,
0001
1000
0100
0010
0100
1000
0001
1000
,
0100
0000
0010
0000
0100
0000
1000
0000
0001
0000
0010
0001
0010
0000
0100
0000
,
1000
0001
0100
0000
0001
1000
0100
0000
,
0010
0001
0100
0000
0010
1000
0100
0000
,
0010
0100
1000
0000
0010
0100
0001
0000
,
0010
0001
0010
0000
0100
1000
0100
0000
,
0010
0001
0010
0001
0000
0010
0100
0000
,
1000
0010
1000
0010
0000
0100
0010
0000
,
0100
0010
0100
0001
0000
0010
0100
0000
,
1000
0100
1000
0001
0000
0010
0100
0000
,
1000
0010
1000
0001
0010
0100
1000
0100
,
0001
0100
0010
0001
0100
0010
1010
0000
,
0100
0001
0100
0010
1000
0100
0010
0100
,
0010
0001
0100
1000
0100
0001
0011
0000
,
0001
0010
0001
1000
0010
0100
0001
0100
,
1000
0100
0010
1000
0100
0010
0011
0000
,
0100
1000
0100
0010
0001
0100
0010
0100
,
0010
1000
0100
0001
0100
1000
1010
0000
,
0100
0010
1000
0100
0010
0001
0100
0010
,
1000
0010
0100
0001
0100
0010
1010
0000
,
1000
0100
1100
0000
0010
0001
0011
0000
,
0100
0010
1010
0000
0100
0010
0101
0000
,
0010
0100
0001
0110
1000
0010
0100
0101
,
0001
0010
0100
1100
0010
1000
0001
1001
,
0100
0010
1001
0000
1000
0010
0110
0000
,
1000
0000
0100
0000
0110
0000
0000
0000
0010
0000
0001
1000
0010
0000
1000
0000
,
0002
1000
0000
1000
,
0000
0000
0100
0000
0000
1000
1000
0000
,
2003
0001
0000
0001
,
0000
0000
0010
0000
0000
0001
0001
0000
,
3010
0100
0001
0000
0010
0100
1000
0000
,
0010
1000
0100
0000
0001
0100
1000
0000
,
0010
0100
0101
0000
0010
0100
1100
0000
,
1000
0000
0010
0000
0110
0000
0000
0000
1000
0000
0100
0010
0100
0000
1000
0000
,
0220
0000
0000
0000
,
0330
0000
0000
0000
,
0000
0000
0000
0000
;
#NOTES:
     dance-double:
     :
     Easy:
     5:
     :
00000000
00000000
00000000
00000000
,
00000000
00000000
00000000
00000000
,
00000000
00000000
00000000
00000000
,
00000000
00000000
00000000
00000000
,
00000000
00000000
00000000
00000000
,
10000000
00000000
10000000
00000000
,
01000000
00000000
01000000
00000000
,
00100000
00000000
00100000
00000000
,
00010000
00100000
00001000
00000000
,
00011000
00000000
00000000
00000000
,
00000110
00000000
00000000
00000000
,
00001001
00000000
00000000
00000000
,
00011000
00000000
00000000
00000000
,
00001000
00100000
00010000
00000000
,
01000000
00100000
10000000
00000000
,
01000000
00100000
00010000
00100000
,
00001000
00010000
00001000
00000000
,
00000100
00000010
00000100
00000001
,
00000010
00000100
00001000
00000000
,
00000100
00010000
00001000
00100000
,
00010000
00100000
01000000
00000000
,
00100000
00000000
00011000
00000000
,
00000010
00000000
00001001
00000000
,
00000001
00000100
00000010
00001000
,
00000010
00010000
00001000
00000000
,
00100000
00010000
10000000
00100000
,
01000000
00010000
01000000
00001000
,
00010000
00010000
00001000
00000000
,
00000010
00000010
00000100
00000000
,
00000010
00000001
00001001
00000000
,
00000100
00001000
00011000
00000000
,
00100000
00010000
00100000
01000000
,
10000000
00100000
01000000
00001000
,
00020000
00000000
00000000
00000000
,
00030000
00000000
00000000
00000000
,
00002000
00000000
00000000
00000000
,
00003000
00000000
00000000
00000000
,
00010000
00010000
00001000
00000000
,
00000100
00000100
00000001
00000000
,
00000010
00000010
00001000
00000000
,
00010000
00010000
00001000
00000000
,
00010000
00001000
00010000
00000010
,
00000100
00000010
00001000
00000000
,
00000001
00000100
00000001
00001000
,
00000010
00010000
00001000
00000000
,
00001000
00010000
00001000
00100000
,
01000000
00100000
00010000
00000000
,
10000000
01000000
00010000
00000000
,
00001000
00000100
00000001
00000000
,
00000010
00000001
00001001
00000000
,
00000010
00001000
00001001
00000000
,
00010000
00001000
00011000
00000000
,
00100000
00010000
10010000
00000000
,
00100000
01000000
00010000
00000000
,
00100000
00001000
00010000
00000000
,
00000010
00001000
00000001
00000100
,
00000010
00000100
00001000
00010000
,
00022000
00000000
00000000
00000000
,
00033000
00000000
00000000
00000000
,
02200000
00000000
00000000
00000000
,
03300000
00000000
00000000
00000000
,
00010000
00100000
00001000
00010000
,
00000100
00000010
00000001
00000100
,
00000010
00000010
00000100
00000100
,
00001000
00001000
00010000
00010000
,
00022000
00000000
00000000
00000000
,
00033000
00000000
00000000
00000000
,
00000000
00000000
00000000
00000000
;
#NOTES:
     dance-double:
     :
     Medium:
     10:
     :
00000000
00000000
00000000
00000000
,
00000000
00000000
00000000
00000000
,
00000000
00000000
00000000
00000000
,
00000000
00000000
00000000
00000000
,
00000000
00000000
00000000
00000000
,
01000000
00100000
10000000
00000000
10100000
00000000
00000000
00000000
,
00100000
01000000
00010000
00000000
01010000
00000000
00000000
00000000
,
00001000
00100000
00001000
00000000
00010000
00000100
00010000
00000000
,
00000100
00000010
00000001
00000000
00000100
00000000
00000010
00000000
,
00002010
00000000
00000000
00000000
,
00003100
00000000
00000000
00000000
,
00102000
00000000
00000000
00000000
,
01003000
00000000
00000000
00000000
,
00100000
00000000
00010000
00000000
00100000
01000000
10000000
00000000
,
00100000
00000000
01000000
00000000
00010000
00100000
00001000
00000000
,
00000100
00000000
00000001
00000000
00000010
00000100
00001000
00000000
,
00000100
00010000
00001000
00000000
00100000
00010000
01000000
00000000
,
00100000
00000000
10000000
00000000
01000000
00010000
00001000
00000000
,
00000100
00000000
00000001
00000000
00000100
00000001
00000010
00000000
,
00000010
00000000
00000001
00000000
00000100
00001000
00010000
00000000
,
01000000
00000000
10000000
00000000
01000000
10000000
00100000
00000000
,
01000000
01010000
00001000
00011000
,
00000100
00000101
00000010
00000110
,
00000001
00000000
00000100
00000000
00000010
00001000
00000100
00000000
,
00010000
00000000
00001000
00000000
00010000
00001000
01000000
00000000
,
00010000
00000000
00100000
00000000
10000000
00100000
00010000
00000000
,
00001000
00000000
00000100
00000000
00000001
00000100
00001000
00000000
,
00000001
00000100
00000010
00000000
00001000
00000100
00000010
00000000
,
00000100
00010000
00001000
00000000
01000000
00100000
01000000
00000000
,
00010000
00000000
00100000
00000000
00010000
01000000
00100000
00000000
,
01000000
00000000
00010000
00000000
00100000
00001000
00010000
00000000
,
00001000
00000010
00000001
00000000
00001000
00000010
00000100
00000000
,
00000010
00000100
00001000
01000000
00010000
00000000
01000000
00000000
,
10020000
00000000
00230000
00000000
,
00302000
00000000
00003200
00000000
,
00000302
00000000
00000023
00000000
,
00002030
00000000
00023000
00000000
,
01030000
10000000
11000000
00000000
,
00100000
00010000
00110000
00000000
,
00010000
00001000
00010000
00000000
00000010
00000100
00000010
00000000
,
00000100
00000001
00001000
00000000
00000010
00000000
00001010
00000000
,
00000010
00000100
00001000
00010000
,
01000000
10000000
01000000
00000000
,
10000000
01000000
00010000
00000000
00001000
00000100
00000001
00000000
,
00000100
00000010
00001000
00000000
00000100
00010000
00001000
00000000
,
00100000
01000000
00010000
00001000
,
00000100
00000001
00000100
00000000
,
00000001
00000100
00001000
00000000
00010000
01000000
10000000
00000000
,
01000000
00100000
00010000
00000000
01000000
00001000
00010000
00000000
,
00001000
00000100
00000001
00000011
,
00000100
00001000
00000010
00001010
,
00000100
00010000
00001000
00011000
,
01000000
00010000
01000000
01100000
,
10000000
00000000
00100000
00000000
01000000
00001000
00010000
00000000
,
00001000
00000000
00000010
00000000
00000001
00000010
00000100
00000000
,
00001000
00001100
00010000
00011000
,
01000000
01100000
00010000
10010000
,
02200000
00000000
00000000
00000000
,
03300000
00000000
00000000
00000000
,
00010000
00000000
00001000
00010000
00000000
00000010
00001000
00000001
,
00000000
00000100
00000000
00000010
00000000
00001000
00000100
00000000
,
00001000
00000000
00000010
00001000
00000000
00000100
00010000
00001000
,
00000000
01000000
00000000
00010000
00000000
00100000
01000000
00000000
,
10000000
01000000
00010000
00000000
01000000
00100000
01000000
00000000
,
00100000
00001000
00010000
00000000
00001000
00010000
00001000
00000000
,
00022000
00000000
00000000
00000000
,
00033000
00000000
00000000
00000000
,
00000000
00000000
00000000
00000000
;
#NOTES:
     dance-double:
     :
     Hard:
     13:
     :
00000000
00000000
00000000
00000000
,
00000000
00000000
00000000
00000000
,
00000000
00000000
00000000
00000000
,
00000000
00000000
00000000
00000000
,
00000000
00000000
00000000
00000000
,
10000000
01000000
00100000
00000000
00010000
01000000
00100000
00000000
,
00010000
00001000
00010000
00000000
00000010
00000100
00000001
00000000
,
00000010
00000100
00001000
00000000
00000010
00000100
00001000
00000000
,
00010000
00001000
00010000
01000000
10000000
00000000
00100000
00000000
,
10010000
10000000
00000000
00000000
00100000
00000000
00000000
00000000
,
01010000
01000000
00000000
00000000
00001000
00000000
00000000
00000000
,
00001010
00000010
00000000
00000000
00000100
00000001
00000000
00000000
,
00001001
00000001
00000000
00000000
00001000
00000000
00000000
00000000
,
00000010
00001000
00000100
00010000
00001000
00100000
01000000
00000000
,
00100000
01000000
10000000
00100000
01000000
00010000
00100000
00000000
,
00010000
00100000
00001000
00000000
00010000
00000100
00001000
00000000
,
00000010
00000000
00000100
00000000
00000001
00000000
00000010
00000000
00000100
00000000
00001000
00000000
00000010
00001000
00000001
00000000
,
00000010
00000001
00001000
00000010
00010000
00000100
00010000
00001000
,
00100000
00010000
01000000
00100000
10000000
01000000
10000000
00000000
,
00010000
00100000
00010000
00100000
00001000
00010000
00000100
00000010
,
00000001
00000100
00000010
00001000
00000001
00001000
00000100
00000000
,
00001000
00000010
00001010
00000000
00010000
00001000
00011000
00000000
,
00100000
00010000
00110000
00000000
10000000
00100000
10100000
00000000
,
10000000
01000000
00100000
01000000
00010000
00001000
00010000
00001000
,
00000010
00000000
00000001
00000000
00000010
00000000
00000001
00000000
00001000
00000000
00000010
00000100
00000010
00000000
00001000
00000000
,
00000001
00000010
00000100
00001000
00000100
00000010
00000100
00010000
,
00000010
00001000
00000010
00010000
00001000
00100000
01000000
00100000
,
00010000
01000000
01100000
00000000
01000000
00010000
00110000
00000000
,
00001000
00010000
00011000
00000000
00000010
00001000
00001010
00000000
,
00000001
00000010
00000100
00000000
00000010
00000100
00001000
00000000
,
00000100
00010000
00001000
00000000
01000000
00100000
01000000
00000000
,
00100000
10000000
01000000
00100000
00010000
00100000
00010000
00000000
,
00001000
00000000
00000100
00000000
00000010
00000000
00000100
00000000
00000010
00000000
00000001
00000010
00000001
00000000
00000100
00000000
,
00000010
00001000
00000001
00000000
00001000
00000100
00010000
00000000
,
00001000
00010000
01000000
00000000
00010000
01000000
10000000
00000000
,
00100000
01000000
00100000
00000000
00010000
00001000
00010000
00000000
,
00001000
00000100
00000001
00000000
00000100
00000010
00000100
00000000
,
00000001
00000010
00000001
00000010
00000000
00000100
00001000
00000000
,
00000100
00001000
00000100
00010000
00000000
00001000
00010000
00000000
,
01000000
10000000
01000000
10000000
00000000
00100000
01000000
00000000
,
00100000
01000000
00100000
00010000
00001000
00000100
00000001
00000000
,
00000001
00000010
00000001
00000100
00000010
00001000
00000100
00000010
,
00001000
00010000
00001000
00010000
01000000
10000000
01000000
00000000
,
10000000
00100000
10000000
01000000
00100000
00010000
01000000
00100000
,
00010000
00001000
00010000
00001000
00000100
00000001
00000100
00000000
,
00000001
00001000
00000010
00001000
00000100
00010000
00001000
00100000
,
00010000
00100000
01000000
10000000
00100000
01000000
00100000
00000000
,
10000000
00010000
00100000
00010000
01000000
00001000
00010000
00000010
,
00001000
00000010
00000100
00000001
00000010
00000100
00000010
00000000
,
00000001
00000100
00001000
00000100
00000010
00001000
00000100
00010000
,
00001000
00100000
00010000
01000000
00100000
10000000
01000000
00000000
,
00010000
00001000
00011000
00000000
00000100
00001000
00001100
00000000
,
00010000
00001000
00011000
00000000
00100000
00010000
00110000
00000000
,
10000000
01000000
00010000
01000000
00100000
00010000
01000000
00001000
,
00010000
00000010
00001000
00000100
00000001
00000100
00001000
00000000
,
00000010
00001000
00000001
00001001
00000100
00010000
00001000
00000000
,
00100000
00010000
10000000
10010000
01000000
00010000
00100000
00000000
,
00010000
00010000
00000000
10000000
00000000
01000000
00100000
00010000
,
00000000
00001000
00000100
00000010
00000000
00000001
00000001
00000000
,
00001000
00001000
00000000
00000001
00000000
00000100
00000010
00001000
,
00000000
00010000
01000000
00100000
00000000
10000000
10000000
00000000
,
10000000
00010000
10000000
00100000
00000000
01000000
00100000
00010000
,
00000000
00100000
01000000
00001000
00000000
00010000
00001000
00000000
,
00010000
00000100
00001100
00000000
00000010
00000001
00000011
00000000
,
00001000
00000010
00001010
00000000
00010000
00001000
00010000
01000000
,
20000000
00000000
00000000
00000000
,
30000000
00000000
00000000
00000000
,
00000000
00000000
00000000
00000000
;
