
//----- song ID: hilo -----//
#TITLE:High & Low;
#ARTIST:Shouya Namai;
#BANNER:High & Low.png;
#BACKGROUND:High & Low-bg.png;
#CDTITLE:./CDTitles/DDR A20 PLUS.png;
#MUSIC:High & Low.ogg;
#SAMPLESTART:34.221;
#SAMPLELENGTH:15;
#BPMS:0=210;
#NOTES:
     dance-single:
     :
     Beginner:
     4:
     :
0000
0000
0000
0000
,
0000
0000
0000
0000
,
0000
0000
0000
0000
,
0000
0000
0000
0000
,
0000
0000
0000
0000
,
0000
0000
0000
0000
,
0001
0000
0010
0000
,
0001
0000
0000
0000
,
0100
0000
0010
0000
,
0100
0000
0000
0000
,
1000
0000
0100
0000
,
1000
0000
0000
0000
,
0010
0000
0100
0000
,
0010
0000
0000
0000
,
0001
0000
0100
0000
,
0010
0000
0000
0000
,
1000
0000
0010
0000
,
0100
0000
0000
0000
,
0001
0000
0001
0000
,
0010
0000
0010
0000
,
0100
0000
0100
0000
,
1000
0000
1000
0000
,
1000
0000
1000
0000
,
0100
0000
0100
0000
,
0010
0000
0010
0000
,
0000
0000
0000
0000
,
0001
0000
0010
0000
,
0100
0000
0010
0000
,
0001
0000
0100
0000
,
0010
0000
0000
0000
,
1000
0000
0100
0000
,
0010
0000
0100
0000
,
1000
0000
0010
0000
,
0100
0000
0000
0000
,
0001
0000
0100
0000
,
0010
0000
0100
0000
,
1000
0000
0100
0000
,
1000
0000
0000
0000
,
1000
0000
0100
0000
,
0010
0000
0100
0000
,
0001
0000
0100
0000
,
0001
0000
0000
0000
,
0010
0000
0010
0000
,
0001
0000
0001
0000
,
0100
0000
0100
0000
,
1000
0000
0000
0000
,
0100
0000
0100
0000
,
0001
0000
0001
0000
,
0010
0000
0010
0000
,
1000
0000
0000
0000
,
0010
0000
0010
0000
,
0001
0000
0001
0000
,
1000
0000
1000
0000
,
0100
0000
0100
0000
,
1000
0000
1000
0000
,
0010
0000
0010
0000
,
1000
0000
0001
0000
,
2002
0000
0000
3003
,
1000
0000
0100
0000
,
1000
0000
0000
0000
,
0100
0000
1000
0000
,
0100
0000
0000
0000
,
0010
0000
0001
0000
,
0010
0000
0000
0000
,
0001
0000
0010
0000
,
0001
0000
0000
0000
,
0100
0000
0001
0000
,
0100
0000
0000
0000
,
0001
0000
0100
0000
,
0001
0000
0000
0000
,
1000
0000
0010
0000
,
1000
0000
0000
0000
,
0010
0000
1000
0000
,
0010
0000
0000
0000
,
1000
0000
0000
0000
,
0100
0000
0000
0000
,
0010
0000
0010
0000
,
0010
0000
0000
0000
,
0001
0000
0000
0000
,
0100
0000
0000
0000
,
0010
0000
0010
0000
,
0010
0000
0000
0000
,
1000
0000
0100
0000
,
1000
0000
0010
0000
,
0100
0000
0001
0000
,
0100
0000
0000
0000
,
0001
0000
0100
0000
,
0001
0000
0010
0000
,
0100
0000
1000
0000
,
0100
0000
0000
0000
,
1000
0000
0000
0000
,
0100
0000
0000
0000
,
0001
0000
0100
0000
,
1000
0000
0000
0000
,
0001
0000
0000
0000
,
0100
0000
0000
0000
,
1000
0000
0100
0000
,
0001
0001
0001
0000
,
1001
0000
0000
0000
,
0000
0000
0000
0000
;
#NOTES:
     dance-single:
     :
     Easy:
     8:
     :
0000
0000
0000
0000
,
0000
0000
0000
0000
,
0000
0000
0000
0000
,
0000
0000
0000
0000
,
0000
0000
0000
0000
,
0000
0000
0000
0000
,
0001
0000
1000
0000
,
0100
0000
0100
0000
,
1000
0000
0001
0000
,
0100
0000
0100
0000
,
0010
0000
1000
0000
,
0001
0000
0001
0000
,
0010
0000
0001
0000
,
1000
0000
1000
0000
,
0100
0000
1000
0000
,
0010
0000
0010
0000
,
0100
0000
0001
0000
,
0010
0000
0010
0000
,
1001
0000
0001
0000
,
1000
0000
0001
0000
,
1001
0000
1000
0000
,
0001
0000
1000
0000
,
0110
0000
0010
0000
,
0100
0000
0010
0000
,
0100
0000
0001
1000
,
0000
0000
0000
0000
,
0001
0100
0010
0000
,
0001
0100
0010
0000
,
0001
0010
0100
0000
,
0001
0010
0100
0000
,
1000
0100
0010
0000
,
1000
0100
0010
0000
,
1000
0010
0100
0000
,
1000
0010
0100
0000
,
0001
1000
0010
0000
,
0001
1000
0010
0000
,
1000
0001
0010
0000
,
1000
0001
0010
0000
,
0100
1000
0010
0000
,
0100
0001
0010
0000
,
0100
1000
0010
0000
,
0100
0001
1000
0000
,
1001
0000
0110
0000
,
0010
0010
0010
0000
,
1001
0000
0110
0000
,
0100
0100
0100
0000
,
0011
0000
0101
0000
,
1000
1000
1000
0000
,
1010
0000
1100
0000
,
0001
0001
0001
0000
,
0001
0010
1000
0000
,
1000
0010
0001
0000
,
1000
0010
0001
0010
,
0001
0010
1000
0000
,
0010
1000
0100
0010
,
0001
0100
0001
0010
,
0100
1000
0010
0100
,
0002
0000
0000
0003
,
1000
0100
1000
0000
0001
0000
0010
0000
,
0001
0100
0010
0000
,
0001
0100
0001
0000
1000
0000
0010
0000
,
0100
0001
1000
0000
,
0100
0010
0100
0000
1000
0000
0001
0000
,
0100
0010
1000
0000
,
0001
1000
0001
0000
0100
0000
0001
0000
,
0010
0100
1000
0000
,
0010
1000
0001
0000
0100
0000
0001
0000
,
0010
0100
1000
0001
,
1000
0000
1000
0000
0010
0010
0010
0000
,
0100
0001
1000
0001
,
0010
0100
1000
0100
,
0001
0000
0100
0000
1000
0001
1000
0000
,
0010
0100
0001
1000
,
0100
0100
0100
0000
0200
0000
0300
0000
,
0010
0001
0010
0001
,
0100
0000
0001
0000
0100
0000
0001
0100
,
0010
1000
0010
1000
,
0100
1000
0100
0000
,
1000
0010
1000
0000
1000
0000
0000
0000
,
0001
0010
0001
0000
0001
0000
0000
0000
,
1000
0100
1000
0000
0001
0100
0001
0000
,
0000
0000
0000
0000
,
0001
0010
0100
0100
,
1000
0000
0001
0000
0100
0010
0100
0000
,
0001
1000
0010
0010
,
0100
0001
0100
0000
0001
0000
0000
0000
,
1000
0100
0010
0010
,
0001
0000
1000
0000
0010
0100
0010
0000
,
1000
0001
0100
0100
,
0010
1000
0010
0000
1000
0000
0000
0000
,
0000
1010
0000
1010
,
0000
0101
0000
0101
,
0000
0011
0000
0011
,
0000
1100
0000
1100
,
1000
0010
0001
0010
,
1000
0100
0001
0100
,
1000
0100
1000
0000
0001
0010
0001
0000
,
2000
0000
0000
3000
,
1001
0000
0000
0000
,
0000
0000
0000
0000
;
#NOTES:
     dance-single:
     :
     Medium:
     12:
     :
0000
0000
0000
0000
,
0000
0000
0000
0000
,
0000
0000
0000
0000
,
0000
0000
0000
0000
,
0000
0000
0000
0000
,
0000
0000
0000
0000
,
0001
0000
1000
0010
,
0000
1000
0010
0000
,
0001
0000
1000
0100
,
0000
1000
0100
0000
,
1000
0000
0001
0010
,
0000
0001
0010
0000
,
1000
0000
0001
0100
,
0000
0001
0100
0000
,
0010
0000
1000
0001
,
0000
1000
0001
0000
,
0010
0000
0001
1000
,
0000
0001
1000
0000
,
1001
0000
0110
0000
,
0010
1000
0100
0000
,
1001
0000
0110
0000
,
0010
0001
0100
0000
,
0001
0010
0001
0000
,
1000
0100
1000
0000
,
0001
1000
0001
1000
,
0000
0000
0000
0000
,
0100
1000
0001
0010
,
0001
1000
0001
0000
0100
0000
0000
0000
,
0100
0001
1000
0010
,
1000
0001
1000
0000
0100
0000
0000
0000
,
0001
0010
1000
0010
,
0001
1000
0100
0000
0010
0000
0000
0000
,
1000
0010
0001
0010
,
1000
0001
0100
0000
0010
0000
0000
0000
,
0100
0010
1000
0001
,
0010
0100
0010
0000
0001
0000
0000
0000
,
0010
0100
1000
0001
,
0100
0010
0100
0000
0001
0000
0000
0000
,
0100
0010
0001
1000
,
0010
0100
0010
0000
1000
0000
0000
0000
,
0010
0100
0001
1000
,
0100
0010
0100
0000
1000
0000
0000
0000
,
1001
0000
0110
0100
,
1000
0100
0001
0100
2000
0000
3000
0000
,
0001
0000
1001
0000
0010
0100
0010
0100
,
0010
0010
0220
0330
,
1000
0000
0010
0100
0010
0000
0100
0000
,
0001
0010
0100
0000
0200
0000
0300
0000
,
1000
0000
0010
0000
0100
0001
0100
0001
,
0100
0001
1000
0000
,
1000
0010
0100
0000
,
0001
0010
0100
0000
,
1000
0100
0001
0100
,
1000
0001
1000
0001
1000
0000
0000
0000
,
0010
1000
0010
1000
0001
0100
0001
0100
,
0001
0010
0001
0010
0100
0000
0000
0000
,
1000
0010
0100
0001
0010
0100
1000
0001
,
0100
0010
1000
0010
0100
0001
1000
0000
,
0001
0010
0100
0000
0100
0010
0001
0000
,
1000
0010
0100
0001
0100
0010
1000
0000
,
0001
1000
0100
0000
1000
0001
0100
0000
,
0010
1000
0010
0100
0001
0100
0001
0000
,
0010
0100
1000
0000
0001
0010
0100
0000
,
1000
0001
1000
0001
0100
0010
0100
0000
,
0001
0100
0010
0000
1000
0001
0100
0000
,
0010
0100
0010
0100
0020
0000
0030
0000
,
1000
0100
0010
0000
0010
0100
1000
0000
,
0001
0100
0010
1000
0010
0100
0001
0000
,
1000
0001
0010
0000
0001
1000
0010
0000
,
0100
0001
0100
0010
1000
0010
1000
0000
,
0100
0010
0001
0000
1000
0100
0010
0000
,
0001
1000
0001
1000
0010
0100
0010
0000
,
1000
0010
0100
0000
0001
1000
0010
0000
,
0100
0010
0100
0010
0200
0000
0300
0000
,
0001
0100
0001
0100
,
0010
1000
0010
0000
2000
0000
3000
0000
,
1000
0100
1000
0100
,
0010
0001
0010
0000
0002
0000
0003
0000
,
0001
0100
0001
0000
1000
0100
1000
0000
,
0001
0010
0001
0000
1000
0010
1000
0000
,
0001
1000
0001
1000
0001
1000
0001
1000
,
0000
0000
0000
0000
,
0010
1000
0100
1000
0010
0000
0100
0001
,
0010
0001
0010
0100
1000
0000
0000
0000
,
0100
1000
0010
1000
0100
0000
0010
0001
,
0100
0001
1000
0010
1000
0000
0000
0000
,
0100
0001
0010
0001
0100
0000
0010
1000
,
0100
1000
0100
0010
0001
0000
0000
0000
,
0010
0001
0100
0001
0010
0000
0100
1000
,
0010
1000
0001
0100
0001
0000
0000
0000
,
0010
1001
0010
1001
,
0100
1000
0001
0010
0001
0000
0000
0000
,
0010
1001
0010
1001
,
0100
0001
1000
0010
1000
0000
0000
0000
,
0001
1000
0001
0000
0100
0010
0100
0000
,
0001
0010
0001
1000
0010
0100
0001
1000
,
0100
0010
0100
0010
0001
0100
0010
1000
,
0020
0000
0000
0030
,
1001
0000
0000
0000
,
0000
0000
0000
0000
;
#NOTES:
     dance-single:
     :
     Hard:
     16:
     :
0000
0000
0000
0000
,
0000
0000
0000
0000
,
0000
0000
0000
0000
,
0000
0000
0000
0000
,
0000
0000
0000
0000
,
0000
0000
0000
0000
,
0001
0000
0100
0010
,
1000
0100
0010
0000
,
1000
0000
0100
0010
,
0001
0100
0010
0000
,
0100
0000
1000
0001
,
0010
0001
1000
0000
,
0100
0000
0001
1000
,
0010
1000
0001
0000
,
0010
0000
1000
0100
,
0001
0100
1000
0000
,
0010
0000
0001
0100
,
1000
0100
0001
0000
,
0010
1000
0100
0000
,
0010
0001
0100
0000
,
0001
0010
0100
0000
,
1000
0010
0100
0000
,
0001
0010
0001
0010
,
0100
0000
1000
0000
0100
0000
1000
0100
,
1000
0001
1000
0001
1000
0001
1000
0001
,
0000
0000
0000
0000
,
0010
1000
0100
0010
0001
0100
0010
1000
,
0100
0000
0010
0001
0010
0000
0001
0000
2000
0000
0000
0000
3010
0000
0000
0000
,
0100
0001
0010
0100
1000
0010
0100
0001
,
0010
0000
0100
1000
0100
0000
1000
0000
0002
0000
0000
0000
0013
0000
0000
0000
,
0100
0001
0010
0100
1000
0010
0100
0001
,
0010
0000
0100
1000
0100
0000
1000
0000
0002
0000
0000
0000
0103
0000
0000
0000
,
0010
1000
0100
0010
0001
0100
0010
1000
,
0100
0000
0010
0001
0010
0000
0001
0000
2000
0000
0000
0000
3100
0000
0000
0000
,
0001
0100
1000
0100
0001
0100
1000
0100
,
0001
0000
1000
0100
0010
0000
0001
0000
2000
0000
0000
0000
3010
0000
0000
0000
,
0001
0010
1000
0010
0001
0010
1000
0010
,
0001
0000
1000
0010
0100
0000
0001
0000
2000
0000
0000
0000
3100
0000
0000
0000
,
1000
0100
0001
0100
1000
0100
0001
0100
,
1000
0000
0001
0100
0010
0000
1000
0000
0002
0000
0000
0000
0013
0000
0000
0000
,
1000
0010
0001
0010
1000
0010
0001
0010
,
1000
0000
0001
0010
0100
0000
1000
0000
0002
0000
0000
0000
0103
0000
0000
0000
,
0110
0000
1001
0001
,
0100
0000
0010
1000
0010
0000
0100
0000
0002
0000
0000
0000
0010
0000
0000
0000
,
0103
0000
0110
0000
1000
0100
0001
0100
,
1000
0110
0001
0110
,
2000
0000
0000
3010
0001
0010
2000
0000
,
3001
0100
1000
0100
0001
0010
0001
0010
,
0200
0000
2300
0000
3010
0100
0001
0100
,
0010
1000
1001
0000
,
0100
0001
0010
0100
,
1000
0010
0100
0000
,
0100
0001
0010
0100
1000
0010
0100
0001
,
0010
0100
1000
0010
0100
0001
1000
0000
,
0001
0010
0001
0000
1000
0010
1000
0000
0001
0100
0001
0000
1000
0100
1000
0000
,
0001
0010
0100
0000
1000
0010
0100
0000
0001
0010
0100
0000
0000
0000
0000
0000
,
0001
1000
0001
1000
0001
1000
0001
1000
0001
1000
0001
1000
0001
1000
0001
1000
,
0001
0000
0000
0010
0000
0000
0100
0000
1000
0000
0000
0000
1001
0000
0000
0000
,
0100
0000
0001
0010
0001
0000
0100
0000
0010
0000
1000
0000
0100
0000
0010
0000
,
0001
0000
0100
0010
0100
0000
0001
0000
1000
0000
0100
0000
0010
0000
0000
0000
,
0001
0100
0001
0100
0010
0100
0010
0100
,
0001
0000
1000
0010
1000
0000
0100
0000
0010
0000
0000
0000
0110
0000
0000
0000
,
0001
1000
1100
0000
1000
0001
0101
0000
,
0010
0000
1000
0010
1000
0000
0001
0010
0001
0000
0100
0010
0100
0000
0000
0000
,
0010
1000
1100
0000
0011
0000
0110
0000
,
1000
0100
0001
0100
2000
0000
3001
0000
,
0100
0010
1010
0000
0100
0010
0011
0000
,
0100
0000
1000
0001
1000
0000
0100
0000
0010
0000
0100
0000
0010
0000
0000
0000
,
0001
0000
1001
0000
0010
0100
0010
0100
,
1000
0001
1000
0001
1000
0000
0000
0000
0010
0000
0000
0000
0010
0000
0000
0000
,
1000
0000
0010
0100
0010
0000
1000
0000
0001
0000
0010
0100
0010
0000
0001
0000
,
1000
0000
0010
0000
0100
0000
0001
0000
0010
0100
0010
0100
0010
0000
0000
0000
,
0001
0000
0110
0000
1000
0010
1000
0010
,
0100
0000
0001
0010
0001
0000
0010
0000
2000
0000
0000
0000
3010
0000
0000
0000
,
0001
0100
0001
0100
0001
0000
0100
0001
,
0010
0000
0100
1000
0100
0000
1000
0000
0002
0000
0000
0000
0103
0000
0000
0000
,
1000
0100
1000
0100
1000
0000
0100
1000
,
0010
0000
0100
0001
0100
0000
0001
0000
0200
0000
0000
0000
0310
0000
0000
0000
,
0010
1000
0010
1000
0010
1000
0010
1000
,
0001
0010
0001
0010
0001
0010
0001
0010
,
0100
0000
0010
0000
0001
0000
1000
0000
0001
1000
0001
1000
0001
1000
0001
1000
,
0000
0000
0010
1001
,
0100
0000
0010
0100
0010
0000
1000
0000
0100
0000
0010
0001
0010
0000
0100
0000
,
1000
0000
0001
0100
0010
0000
1000
0000
0100
0000
0001
0000
0100
0000
0000
0000
,
0010
0000
0001
0100
0001
0000
0010
0000
0100
0000
1000
0010
1000
0000
0001
0000
,
0100
0000
0010
1000
0001
0000
0100
0000
0020
0000
0000
0000
0130
0000
0000
0000
,
0001
0000
0010
0100
0010
0000
0001
0000
0100
0000
0010
0001
0010
0000
1000
0000
,
0010
0000
0100
0010
1000
0000
0100
0000
0010
0000
0100
0000
1000
0000
0000
0000
,
0001
0000
0100
0010
0001
0000
0010
0000
0100
0000
0001
0010
0100
0000
0010
0000
,
0100
0000
1000
0001
0100
0000
0010
0000
0200
0000
0000
0000
0310
0000
0000
0000
,
1000
0100
0110
0000
1000
0010
0110
0000
,
0001
0000
0100
0001
0010
0000
0001
0000
2000
0000
0000
0000
3010
0000
0000
0000
,
0001
0100
0110
0000
0001
0010
0110
0000
,
1000
0000
0100
1000
0010
0000
1000
0000
0002
0000
0000
0000
0103
0000
0000
0000
,
0010
0000
1000
0100
0010
0000
0001
0000
0100
0000
0010
1000
0100
0000
0010
0000
,
0001
1000
0001
1000
0001
0000
0100
0000
0010
0000
0100
0001
0100
0000
0010
0000
,
1000
0010
1000
0000
0001
0100
0001
0000
0010
0001
0010
0001
0010
0100
0010
0100
,
0020
0000
0000
0030
,
1001
0000
0000
0000
,
0000
0000
0000
0000
;
#NOTES:
     dance-single:
     :
     Challenge:
     18:
     :
0000
0000
0000
0000
,
0000
0000
0000
0000
,
0000
0000
0000
0000
,
0000
0000
0000
0000
,
0000
0000
0000
0000
,
0000
0000
0000
0000
,
1000
0100
0000
1000
0100
0000
0010
0001
,
0000
0010
0001
0000
1000
0001
1000
0000
,
0001
0100
0000
0001
0100
0000
0010
1000
,
0000
0010
1000
0000
0001
1000
0001
0000
,
1000
0100
0000
1000
0100
0000
0001
0100
,
0000
0001
0100
0000
1000
0010
0100
0000
,
0001
0100
0000
0001
0100
0000
1000
0100
,
0000
1000
0100
0000
0001
0010
0100
0000
,
1000
0010
0000
1000
0010
0000
0001
0010
,
0000
0001
0010
0000
1000
0100
0010
0000
,
0001
0010
0000
0001
0010
0000
1000
0010
,
0000
1000
0010
0000
0001
0100
0010
0000
,
1001
0000
1001
0000
,
0100
0000
0001
0010
0100
0000
1000
0000
0002
0000
0000
0000
0003
0000
0000
0000
,
1001
0000
1001
0000
,
0100
0000
1000
0010
0100
0000
0001
0000
2000
0000
0000
0000
3000
0000
0000
0000
,
1000
0010
0100
0001
1000
0010
0100
0001
,
1000
0100
0010
0001
1000
0100
0010
0001
,
0100
0000
0001
0000
0010
0000
0100
0000
1000
0010
1000
0001
0010
0001
0100
0001
,
0000
0000
0100
1001
,
1000
0010
0010
0010
0010
0000
1000
0100
,
0001
0000
0100
0010
0001
0000
0100
0000
0020
0000
0000
0000
0030
0000
0000
0000
,
1000
0010
0010
0010
0010
0000
1000
0010
,
0100
0000
1000
0100
0001
0000
1000
0000
0200
0000
0000
0000
1300
0000
0000
0000
,
0001
0010
0010
0010
0010
0000
0001
0100
,
1000
0000
0100
0010
1000
0000
0100
0000
0020
0000
0000
0000
0030
0000
0000
0000
,
0001
0010
0010
0010
0010
0000
0001
0010
,
0100
0000
0001
0100
1000
0000
0001
0000
0200
0000
0000
0000
0301
0000
0000
0000
,
0001
0000
0010
0001
0010
0000
0001
0000
0100
0000
0001
0100
0001
0000
0100
0000
,
0010
0000
1000
0100
0010
0000
0001
0000
0100
0000
0010
0000
1000
0000
0010
0000
,
0100
0000
0001
0100
0001
0000
0100
0000
0001
0000
0010
0001
0010
0000
0001
0000
,
0100
0000
0010
1000
0100
0000
0001
0000
0100
0000
0000
0000
0110
0000
0000
0000
,
1000
0010
0100
0010
1000
0010
0100
0010
,
1000
0000
0100
0010
0001
0000
1000
0000
0010
0000
0100
0000
0001
0000
1000
0000
,
0100
0010
0001
1000
0100
0010
0001
1000
,
0010
0000
0100
0001
0010
0000
0001
0000
1000
0000
0000
0000
0000
0000
0000
0000
,
1001
0000
0010
0010
,
0100
0010
0100
0010
0200
0000
0000
0000
,
0301
0000
0001
0000
1000
0100
0001
0100
,
2000
3010
0200
0310
,
2000
0000
0000
3001
0001
0001
0020
0000
,
0000
0031
0001
0001
0100
0100
0100
0100
,
0020
0000
2030
0000
3100
0001
0100
1000
,
0200
0302
0103
0000
,
1000
0000
0010
1000
0010
0000
0100
0010
0100
0000
0001
0100
0001
0000
0010
0001
,
0010
0000
0100
0010
0100
0000
1000
0100
1000
0000
0000
0000
0001
0000
0000
0000
,
1000
0010
0001
0000
0001
0010
1000
0000
0001
0100
1000
0000
1000
0100
0001
0000
,
1000
0100
0001
0000
0001
0100
1000
0000
0001
0010
1000
0010
0001
0000
1000
0000
,
0010
1000
0010
1000
0010
1000
0010
1000
0100
1000
0100
1000
0100
1000
0100
0010
,
0001
0010
0001
0010
0001
0010
0001
0010
0001
0100
0001
0100
0001
0000
0000
0000
,
1000
0010
0100
0001
1000
0001
0100
0010
1000
0001
0010
0001
1000
0100
1000
0001
,
0100
0000
0000
0100
0000
0000
0100
0000
0010
0100
0010
0000
1001
0000
0000
0000
,
0010
1000
0100
0000
0010
0001
0100
0000
0001
1000
0010
0000
0100
0000
0010
0000
,
1000
0001
0100
0000
0001
1000
0100
0000
1000
0010
0100
0000
0001
0000
0000
0000
,
0010
0010
0100
0100
,
1000
0000
0000
1000
0001
0100
0001
0100
0010
0000
0000
0000
0110
0000
0000
0000
,
1000
0010
0100
0000
0010
0001
0010
0000
0100
0010
1000
0000
0010
0100
0010
0000
,
1000
0000
0100
0010
0001
0000
0010
0100
1000
0000
0010
0100
0001
0000
0000
0000
,
0010
0100
1000
1000
,
0001
0100
1000
0100
0002
0000
1003
0000
,
0100
0010
0100
0010
1000
0000
0000
0000
1000
0010
1000
0010
0100
0000
1000
0000
,
0001
0010
0001
0010
0100
0010
0100
0010
0001
0010
0100
0010
0001
0000
0000
0000
,
1000
0000
1000
0000
1000
1000
1000
1000
,
1000
0010
1000
0010
1000
0000
0000
0000
0001
0000
0000
0000
1001
0000
0000
0000
,
0100
0010
0001
0000
0001
0010
0100
0000
1000
0010
0100
0000
0100
0010
1000
0000
,
0001
0100
1000
0100
0001
0000
1000
0000
0100
0010
0100
0010
0100
0000
0000
0000
,
0010
0000
0011
0000
0100
1000
0100
1000
,
0001
0000
0100
1000
0100
0000
0001
0000
0020
0000
0000
0000
0130
0000
0000
0000
,
1000
0010
0010
0010
0010
0000
1000
0001
,
0010
0000
0100
1000
0100
0000
1000
0000
0020
0000
0000
0000
0130
0000
0100
0000
,
0001
0010
0010
0010
0010
0000
0001
1000
,
0010
0000
0100
0001
0100
0000
0001
0000
0020
0000
0000
0000
0030
0000
0000
0000
,
0001
0100
0010
1000
0001
0010
0100
1000
,
0010
0000
1000
0001
0010
0000
0100
0000
1000
0000
0010
0000
0100
0000
0010
0000
,
1000
0000
0100
0000
0010
0000
0001
0000
1000
0100
1000
0100
0010
0001
0010
0001
,
0000
0000
1000
1001
,
0010
0000
0100
0001
1000
0000
0100
0010
0001
0000
0010
0100
1000
0000
0010
0100
,
0001
0000
1000
0010
1000
0000
0100
0000
1000
0000
1000
0000
1000
0000
0000
0000
,
0001
0000
0100
0010
0100
0000
0001
0010
0100
0000
1000
0001
0010
0000
0100
0010
,
0001
0000
1000
0010
0100
0000
0010
0000
1000
0000
1000
0000
1000
0000
0000
0000
,
1000
0000
0001
0010
0100
0000
1000
0001
0010
0000
0100
1000
0001
0000
0100
0001
,
0010
0001
0010
0001
1000
0000
0001
0000
0100
0000
0100
0000
0100
0000
0000
0000
,
0001
0000
1000
0010
0100
0000
0001
1000
0010
0000
0100
0001
0010
0000
0100
1000
,
0100
0010
0100
1000
0100
0000
1000
0000
0001
0000
0001
0000
0001
0000
0000
0000
,
1000
0000
0100
0010
0100
0000
0100
0000
0100
0000
1000
0010
1000
0000
0001
0000
,
0100
0000
0001
0100
1000
0000
0100
0000
0010
1000
0010
0100
0010
0000
0000
0000
,
1000
0000
0010
0100
0010
0000
0010
0000
0010
0000
1000
0100
1000
0000
0001
0000
,
0010
0000
1000
0010
0001
0000
1000
0000
0100
0010
0001
0010
0100
0000
0000
0000
,
1000
0010
0100
0000
0001
0010
0100
0000
1000
0001
0010
0000
0001
1000
0010
0000
,
1000
0100
1000
0100
1000
0010
1000
0010
0100
0001
0100
0001
0010
0001
0010
0001
,
0010
0100
1000
0001
0100
0010
1000
0001
0100
0010
1000
0100
0010
0001
1000
0010
,
0200
0000
0000
0300
,
1001
0000
0000
0000
,
0000
0000
0000
0000
;
#NOTES:
     dance-double:
     :
     Easy:
     8:
     :
00000000
00000000
00000000
00000000
,
00000000
00000000
00000000
00000000
,
00000000
00000000
00000000
00000000
,
00000000
00000000
00000000
00000000
,
00000000
00000000
00000000
00000000
,
00000000
00000000
00000000
00000000
,
00100000
00000000
10000000
00000000
,
01000000
00000000
01000000
00000000
,
00100000
00000000
00001000
00000000
,
00010000
00000000
00010000
00000000
,
00000100
00000000
00001000
00000000
,
00000010
00000000
00000010
00000000
,
00000100
00000000
00000001
00000000
,
00000010
00000000
00000010
00000000
,
00000100
00000000
00010000
00000000
,
00001000
00000000
00001000
00000000
,
00010000
00000000
00001000
00000000
,
01000000
00000000
01000000
00000000
,
01100000
00000000
00000000
00000000
,
10000000
01000000
00100000
00000000
,
01100000
00000000
00000000
00000000
,
00001000
00010000
00001000
00000000
,
00011000
00000000
00000000
00000000
,
00000010
00001000
00000100
00000000
,
00000220
00000000
00000000
00000000
,
00000330
00000000
00000000
00000000
,
00000001
00000100
00000010
00000000
,
00000010
00000100
00000001
00000000
,
00001000
00000100
00001000
00000000
,
00000100
00010000
00001000
00000000
,
00100000
00010000
01000000
00000000
,
01000000
00010000
00100000
00000000
,
01000000
10000000
00010000
00000000
,
01000000
00010000
10000000
00000000
,
00100000
01000000
00010000
00000000
,
00100000
00001000
00010000
00000000
,
00000100
00001000
00000010
00000000
,
00000100
00001000
00010000
00000000
,
00000010
00001000
00000001
00000000
,
00001000
00000100
00010000
00000000
,
00001000
00100000
00010000
00000000
,
01000000
00100000
10000000
00000000
,
10010000
00000000
10010000
00000000
,
00100000
00100000
00100000
00000000
,
01000000
00010000
00100000
00001000
,
00010000
00001000
00010000
00000000
,
00010100
00000000
00001100
00000000
,
00000010
00000010
00000010
00000000
,
00000001
00000100
00000010
00001000
,
00000100
00010000
00001000
00000000
,
00010000
00100000
10000000
00000000
,
10000000
01000000
00010000
00000000
,
00001000
00000010
00000001
00000010
,
00000001
00000100
00001000
00000000
,
00000100
00000010
00001000
00000100
,
00010000
00001000
00100000
00010000
,
01000000
00010000
00100000
01000000
,
20000000
00000000
00000000
30000000
,
00010000
10000000
00010000
00000000
00100000
00000000
00001000
00000000
,
00010000
00000010
00001000
00000000
,
00000100
00000010
00000100
00000000
00000010
00000000
00000001
00000000
,
00000100
00001000
00000100
00000000
,
00000010
00001000
00000010
00000000
00000100
00000000
00001000
00000000
,
00010000
00001000
00010000
00000000
,
00001000
01000000
00001000
00000000
00100000
00000000
00010000
00000000
,
00100000
01000000
10000000
00000000
,
10000000
00100000
00010000
00100000
,
10000000
01000000
00010000
00001000
,
00010000
00000000
00010000
00000000
00001000
00001000
00001000
00000000
,
00010000
00000010
00001000
00000100
,
00000010
00000001
00000100
00001000
,
00000100
00000001
00000010
00001000
,
00000010
00000001
00001000
00000100
,
00010000
00001000
00010000
00000000
00020000
00000000
00030000
00000000
,
00001000
01000000
00010000
01000000
,
00100000
01000000
10000000
00000000
,
10000000
01000000
00100000
01000000
,
00010000
01000000
00001000
00000000
,
00010000
00000100
00001000
00000100
,
00000010
00000100
00000001
00000000
,
00000001
00000000
00000100
00000000
00000010
00000100
00000010
00000000
,
00000000
00000000
00000000
00000000
,
00000001
00001000
00000010
00000100
,
00000001
00001000
00000001
00000000
00001000
00000000
00000000
00000000
,
00000010
00010000
00001000
00010000
,
01000000
00100000
00010000
00000000
00100000
00000000
00000000
00000000
,
00010000
10000000
00010000
10000000
,
00100000
01000000
00100000
00000000
01000000
00000000
00000000
00000000
,
00010000
00100000
00001000
00010000
,
00000100
00001000
00000010
00000000
00000100
00000000
00000000
00000000
,
00000000
00000011
00000000
00000101
,
00000000
00001000
00000000
00010000
,
00000000
10100000
00000000
11000000
,
00000000
00010000
00000000
00001000
,
00010000
00000100
00001000
00000010
,
00000001
00000010
00000100
00001000
,
00010000
00001000
00010000
00000000
00001000
00010000
00001000
00000000
,
00020000
00000000
00000000
00030000
,
00011000
00000000
00000000
00000000
,
00000000
00000000
00000000
00000000
;
#NOTES:
     dance-double:
     :
     Medium:
     12:
     :
00000000
00000000
00000000
00000000
,
00000000
00000000
00000000
00000000
,
00000000
00000000
00000000
00000000
,
00000000
00000000
00000000
00000000
,
00000000
00000000
00000000
00000000
,
00000000
00000000
00000000
00000000
,
10000000
00000000
00100000
01000000
,
00000000
00100000
01000000
00000000
,
00100000
00000000
00001000
00010000
,
00000000
00001000
00010000
00000000
,
00000100
00000000
00000010
00000100
,
00000000
00000010
00000100
00000000
,
00000001
00000000
00001000
00000001
,
00000000
00001000
00000001
00000000
,
00000100
00000000
00000010
00010000
,
00000000
00000010
00010000
00000000
,
00001000
00000000
00010000
00001000
,
00000000
00010000
00001000
00000000
,
00100000
00000000
00010000
00000000
,
01000000
00100000
01000000
00000000
,
00100000
00000000
10000000
00000000
,
01000000
00100000
01000000
00000000
,
00010000
00100000
00001000
00010000
,
00000100
00001000
00000010
00000100
,
00000001
00001000
00000001
00001000
,
00000000
00000000
00000000
00000000
,
00000010
00000001
00001000
00000010
,
00010000
00001000
00010000
00000000
00001000
00000000
00000000
00000000
,
00100000
00010000
10000000
00100000
,
10000000
01000000
10000000
00000000
01000000
00000000
00000000
00000000
,
01000000
10000000
00010000
01000000
,
00001000
00010000
00001000
00000000
00010000
00000000
00000000
00000000
,
00000100
00001000
00000001
00000100
,
00000001
00000010
00000001
00000000
00000010
00000000
00000000
00000000
,
00000001
00000100
00001000
00000100
,
00000001
00000000
00000010
00000000
00001000
00010000
00001000
00000000
,
00010000
00100000
10000000
00100000
,
00010000
00000000
00001000
00000000
00010000
00001000
00010000
00000000
,
00001000
00000100
00000001
00000010
,
00001000
00010000
01000000
10000000
,
00100000
00010000
00001000
00000100
,
00000010
00000100
00000010
00000000
00000100
00000000
00000000
00000000
,
00001001
00000000
00001001
00000000
,
00000100
00001000
00010000
00001000
00000200
00000000
00000300
00000000
,
00000010
00000000
00010000
00000000
00001000
00010000
00001000
00010000
,
00001000
00100000
02000000
03000000
,
10000000
00000000
01000000
00010000
01000000
00000000
10000000
00000000
,
00010000
00100000
01000000
00000000
02000000
00000000
03000000
00000000
,
00010000
00000000
00001000
00000000
00010000
00000010
00001000
00000010
,
00000100
00000001
00001000
00000000
,
00000001
00000001
00000100
00000100
,
00000010
00000010
00000110
00000000
,
00010000
00010000
01000000
01000000
,
00100000
00100000
01100000
00000000
,
10000000
00100000
10000000
00100000
01000000
00010000
01000000
00010000
,
00100000
00001000
00100000
00001000
00010000
00000000
00000000
00000000
,
00001000
00010000
00000100
00001000
00000010
00000100
00000001
00000010
,
00000100
00001000
00000010
00000100
00001000
00010000
00001000
00000000
,
00100000
00010000
01000000
00000000
01000000
00010000
00100000
00000000
,
01000000
10000000
00100000
01000000
00010000
00000000
00100000
00000000
,
00001000
00010000
00000100
00000000
00001000
00000001
00000100
00000000
,
00000001
00000010
00000100
00000010
00000002
00000000
00000003
00000000
,
00000010
00001000
00000100
00000000
00000100
00001000
00000010
00000000
,
00000100
00000001
00000010
00000100
00001000
00000000
00000010
00000000
,
00010000
00001000
01000000
00000000
00010000
10000000
01000000
00000000
,
10000000
00100000
01000000
00100000
20000000
00000000
30000000
00000000
,
01000000
10100000
01000000
00110000
,
01000000
00011000
00000100
00011000
,
00000010
00001100
00000010
00000101
,
00001000
00000010
00000001
00000010
00001000
00000000
00001000
00000000
,
00000010
00000101
00000010
00001100
,
00000010
00011000
00100000
00011000
,
01000000
00110000
01000000
10100000
,
00010000
01000000
10000000
01000000
00020000
00000000
00030000
00000000
,
00100000
01000000
00100000
01000000
,
10000000
00010000
10000000
00010000
20000000
00000000
30000000
00000000
,
00100000
00010000
00100000
00010000
,
00001000
00010000
00001000
00010000
00002000
00000000
00003000
00000000
,
00000100
00001000
00000100
00000000
00001000
00000010
00001000
00000000
,
00000001
00000100
00000001
00000000
00000010
00000001
00000010
00000000
,
00000001
00000100
00001000
00000000
00010000
00001000
00010000
00001000
,
00000000
00000000
00000000
00000000
,
01000000
00010000
00100000
00010000
01000000
00000000
00100000
10000000
,
01000000
00100000
00010000
00100000
00001000
00000000
00000000
00000000
,
00010000
00000100
00000010
00000100
00010000
00000000
00000010
00001000
,
00000100
00001000
00000001
00000100
00000001
00000000
00000000
00000000
,
00000100
00000001
00000010
00000001
00000100
00000000
00000010
00001000
,
00000100
00010000
00001000
01000000
00010000
00000000
00000000
00000000
,
00100000
01000000
00001000
01000000
00100000
00000000
00010000
10000000
,
01000000
10000000
00010000
00100000
00010000
00000000
00000000
00000000
,
00000000
00110000
00000000
11000000
,
01000000
00010000
00001000
00000010
00000001
00000000
00000000
00000000
,
00000000
00001010
00000000
00000101
,
00000100
00001000
00010000
00100000
10000000
00000000
00000000
00000000
,
10000000
00100000
01000000
00000000
00010000
00100000
01000000
00000000
,
10000000
00100000
01000000
00010000
00100000
00001000
00010000
00000100
,
00001000
00000010
00000100
00000001
00000010
00001000
00000010
00000001
,
00002000
00000000
00000000
00003000
,
00001001
00000000
00000000
00000000
,
00000000
00000000
00000000
00000000
;
#NOTES:
     dance-double:
     :
     Hard:
     16:
     :
00000000
00000000
00000000
00000000
,
00000000
00000000
00000000
00000000
,
00000000
00000000
00000000
00000000
,
00000000
00000000
00000000
00000000
,
00000000
00000000
00000000
00000000
,
00000000
00000000
00000000
00000000
,
10000000
00000000
01000000
00100000
,
01000000
00100000
01000000
00000000
,
00010000
00000000
00001000
00010000
,
00001000
00010000
00001000
00000000
,
00000100
00000000
00000001
00001000
,
00000001
00001000
00000001
00000000
,
00000010
00000000
00000100
00010000
,
00000100
00010000
00000100
00000000
,
00010000
00000000
00001000
01000000
,
00001000
01000000
00001000
00000000
,
00100000
00000000
00010000
01000000
,
00100000
10000000
00100000
00000000
,
10000000
00000000
10000000
00000000
,
01000000
00000000
01000000
00000000
,
00100000
00000000
00100000
00000000
,
00010000
00000000
00010000
00000000
,
00001000
00001000
00000100
00000100
,
00000010
00000010
00000001
00000001
,
00000001
00000100
00000010
00001000
00010000
01000000
00100000
10000000
,
00000000
00000000
00000000
00000000
,
10000000
01000000
00100000
00001000
00010000
00100000
01000000
00010000
,
00100000
01000000
00010000
00001000
00020000
00000000
00031000
00000000
,
00001000
00010000
01000000
00100000
00001000
00010000
01000000
00100000
,
00001000
00010000
00000100
00001000
00000200
00000000
00000310
00000000
,
00000001
00000100
00000010
00010000
00001000
00000010
00000100
00001000
,
00000010
00000100
00001000
00010000
00002000
00000000
00013000
00000000
,
00010000
00001000
00000100
00000010
00010000
00001000
00000100
00000010
,
00010000
00001000
01000000
00010000
02000000
00000000
03100000
00000000
,
10000000
01000000
01100000
00000000
00010000
01000000
01100000
00000000
,
00100000
00010000
00001000
00000100
00000020
00000000
00000130
00000000
,
00000001
00000100
00000110
00000000
00001000
00000100
00000110
00000000
,
00000010
00001000
00010000
01000000
00200000
00000000
01300000
00000000
,
00010000
01000000
10000000
00100000
00010000
00001000
00010000
01000000
,
00100000
00000000
00001000
00010000
00001000
00000000
00010000
00000000
00002000
00000000
00000000
00000000
00013000
00000000
00000000
00000000
,
00001000
00000100
00000001
00000010
00001000
00010000
00001000
00000100
,
00000010
00000000
00010000
00001000
00010000
00000000
00001000
00000000
00020000
00000000
00000000
00000000
00031000
00000000
00000000
00000000
,
00011000
00000000
00011000
00000000
,
00010000
00100000
10000000
10000000
02000000
00000000
03010000
00000000
,
00110000
00000000
01000000
00000000
00001000
00010000
00001000
00000100
,
00001000
00010000
00022000
00033000
,
00002000
00000000
00000000
00003100
00000010
00000100
00002000
00000000
,
00013000
01000000
00100000
00010000
01000000
10000000
01000000
10000000
,
02000000
00000000
03020000
00000000
00130000
00001000
00010000
00000010
,
00001000
00000001
00001001
00000000
,
00000010
00000100
00000010
00001000
,
00000010
00010000
00001000
00000000
,
00000100
00010000
00001000
00010000
00001000
00100000
00010000
01000000
,
00010000
00100000
01000000
10000000
01000000
10000000
00100000
00000000
,
10000000
01000000
10000000
00000000
00100000
00000000
01000000
00000000
00010000
01000000
00010000
00000000
00100000
00000000
00001000
00000000
,
00010000
00001000
00010000
00000000
00000100
00000000
00001000
00000000
00000010
00000100
00000010
00000000
00000000
00000000
00000000
00000000
,
00000001
00000010
00000001
00000000
00000100
00000010
00000100
00000000
00000010
00010000
00000010
00000000
00010000
00001000
00010000
00001000
,
00010000
00000000
00000000
01000000
00000000
00000000
10000000
00000000
00010000
00000000
00000000
00000000
10010000
00000000
00000000
00000000
,
10000000
00100000
10000000
00000000
00010000
00000000
00100000
00000000
01000000
00000000
00100000
00000000
00010000
00000000
00001000
00000000
,
00000100
00001000
00000100
00000000
00001000
00000000
00000010
00000000
00000001
00000000
00000010
00000000
00001000
00000000
00000000
00000000
,
00000010
00000100
00010000
00000000
00010000
00000100
00000010
00000000
,
00001000
00000000
00000100
00000010
00000001
00000000
00001000
00000000
00000001
00000000
00000000
00000000
00001001
00000000
00000000
00000000
,
00000001
00000001
00000100
00000100
00001000
00001000
00010000
00010000
,
00100000
00000000
01000000
00100000
01000000
00000000
00100000
01000000
00100000
00000000
01000000
00000000
01000000
00000000
00000000
00000000
,
00100000
00100000
10000000
10000000
00010000
00010000
01000000
01000000
,
00001000
00010000
00001000
00010000
00002000
00000000
00013000
00000000
,
00000100
00001000
00000010
00000000
00000100
00000001
00000010
00000000
,
00000100
00000000
00001000
00000100
00010000
00000000
00001000
00000000
00010000
00000000
00001000
00000000
00010000
00000000
00000000
00000000
,
00001000
00000000
00011000
00000000
00001000
00010000
00100000
10000000
,
00010000
10000000
00010000
10000000
00010000
00000000
00000000
00000000
01000000
00000000
00000000
00000000
01000000
00000000
00000000
00000000
,
00100000
00010000
00100000
01000000
00010000
00100000
01000000
00001000
,
01000000
00000000
00100000
00000000
00001000
00000000
00000000
00000000
00010000
00001000
00010000
00001000
00010000
00000000
00000000
00000000
,
00000010
00000000
00000001
00000000
00000010
00001000
00000001
00000100
,
00000010
00000000
00000100
00000010
00000100
00000000
00000010
00000000
00000200
00000000
00000000
00000000
00000310
00000000
00000000
00000000
,
00000001
00001000
00000010
00000100
00000010
00000000
00001000
00000100
,
00010000
00000000
00001000
00010000
00001000
00000000
00010000
00000000
00002000
00000000
00000000
00000000
00003000
00000000
00000000
00000000
,
00100000
00010000
01000000
00010000
00100000
00000000
01000000
00010000
,
01000000
00000000
10000000
00100000
10000000
00000000
00010000
00000000
02000000
00000000
00000000
00000000
03000000
00000000
00000000
00000000
,
00100000
01000000
00010000
00100000
00001000
00010000
00000100
00001000
,
00000010
00000100
00000001
00000010
00000100
00001000
00010000
00100000
,
01000000
00000000
10000000
00000000
00100000
00000000
01000000
00000000
00010000
00000000
00100000
00000000
00001000
00010000
00001000
00010000
,
00000000
00000000
00001000
00011000
,
00000100
00000000
00001000
00000010
00001000
00000000
00000100
00000000
00000010
00000000
00000001
00000100
00000001
00000000
00000010
00000000
,
00000100
00000000
00001000
00000100
00010000
00000000
00001000
00000000
00010000
00000000
00000000
00000000
00011000
00000000
00000000
00000000
,
00100000
00000000
00010000
01000000
00010000
00000000
00100000
00000000
01000000
00000000
10000000
00100000
10000000
00000000
00010000
00000000
,
01000000
00000000
00100000
01000000
00010000
00000000
00100000
00000000
00001000
00000000
00000000
00000000
00011000
00000000
00000000
00000000
,
00010000
00000000
00000010
00001000
00000010
00000000
00000100
00000000
00000001
00000000
00000010
00000100
00001000
00000000
00000010
00000000
,
00010000
00000000
00000100
00001000
00000010
00000000
00000100
00000000
00001000
00000000
00000000
00000000
00011000
00000000
00000000
00000000
,
00001000
00000000
00100000
00010000
00100000
00000000
01000000
00000000
10000000
00000000
00100000
01000000
00010000
00000000
00100000
00000000
,
01000000
00000000
00010000
00001000
00010000
00000000
00001000
00000000
00010000
00000000
00000000
00000000
00011000
00000000
00000000
00000000
,
00001000
00000000
00010100
00000000
00001000
00000010
00000110
00000000
,
00000001
00000100
00001000
00000100
00000002
00000000
00001003
00000000
,
00000010
00000000
00001100
00000000
00010000
00001000
01001000
00000000
,
00010000
01000000
10000000
01000000
00020000
00000000
10030000
00000000
,
10000000
01000000
00001000
00010000
00100000
00001000
00000010
00001000
,
00010000
00000000
00000100
00001000
00000010
00000000
00000001
00000000
00000010
00000000
00001000
00000100
00010000
00000000
00001000
00000000
,
00100000
00010000
00100000
00000000
01000000
10000000
01000000
00000000
10000000
00100000
10000000
00100000
01000000
00010000
01000000
00001000
,
00020000
00000000
00000000
00030000
,
00011000
00000000
00000000
00000000
,
00000000
00000000
00000000
00000000
;
#NOTES:
     dance-double:
     :
     Challenge:
     18:
     :
00000000
00000000
00000000
00000000
,
00000000
00000000
00000000
00000000
,
00000000
00000000
00000000
00000000
,
00000000
00000000
00000000
00000000
,
00000000
00000000
00000000
00000000
,
00000000
00000000
00000000
00000000
,
00000001
00000100
00000000
00000001
00000100
00000000
00000010
00001000
,
00000000
00000010
00001000
00000000
00000100
00000000
00000010
00000000
,
00001000
00010000
00000000
00001000
00010000
00000000
00001000
00000100
,
00000000
00001000
00000100
00000000
00001000
00000000
00010000
00000000
,
00100000
01000000
00000000
00100000
01000000
00000000
00010000
01000000
,
00000000
00010000
01000000
00000000
00100000
00000000
10000000
00000000
,
01000000
10000000
00000000
01000000
10000000
00000000
00010000
00100000
,
00000000
00010000
00100000
00000000
01000000
00000000
00010000
00000000
,
00001000
00010000
00000000
00001000
00010000
00000000
00100000
00010000
,
00000000
00100000
00010000
00000000
00001000
00000000
00000100
00000000
,
00000001
00001000
00000000
00000001
00001000
00000000
00000100
00000010
,
00000000
00000100
00000010
00000000
00000001
00000000
00001000
00000000
,
00001001
00000000
00001001
00000000
,
00000001
00000010
00001000
00010000
01000000
00000000
00000000
00000000
,
10010000
00000000
10010000
00000000
,
10000000
00100000
00010000
00001000
00000100
00000000
00000000
00000000
,
00000001
00000010
00000001
00000100
00000010
00001000
00000100
00000001
,
00000100
00000010
00000100
00001000
00000100
00010000
00001000
00100000
,
00010000
00000000
01000000
00000000
00010000
00000000
00100000
00000000
01000000
00000000
10000000
00000000
00100000
01000000
00100000
01000000
,
00000000
00000000
00100000
10010000
,
10000000
00100000
00100000
00100000
00100000
00000000
01000000
00010000
,
00100000
01000000
00010000
00000100
00000020
00000000
00000030
00000000
,
00000001
00000010
00000010
00000010
00000010
00000000
00000100
00001000
,
00000010
00000100
00001000
01000000
00200000
00000000
00300000
00000000
,
00010000
00100000
10000000
01000000
00010000
00000000
00001000
00000010
,
00000001
00000000
00000100
00001000
00000100
00000000
00000001
00000000
00000020
00000000
00000000
00000000
00000030
00000000
00000000
00000000
,
00001000
00000010
00000001
00000100
00001000
00000000
00010000
00100000
,
10000000
00000000
01000000
00010000
01000000
00000000
10000000
00000000
00200000
00000000
00000000
00000000
00300000
00000000
00000000
00000000
,
10000000
00000000
01000000
00100000
01000000
00000000
10000000
00000000
00010000
00000000
01000000
00100000
01000000
00000000
00100000
00000000
,
00010000
00001000
00000100
00000010
00001000
00000100
00000001
00000100
,
00001000
00000000
00000001
00000100
00000001
00000000
00000010
00000000
00000100
00000000
00010000
00001000
00010000
00000000
00001000
00000000
,
00100000
00010000
01000000
10000000
01000000
00000000
00000000
00000000
,
00100000
10000000
10000000
00100000
01000000
00010000
00010000
00100000
,
00001000
00000000
00010000
00000100
00001000
00000000
00000010
00000000
00000100
00000000
00001000
00000000
00000100
00000000
00000001
00000000
,
00000010
00000001
00000001
00000010
00000100
00001000
00001000
00000010
,
00001000
00000000
00000100
00010000
00001000
00000000
01000000
00000000
00010000
00000000
00000000
00000000
00000000
00000000
00000000
00000000
,
10010000
00000000
00010000
10000000
,
01000000
00010000
00001000
00010000
02000000
00000000
00000000
00000000
,
03100000
00000000
00100000
00000000
00001000
00010000
00000100
00010000
,
00002000
00013000
00020000
00030100
,
00000020
00000000
00000000
00000031
00000001
00000001
00000200
00000000
,
00000000
00000310
00001000
00001000
00000100
00000100
00010000
00010000
,
00002000
00000000
00023000
00000000
00130000
10000000
00100000
10000000
,
00020000
00032000
00003100
00000000
,
00000001
00000000
00000100
00000001
00000100
00000000
00000010
00000000
00001000
00000000
00000100
00010000
00000100
00000000
00010000
00000000
,
00001000
00000000
00100000
00010000
00100000
00000000
01000000
00000000
10000000
00000000
00000000
00000000
00000000
00000000
00000000
00000000
,
00100000
10000000
00100000
00000000
01000000
00010000
00100000
00000000
00010000
01000000
00010000
00000000
00100000
00001000
00010000
00000000
,
00000100
00001000
00000010
00000000
00000100
00000010
00001000
00000000
00000001
00000100
00000010
00000100
00000001
00000000
00000000
00000000
,
00000100
00000010
00000100
00000010
00000100
00000010
00000100
00000010
00001000
00000100
00001000
00000100
00001000
00000100
00001000
00000100
,
00010000
00001000
00010000
00001000
00010000
00001000
00010000
00001000
01000000
00010000
01000000
00010000
01000000
00000000
00000000
00000000
,
00100000
10000000
00100000
10000000
00010000
01000000
00010000
01000000
00001000
00010000
00001000
00010000
00000100
00001000
00000010
00000100
,
00000001
00000000
00000000
00000001
00000000
00000000
00000001
00000000
00000100
00000010
00000100
00000000
00000010
00000000
00000000
00000000
,
00001000
00000100
00000010
00000000
00000001
00000000
00000100
00000000
00001000
00010000
00001000
00000000
00100000
00000000
00010000
00000000
,
01000000
00100000
10000000
00000000
01000000
00100000
00010000
00000000
00100000
00000000
01000000
00000000
00010000
00000000
00000000
00000000
,
00001000
00000010
00000001
00000010
,
00001000
00000000
00000000
00001000
00010000
00001000
00010000
00001000
00010000
00000000
00000000
00000000
00011000
00000000
00000000
00000000
,
00001000
00100000
00010000
00000000
01000000
00000000
00100000
00000000
10000000
01000000
00100000
00000000
00001000
00000000
00010000
00000000
,
01000000
00000000
00100000
00001000
00010000
00000000
00000100
00010000
00001000
00000000
00010000
00000010
00000100
00000000
00000000
00000000
,
00000001
00000100
00001000
00010000
,
00100000
10000000
00100000
00010000
00200000
00000000
01300000
00000000
,
00010000
01000000
10100000
00000000
10000000
01000000
00110000
00000000
,
00000010
00001000
00000010
00001000
00000100
00001000
00000100
00000010
00000001
00000010
00000001
00000010
00000001
00000000
00000000
00000000
,
00000100
00000000
00001000
00000000
00010000
00010000
00010000
00010000
,
00001000
00010000
00001000
00010000
00002000
00000000
00000000
00000000
02003000
00000000
00000000
00000000
13000000
00000000
00000000
00000000
,
01000000
00100000
10000000
00000000
00010000
00000000
01000000
00000000
00100000
10000000
01000000
00000000
00010000
00000000
00001000
00000000
,
00100000
00000000
00010000
00000000
00001000
00000000
00000100
00000000
00000010
00000001
00000010
00000001
00000010
00000000
00000000
00000000
,
00000001
00000000
00000100
00000000
00000001
00000010
00001000
00010000
,
01000000
00000000
10000000
00010000
10000000
00000000
00100000
00000000
02000000
00000000
00000000
00000000
03100000
00000000
00000000
00000000
,
10000000
01000000
01000000
01000000
01000000
00000000
10000000
00100000
,
00010000
00001000
00000010
00000001
00002000
00000000
00003000
00000000
,
00000001
00000010
00000010
00000010
00000010
00000000
00000001
00000100
,
00001000
00010000
01000000
10000000
00020000
00000000
00030000
00000000
,
10000000
01000000
00100000
00010000
00001000
00000100
00000010
00000001
,
00000001
00000100
00000010
00001000
00010000
01000000
00100000
10000000
,
01000000
00000000
00010000
00000000
00001000
00000000
00000010
00000000
00000001
00000100
00000010
00001000
00000100
00010000
00001000
00100000
,
00000000
00000000
01000000
10010000
,
10000000
00000000
00100000
01000000
00100000
00000000
10000000
01000000
00100000
00000000
00010000
00100000
00001000
00000000
00010000
00001000
,
00010000
00000100
00000001
00000100
00010000
00000010
00001000
00000000
,
00000001
00000000
00000100
00000010
00000100
00000000
00000001
00000010
00000100
00000000
00001000
00000010
00010000
00000000
00001000
00010000
,
00001000
01000000
10000000
01000000
00001000
00100000
00010000
00000000
,
10000000
00000000
00100000
01000000
10000000
00000000
01000000
00010000
00100000
00000000
00001000
00010000
00000010
00000000
00001000
00000100
,
00000010
00000001
00000010
00000001
00000010
00000000
00000100
00000000
00001000
00000000
00001000
00000000
00001000
00000000
00000000
00000000
,
00000001
00000000
00000010
00000100
00000001
00000000
00000100
00001000
00000010
00000000
00010000
00001000
00100000
00000000
00010000
01000000
,
00100000
10000000
00100000
01000000
00010000
00000000
10000000
00000000
01000000
00000000
01000000
00000000
01000000
00000000
00000000
00000000
,
10000000
00000000
00100000
01000000
00100000
00000000
00100000
00000000
10000000
00000000
00010000
01000000
00010000
00000000
00010000
00000000
,
00100000
00000000
00010000
00000000
00001000
00000000
00000100
00000000
00000010
00000001
00000010
00000100
00000010
00000000
00000000
00000000
,
00000001
00000000
00000100
00000010
00000100
00000000
00000100
00000000
00000001
00000000
00001000
00000100
00001000
00000000
00001000
00000000
,
00000010
00000000
00001000
00000000
00010000
00000000
01000000
00000000
00100000
10000000
00100000
01000000
00100000
00000000
00000000
00000000
,
10000000
01000000
10000000
00000000
00100000
01000000
00010000
00000000
00100000
00001000
00010000
00000000
00001000
00010000
00001000
00000000
,
00000100
00000010
00000100
00000010
00000100
00000001
00000100
00000000
00000010
00001000
00000010
00001000
00000100
00010000
00000100
00000000
,
00010000
00001000
01000000
00010000
00100000
01000000
10000000
00100000
01000000
00010000
00100000
00001000
00010000
00000100
00001000
00000100
,
00000002
00000000
00000000
00000003
,
00001001
00000000
00000000
00000000
,
00000000
00000000
00000000
00000000
;
