
//----- song ID: hede -----//
#TITLE:Hella Deep;
#ARTIST:MASAYOSHI IIMORI;
#BANNER:Hella Deep.png;
#BACKGROUND:Hella Deep-bg.png;
#CDTITLE:./CDTitles/bm IIDX 25 CANNON BALLERS.png;
#MUSIC:Hella Deep.ogg;
#SAMPLESTART:76.731;
#SAMPLELENGTH:15;
#DISPLAYBPM:132:150;
#BPMS:0=150,132=75,136=72,138=144,142=288,150=576,156=288,159=144,160=132;
#NOTES:
     dance-single:
     :
     Beginner:
     3:
     :
0000
0000
0000
0000
,
0000
0000
0000
0000
,
0000
0000
0000
0000
,
0000
0000
0000
0000
,
0000
0000
0000
0000
,
0001
0000
0001
0000
,
0100
0000
0100
0000
,
0010
0000
0010
0000
,
1000
0000
1000
0000
,
0100
0000
0010
0000
,
0100
0000
0010
0000
,
1000
0000
0001
0000
,
1000
0000
0001
0000
,
0100
0000
0100
0000
,
0001
0000
0001
0000
,
0010
0000
0010
0000
,
0100
0100
0100
0000
,
0001
0000
1000
0000
,
0100
0000
0010
0000
,
0100
0000
1000
0000
,
0001
0000
0100
0000
,
0010
0000
1000
0000
,
0010
0000
0100
0000
,
0001
0000
0010
0000
,
0100
0000
1000
0000
,
0010
0000
0100
0000
,
0001
0000
0100
0000
,
0010
0000
1000
0000
,
0100
0000
1000
0000
,
1001
0000
0000
0000
,
0100
0000
0100
0000
,
0010
0000
0010
0000
,
0110
0000
0000
0000
,
1001
0000
0000
0000
,
1000
0000
0000
0000
,
0000
0000
0000
0000
,
0000
0000
0000
0000
,
0000
0000
0000
0000
,
0000
0000
0000
0000
,
0000
0000
0000
0000
,
0100
0000
1000
0000
,
0100
0000
1000
0000
,
0010
0000
0001
0000
,
0010
0000
0001
0000
,
0100
0000
0010
0000
,
1000
0000
0001
0000
,
2002
0000
3003
0000
,
0010
0010
0010
0000
,
0100
0000
0001
0000
,
0010
0010
0100
0000
,
1000
0000
0010
0000
,
0100
0100
0001
0000
,
0100
0000
0100
0000
,
0010
0000
0010
0000
,
1000
0000
0001
0000
,
0100
0000
0010
0000
,
1000
0000
0100
0000
,
0010
0010
0001
0000
,
1000
0000
0010
0000
,
0100
0100
0001
0000
,
0010
0000
0010
0000
,
0100
0000
0100
0000
,
1000
0000
0001
0000
,
2002
0000
3003
0000
,
0100
0000
0100
0000
,
0010
0000
0001
0000
,
0100
0000
0100
0000
,
0010
0000
1000
0000
,
0001
0000
0010
0000
,
0001
0000
0100
0000
,
0010
0000
1000
0000
,
0100
0000
0001
0000
,
1001
0000
0000
0000
,
0000
0000
0000
0000
;
#NOTES:
     dance-single:
     :
     Easy:
     7:
     :
0000
0000
0000
0000
,
0000
0000
0000
0000
,
0000
0000
0000
0000
,
0000
0000
0000
0000
,
0000
0000
0000
0000
,
1000
1000
0100
0100
,
0110
0001
1000
0010
,
0100
0100
0001
0010
,
0100
1000
0100
0000
,
0001
0001
0010
0110
,
1000
1000
0010
0010
,
0100
0100
0001
1001
,
0010
0010
0100
0100
,
0001
1000
0001
1000
,
0010
0100
0010
0100
,
0010
1000
0010
0000
0100
0001
0100
0000
,
1000
0000
0100
0100
0100
0000
0110
0000
,
0010
0001
0100
0010
,
1000
0100
1000
0010
,
0100
0001
0010
0100
,
0001
1000
0100
0010
,
0001
0100
1000
0100
,
0001
0010
1000
0010
,
0001
1001
1000
1001
,
0010
0100
0010
0100
,
0001
0000
1000
0010
1000
0000
0100
0000
,
0010
0000
0001
0100
0001
0000
1000
0000
,
0010
0000
0100
0001
0100
0000
0001
0000
,
0010
0000
1000
0100
2000
0000
3002
0000
,
0013
0000
0100
0110
,
0001
1001
0010
1001
,
0100
1001
0010
1001
,
0100
0020
0000
0000
,
0130
0000
0000
0000
,
2000
0000
0000
0000
,
0000
0000
0000
0000
,
0000
0000
0000
0000
,
0000
0000
0000
0000
,
0000
0000
0000
0000
,
0000
0000
0000
3000
,
0000
0001
0010
0000
0100
0000
0100
0000
,
1000
1000
0010
0010
,
0000
0100
0001
0000
0010
0000
0010
0000
,
0100
0100
1000
1000
,
0010
0010
0100
0100
,
0001
0010
0001
0000
1000
0010
1000
0000
,
0200
0320
0032
0003
,
0100
0100
0010
0010
,
1001
0100
0010
0100
,
0001
0000
0010
0100
0010
0000
0002
0000
,
1003
0100
1000
0010
,
0001
0000
0100
0010
0100
0000
0001
0000
,
1000
0110
0001
0110
,
1000
0110
0001
0110
,
2000
3001
1000
1001
,
0100
1001
0020
0030
,
0001
0000
0100
0010
0100
0000
0001
0000
,
0010
0000
0100
1000
0100
0000
1000
0000
,
0010
0000
0100
0001
0100
0000
0010
0000
,
1000
0000
0100
0010
0100
0000
1000
0000
,
0001
0001
0100
0100
,
0010
0010
1000
1000
,
0100
1000
0100
0000
0010
0100
0010
0000
,
0001
0000
0100
0000
0020
0000
0000
0030
,
0000
1000
0100
0000
0010
0000
0010
0000
,
0001
0001
1000
0200
,
0310
0000
0001
0100
0020
0000
1030
0000
,
0100
0000
0010
0001
0100
0000
0000
0000
,
0010
1000
0010
0200
,
0000
0301
0100
1000
,
0100
0000
0001
1000
0200
0000
0310
0000
,
0001
0100
0010
0000
,
0110
0000
0000
0000
,
0000
0000
0000
0000
;
#NOTES:
     dance-single:
     :
     Medium:
     10:
     :
0000
0000
0000
0000
,
0000
0000
0000
0000
,
0000
0000
0000
0000
,
0000
0000
0000
0000
,
0000
0000
0000
0000
,
0000
0100
0001
0100
0001
0000
1001
0000
,
1010
0000
0100
0000
0010
0001
0010
0000
,
0000
1000
0100
1000
0200
0000
0310
0000
,
0001
0000
0100
0010
0100
0000
0000
0000
,
0000
0001
0010
0001
0010
0000
0101
0000
,
1000
1000
0010
0010
,
0000
1000
0100
1000
0100
0000
0110
0000
,
0001
0001
1000
1000
,
0010
0010
0100
0000
0001
0001
1000
0000
,
0100
0100
0010
0000
0001
0001
0100
0000
,
0010
1000
0010
1000
0100
0010
0100
0010
,
0001
0000
0100
0100
0100
0000
0110
0000
,
0001
0000
1000
0100
1000
0000
0100
0000
,
0010
0100
0010
0001
0010
0000
0001
0000
,
1000
0000
0010
0100
0010
0000
0100
0000
,
0001
0010
0001
0010
0100
0000
1000
1000
,
1000
0000
0010
0100
0001
0000
0010
0000
,
0100
1000
0100
1000
0010
0000
0100
0000
,
0001
0101
1000
0010
,
0100
0000
0110
0000
0001
1000
0100
0000
,
0010
0000
0001
0100
0001
0000
1000
0000
,
0010
0000
0100
0001
0100
0000
0010
0000
,
1000
0000
0100
0010
0100
0000
0010
0000
,
0001
0000
0100
0010
2000
0000
3002
0000
,
0013
0000
0000
0000
0100
1000
0010
0000
,
0100
0001
0010
0000
0100
1000
0001
0000
,
0100
0001
1000
0000
0010
0100
0001
0000
,
0010
0200
0000
0000
,
1300
0000
0000
0000
,
2002
0000
0000
0000
,
0000
0000
0000
0000
,
0000
0000
0000
0000
,
0000
0000
0000
0000
,
0000
0000
0000
0000
,
0000
0000
0000
3003
,
0000
1000
0100
1000
0001
0000
0001
0000
,
0010
0010
0100
0100
,
0000
1000
0001
1000
0100
0000
0100
0000
,
0010
0100
0010
0100
1000
0000
1000
0000
,
0001
0100
0001
0000
1000
0010
1000
0000
,
0100
0010
0100
1000
0001
0100
0010
1000
,
0000
0200
0320
0032
2003
3000
0000
0010
,
0100
0100
0001
0001
,
1001
0000
0010
1000
0100
0000
0010
0000
,
0001
0100
0001
1000
0001
0000
0020
0000
,
0130
0000
1000
0100
1000
0000
0010
0000
,
0100
0001
0100
0010
0100
0000
0001
0000
,
0011
0000
0100
1000
0000
0010
0100
0001
,
0100
0000
0101
0000
0000
1000
0100
1000
,
0020
0000
0130
0001
0000
0010
0100
1000
,
0100
0110
0002
1003
,
1100
0000
0010
0100
0010
0000
1000
0000
,
0001
0010
0001
1000
0100
0000
0010
0000
,
0110
0000
1000
0001
1000
0000
0010
0000
,
0100
0001
1000
0100
0010
0000
0001
0000
,
0100
0010
0100
0000
0001
0010
0001
0000
,
1000
0010
1000
0000
0100
0010
0100
0000
,
0010
0001
0010
0001
0100
0010
0100
0010
,
1000
1000
0001
0001
0200
0000
0020
0330
,
0000
0000
1000
0000
0100
0000
1000
0000
0010
0000
0000
0010
0000
0000
0100
0000
,
0000
0100
0000
0000
0001
0000
0000
0000
1000
0000
0000
0000
0200
0000
0000
0000
,
0310
0000
0001
0100
0020
0000
1030
0000
,
0100
0000
0010
0001
0010
0000
0100
0000
,
1000
0010
0100
0001
0010
0100
2000
0000
,
0000
0000
3001
0100
0010
0100
0001
0000
,
0010
0000
0100
1000
0020
0000
0130
0000
,
0001
0000
1000
0100
1000
0000
0000
0000
,
1001
0000
0000
0000
,
0000
0000
0000
0000
;
#NOTES:
     dance-single:
     :
     Hard:
     14:
     :
0000
0000
0000
0000
,
0000
0000
0000
0000
,
0000
0000
0000
0000
,
0000
0000
0000
0000
,
0000
0000
0000
0000
,
0000
0010
1000
0100
1000
0000
1001
0000
,
0101
0000
0010
0001
0100
0001
0010
0001
,
0000
1000
0100
1000
0020
0100
0130
0001
,
1000
0000
0100
0000
0010
0100
0010
0000
0001
0000
0000
0000
0000
0000
0000
0000
,
0000
1000
0001
0100
0001
0000
0010
0000
,
0110
0101
1100
1010
,
0000
0001
0010
0100
1000
0000
0100
0000
,
1100
1010
0011
0101
,
0010
0010
0100
0100
0001
0001
0010
0010
,
0100
0100
1000
1000
0001
0001
0101
0101
,
1000
0000
0100
0000
1000
0000
0100
0000
0010
0100
0010
0000
0001
0100
0001
0000
,
1000
0000
0010
0010
0110
0000
0101
0000
,
1000
0000
0000
0000
0010
0000
1000
0000
0100
0000
0010
0100
0010
0000
0001
0000
,
0100
0000
0010
0100
0010
0000
1000
0000
0100
0000
0010
0001
0010
0000
0001
0000
,
0100
0000
0000
0000
0010
0000
1000
0000
0001
0000
0100
0010
0100
0000
0010
0000
,
1000
0000
0100
0010
0100
0000
0010
0000
0001
0000
0001
0000
1000
0000
1000
0000
,
1010
0000
0000
0000
0110
0000
0101
0000
1100
0000
0000
1000
0010
0000
0100
0000
,
0001
0010
0001
0010
0100
0000
0010
0000
0001
0000
0001
0000
1000
0000
1000
0000
,
0100
0000
0000
0000
0110
0000
0000
0000
0001
0000
0000
0000
1000
0010
1000
0010
,
1000
0000
0100
0000
0010
0000
0001
0000
0010
0000
0100
0010
0100
0000
0000
0000
,
1001
0000
0000
0000
0010
0000
0100
0000
0001
0000
1000
0100
0010
0000
0100
0000
,
1000
0000
0001
0100
0010
0000
1000
0000
0100
0000
0010
0001
1000
0000
0001
0000
,
0100
0000
0000
0000
0010
0000
1000
0000
0100
0000
0010
0001
1000
0000
0010
0000
,
0100
0000
0001
1000
0100
0000
0010
0000
0002
0000
2003
0000
3020
0000
0230
0000
,
0301
0000
0000
1000
0010
0100
0110
0000
,
0001
0010
0110
0100
1000
0001
1001
0100
,
0010
0100
0101
1000
0100
0010
0110
0001
,
1000
0010
1000
0010
2000
0000
0000
0000
0000
0000
0000
0000
0000
0000
0000
0000
,
3001
0000
0000
0000
,
0220
0000
0000
0000
,
0000
0000
0000
0000
,
0000
0000
0000
0000
,
0000
0000
0000
0000
,
0000
0000
0000
0000
,
0000
0000
0000
0330
,
0001
0100
0010
0100
0010
0000
0010
0000
,
1000
1010
1000
1010
,
0000
0100
0010
1000
0010
0000
1001
0000
,
0010
0000
0000
0100
0000
1000
0100
0000
1000
0100
0000
0000
1000
0000
0000
0010
0000
0000
0100
0000
0000
0001
0000
0000
,
1000
0100
1000
0100
0010
0001
0010
0001
,
1000
0000
0001
0100
0000
0001
0010
0000
0001
0100
0000
0010
1000
0000
0010
1000
0000
0010
0100
0000
0001
0100
0000
0001
,
0010
0002
2003
3200
0320
0030
0000
0001
,
1000
1000
0010
0110
,
0101
0000
0010
0001
0101
0010
1000
0100
,
0010
0000
0100
1000
0010
0000
0100
0000
0001
0000
0010
0001
0200
0000
0000
0000
,
0310
0000
0101
0010
1010
0100
0001
0010
,
0100
0000
0010
0001
0100
0000
0010
0000
1000
0000
0100
0000
0010
0000
0001
0000
,
1001
0000
0000
0000
0100
0000
0010
0000
0000
1000
0001
0100
0010
0000
1010
0000
,
0100
0000
1001
0000
0010
0000
1001
0000
0000
0010
0100
0010
0001
0000
0011
0000
,
0120
0000
0000
0000
0031
0000
1000
0000
0000
0010
1000
0010
0100
0000
0101
0000
,
0010
1001
0100
1001
0120
0000
1030
0001
,
0101
0000
1000
0010
1000
0001
0100
0010
,
0100
0000
0001
0010
0001
0000
1000
0000
0010
0100
0010
1000
0010
0000
1000
0000
,
1001
0000
0010
0001
0010
0100
0010
0100
,
1000
0000
0010
0100
0010
0000
1000
0000
0001
0000
0100
0010
0100
0000
0000
0000
,
0101
0010
1000
0001
1001
0100
0010
1000
,
1100
0010
0001
0100
0101
1000
0020
0030
,
1001
0100
1001
0010
0110
0001
0110
1000
,
0010
0100
0010
0100
0001
0100
0001
0100
0020
0000
0000
0000
1030
0000
0100
0000
,
0000
0000
0010
0000
0001
0000
0010
0000
0100
0000
0000
1100
0000
0000
0010
0000
,
0000
0110
0000
0000
1000
0000
0100
0000
0001
0000
0100
0000
2000
0000
0000
0000
,
3010
0000
0100
0000
0001
0010
0001
0000
2000
0000
0000
0000
3001
0000
0100
0000
,
1000
0000
0100
0000
0010
1000
0010
1000
0010
0000
0100
0000
0001
0010
0001
0000
,
1000
0000
0000
0000
0010
0000
0000
0000
1000
0000
0000
0000
0001
0000
0000
0000
0100
0000
0000
0000
0001
0000
0000
0000
0010
0000
0000
0000
0000
0000
0100
0000
0000
0000
0000
0000
2000
0000
0000
0000
0000
0000
0000
0000
0000
3020
0000
0000
,
0000
0000
0130
0001
0100
0010
1000
0100
,
0001
0100
1000
0010
0002
0000
0013
1000
,
0001
0010
0001
0010
0100
1000
0100
1000
0100
0000
0000
0000
0000
0000
0000
0000
,
0110
0000
0000
0000
,
0000
0000
0000
0000
;
#NOTES:
     dance-double:
     :
     Easy:
     7:
     :
00000000
00000000
00000000
00000000
,
00000000
00000000
00000000
00000000
,
00000000
00000000
00000000
00000000
,
00000000
00000000
00000000
00000000
,
00000000
00000000
00000000
00000000
,
00001000
00001000
00010000
00010000
,
00001000
00100000
00010000
01000000
,
00100000
00100000
10000000
01000000
,
00010000
00001000
00000100
00000000
,
00000001
00000001
00000010
00000010
,
00001000
00001000
00010000
00010000
,
00001000
00001000
00010000
00010000
,
00100000
00100000
10000000
10000000
,
01000000
10000000
00100000
01000000
,
00010000
00100000
00001000
00010000
,
00000010
00001000
00000010
00000000
00000100
00000001
00000100
00000000
,
00001000
00000000
00010000
00010000
00010000
00000000
00011000
00000000
,
00001000
01000000
00010000
00100000
,
01000000
10000000
01000000
10000000
,
00100000
01000000
00010000
01000000
,
00001000
00010000
00001000
00010000
,
00000100
00001000
00000100
00000010
,
00000001
00000100
00000010
00001000
,
00000100
00011000
00100000
00011000
,
01000000
00010000
10000000
00100000
,
01000000
00000000
00010000
00100000
00010000
00000000
01000000
00000000
,
00001000
00000000
00010000
00001000
00010000
00000000
00000010
00000000
,
00001000
00000000
00000001
00000010
00000001
00000000
00000100
00000000
,
00001000
00000000
00010000
00001000
00020000
00000000
00230000
00000000
,
10300000
00000000
00010000
00011000
,
00000100
00011000
00100000
00011000
,
00000010
00011000
01000000
00011000
,
00000100
00000020
00000000
00000000
,
00000031
00000000
00000000
00000000
,
00022000
00000000
00000000
00000000
,
00000000
00000000
00000000
00000000
,
00000000
00000000
00000000
00000000
,
00000000
00000000
00000000
00000000
,
00000000
00000000
00000000
00000000
,
00000000
00000000
00000000
00033000
,
00000000
00010000
00001000
00000000
01000000
00000000
01000000
00000000
,
00010000
00010000
10000000
10000000
,
00000000
00100000
00010000
00000000
00001000
00000000
00001000
00000000
,
00010000
00010000
00000100
00000100
,
00001000
00001000
00000001
00000001
,
00000010
00000100
00000010
00000000
00000100
00001000
00000100
00000000
,
00020000
00032000
00023000
00030000
,
01000000
01000000
10000000
10000000
,
10010000
01000000
00100000
00010000
,
00100000
00000000
00001000
00010000
00001000
00000000
00020000
00000000
,
00030010
00001000
00000010
00001000
,
00000001
00000000
00000010
00000100
00000010
00000000
00000100
00000000
,
00001000
00011000
00100000
10010000
,
01000000
00010000
00001000
00011000
,
00000020
00000031
00000100
00000010
,
00001000
00000100
00020000
00030000
,
00001000
00000000
00100000
00010000
00100000
00000000
01000000
00000000
,
10000000
00000000
00100000
01000000
00100000
00000000
01000000
00000000
,
00010000
00000000
00100000
00001000
00100000
00000000
00001000
00000000
,
00010000
00000000
00000010
00001000
00000010
00000000
00001000
00000000
,
00000100
00000100
00000010
00000010
,
00000001
00000001
00001000
00001000
,
00000001
00000100
00001000
00000000
00010000
00100000
10000000
00000000
,
00010000
00000000
01000000
00000000
00002000
00000000
00000000
00003000
,
00000000
00010000
00001000
00000000
00000010
00000000
00000010
00000000
,
00000001
00000001
00000100
00000020
,
00001030
00000000
00000100
00010000
00002000
00000000
01003000
00000000
,
00010000
00000000
10000000
00100000
01000000
00000000
00000000
00000000
,
00010000
00100000
00010000
02000000
,
00000000
03001000
00010000
00001000
,
00000010
00000000
00000001
00000100
00000020
00000000
00001030
00000000
,
00000100
00010000
00001000
00000000
,
00011000
00000000
00000000
00000000
,
00000000
00000000
00000000
00000000
;
#NOTES:
     dance-double:
     :
     Medium:
     10:
     :
00000000
00000000
00000000
00000000
,
00000000
00000000
00000000
00000000
,
00000000
00000000
00000000
00000000
,
00000000
00000000
00000000
00000000
,
00000000
00000000
00000000
00000000
,
00000000
10000000
01000000
10000000
01000000
00000000
01100000
00000000
,
00010000
00000000
00100000
00000000
00001000
00010000
00001000
00000000
,
00000000
00000010
00000100
00000010
00000200
00000000
00000301
00000000
,
00001000
00000000
00000100
00001000
00000100
00000000
00000000
00000000
,
00000000
00010000
00001000
00010000
00001000
00000000
00001000
00000000
,
00100000
00100000
00010000
00010000
,
00000000
10000000
00100000
10000000
00100000
00000000
00100000
00000000
,
01000000
01000000
00001000
00001000
,
00010000
00000100
00010000
00000000
00000010
00001000
00000010
00000000
,
00000100
00000001
00000100
00000000
00000010
00000100
00000010
00000000
,
00001000
00000100
00001000
00000100
00010000
00001000
00010000
00001000
,
01000000
00000000
00010000
00010000
00010000
00000000
10010000
00000000
,
01000000
00000000
00100000
00010000
00100000
00000000
00010000
00000000
,
10000000
01000000
00010000
00001000
00000100
00000000
00000001
00000000
,
00000100
00000000
00000010
00001000
00000010
00000000
00001000
00000000
,
00000001
00000100
00001000
00010000
01000000
00000000
10000000
10000000
,
10000000
00000000
00010000
00100000
00001000
00000000
00010000
00000000
,
00000010
00001000
00000010
00001000
00000100
00000000
00000010
00000000
,
00000001
00000101
00001000
00000100
,
00010000
00000000
00011000
00000000
00100000
00010000
10000000
00000000
,
00100000
00000000
01000000
00100000
01000000
00000000
00010000
00000000
,
10000000
00000000
01000000
00100000
01000000
00000000
00100000
00000000
,
00010000
00000000
01000000
00001000
01000000
00000000
00001000
00000000
,
00010000
00000000
00000010
00001000
00000200
00000000
00000320
00000000
,
00000031
00000000
00000000
00000000
00000001
00000010
00001000
00000000
,
00010000
00100000
10000000
00000000
10000000
01000000
00010000
00000000
,
00001000
00000100
00000001
00000000
00000010
00001000
00000100
00000000
,
00000010
00000002
00000000
00000000
,
00001003
00000000
00000000
00000000
,
00000220
00000000
00000000
00000000
,
00000000
00000000
00000000
00000000
,
00000000
00000000
00000000
00000000
,
00000000
00000000
00000000
00000000
,
00000000
00000000
00000000
00000000
,
00000000
00000000
00000000
00000330
,
00000000
00010000
00001000
00010000
00100000
00000000
00100000
00000000
,
10000000
10000000
01000000
01000000
,
00000000
00100000
00010000
00100000
00001000
00000000
00001000
00000000
,
00010000
00000100
00001000
00000100
00001000
00000000
00001000
00000000
,
00000001
00000010
00000001
00000000
00000100
00000010
00000100
00000000
,
00000001
00000010
00001000
00010000
00100000
10000000
01000000
00010000
,
00000000
00002000
00023000
00032000
00003200
00000300
00000000
00000001
,
00000010
00000010
00000100
00000100
,
00001100
00000000
00010000
00001000
00010000
00000000
00100000
00000000
,
10000000
01000000
10000000
00100000
00010000
00000000
00002000
00000000
,
00003100
00000000
00000010
00000100
00000010
00000000
00001000
00000000
,
00000001
00000010
00000001
00000100
00001000
00000000
00010000
00000000
,
00011000
00000000
00100000
00010000
00000000
01000000
00100000
10000000
,
01000000
00000000
11000000
00000000
00000000
00100000
00010000
00100000
,
00002000
00000000
00013000
00000100
00000000
00010000
00001000
00000100
,
00000001
00000011
00002000
00003100
,
00011000
00000000
00010000
00001000
00010000
00000000
01000000
00000000
,
10000000
01000000
00100000
00010000
01000000
00000000
00001000
00000000
,
00011000
00000000
00001000
00010000
00001000
00000000
00000100
00000000
,
00000001
00000010
00000100
00001000
00000010
00000000
00001000
00000000
,
00000100
00010000
00000100
00000000
00010000
00001000
00010000
00000000
,
00001000
00100000
00001000
00000000
01000000
00010000
01000000
00000000
,
00100000
10000000
00100000
10000000
01000000
00100000
01000000
00100000
,
00010000
00100000
00001000
00010000
00000200
00000000
00002000
00003300
,
00000000
00000000
00000001
00000000
00000100
00000000
00000001
00000000
00001000
00000000
00000000
00001000
00000000
00000000
00000100
00000000
,
00000000
00000100
00000000
00000000
00010000
00000000
00000000
00000000
00001000
00000000
00000000
00000000
00020000
00000000
00000000
00000000
,
00031000
00000000
00100000
00010000
02000000
00000000
03100000
00000000
,
10000000
00000000
01000000
00100000
00010000
00000000
01000000
00000000
,
00001000
00010000
00000010
00001000
00000001
00000100
00002000
00000000
,
00000000
00000000
00013000
00001000
00010000
00100000
10000000
00000000
,
01000000
00000000
00100000
00010000
02000000
00000000
03001000
00000000
,
00010000
00000000
00000010
00001000
00000010
00000000
00000000
00000000
,
00001001
00000000
00000000
00000000
,
00000000
00000000
00000000
00000000
;
#NOTES:
     dance-double:
     :
     Hard:
     14:
     :
00000000
00000000
00000000
00000000
,
00000000
00000000
00000000
00000000
,
00000000
00000000
00000000
00000000
,
00000000
00000000
00000000
00000000
,
00000000
00000000
00000000
00000000
,
00000000
00000001
00000100
00000010
00000100
00000000
00001010
00000000
,
00011000
00000000
00100000
00010000
01000000
00100000
01000000
00010000
,
00000000
10000000
00100000
10000000
02000000
00000000
03100000
00100000
,
00010000
00000000
01000000
00000000
00001000
00010000
00001000
00000000
00010000
00000000
00000000
00000000
00000000
00000000
00000000
00000000
,
00000000
00000100
00001000
00000100
00000010
00000000
00000001
00000000
,
00000101
00001100
00011000
01010000
,
00000000
10000000
01000000
00100000
00010000
00000000
01000000
00000000
,
10100000
00110000
00011000
00001010
,
00000001
00000001
00001000
00001000
00000100
00000100
00010000
00010000
,
00001000
00001000
01000000
01000000
00010000
00010000
00110000
00110000
,
10000000
00000000
01000000
00000000
10000000
00000000
01000000
00000000
00100000
00010000
00100000
00000000
00001000
00010000
00001000
00000000
,
00010000
00000000
00000010
00000010
00001010
00000000
00001100
00000000
,
00000010
00000000
00000000
00000000
00000001
00000000
00000100
00000000
00001000
00000000
00010000
00001000
00010000
00000000
00001000
00000000
,
00010000
00000000
01000000
00100000
01000000
00000000
10000000
00000000
00010000
00000000
01000000
00100000
01000000
00000000
00010000
00000000
,
00100000
00000000
00000000
00000000
00001000
00000000
00010000
00000000
00000010
00000000
00001000
00000100
00001000
00000000
00000001
00000000
,
00000010
00000000
00000100
00001000
00000100
00000000
00010000
00000000
00001000
00000000
00001000
00000000
00010000
00000000
00010000
00000000
,
00011000
00000000
00000000
00000000
00110000
00000000
10010000
00000000
11000000
00000000
00000000
00100000
01000000
00000000
10000000
00000000
,
00010000
01000000
00010000
01000000
00001000
00000000
00010000
00000000
00001000
00000000
00001000
00000000
00010000
00000000
00010000
00000000
,
00000010
00000000
00000000
00000000
00001010
00000000
00000000
00000000
00000100
00000000
00000000
00000000
00000001
00000010
00000001
00000010
,
00000001
00000000
00000100
00000000
00001000
00000000
00010000
00000000
01000000
00000000
10000000
00100000
10000000
00000000
00000000
00000000
,
01010000
00000000
00000000
00000000
10000000
00000000
00100000
00000000
00010000
00000000
00001000
00010000
00001000
00000000
00000010
00000000
,
00000001
00000000
00000100
00000010
00000100
00000000
00001000
00000000
00010000
00000000
01000000
00100000
01000000
00000000
10000000
00000000
,
01000000
00000000
00000000
00000000
10000000
00000000
00010000
00000000
00100000
00000000
01000000
10000000
00010000
00000000
01000000
00000000
,
00001000
00000000
00010000
00000010
00001000
00000000
00000001
00000000
00000200
00000000
00000320
00000000
00002030
00000000
00003200
00000000
,
00010300
00000000
00000000
00001000
01000000
00010000
01010000
00000000
,
10000000
01000000
01100000
00010000
00100000
00001000
00011000
00000100
,
00001000
00000010
00000110
00001000
00000001
00000010
00000110
00001000
,
00000100
00010000
00000100
00010000
00002000
00000000
00000000
00000000
00000000
00000000
00000000
00000000
00000000
00000000
00000000
00000000
,
00103000
00000000
00000000
00000000
,
02200000
00000000
00000000
00000000
,
00000000
00000000
00000000
00000000
,
00000000
00000000
00000000
00000000
,
00000000
00000000
00000000
00000000
,
00000000
00000000
00000000
00000000
,
00000000
00000000
00000000
03300000
,
00010000
01000000
00010000
01000000
00100000
00000000
00100000
00000000
,
10000000
11000000
00100000
01100000
,
00000000
00010000
01000000
00001000
00010000
00000000
00011000
00000000
,
00000100
00000000
00000000
00001000
00000000
00000010
00000100
00000000
00000010
00000100
00000000
00000000
00000001
00000000
00000000
00000010
00000000
00000000
00000001
00000000
00000000
00000100
00000000
00000000
,
00001000
00010000
00001000
00010000
01000000
10000000
01000000
10000000
,
00100000
00000000
10000000
00010000
00000000
01000000
00010000
00000000
00100000
00001000
00000000
00010000
00001000
00000000
00010000
00001000
00000000
00010000
00000010
00000000
00001000
00000010
00000000
00001000
,
00000100
00000020
00000032
00002003
00003200
00000300
00000000
00010000
,
00001000
00001000
00100000
10010000
,
01010000
00000000
00100000
00001000
00011000
00010000
00000010
00001000
,
00000100
00000000
00000010
00000001
00000010
00000000
00000100
00000000
00001000
00000000
00000100
00010000
00002000
00000000
00000000
00000000
,
01003000
00000000
00110000
10000000
10100000
01000000
00100000
00010000
,
01000000
00000000
00001000
00010000
00001000
00000000
00010000
00000000
00000010
00000000
00001000
00000000
00000100
00000000
00001000
00000000
,
00001001
00000000
00000000
00000000
00000100
00000000
00001000
00000000
00000000
00010000
00001000
00100000
00010000
00000000
00110000
00000000
,
10000000
00000000
10100000
00000000
01000000
00000000
01100000
00000000
00000000
00010000
01000000
00001000
00010000
00000000
00011000
00000000
,
00000020
00000000
00000000
00000000
00001030
00000000
00000001
00000000
00000000
00000010
00000001
00000010
00000100
00000000
00001100
00000000
,
00010000
00011000
01000000
01010000
00200000
00000000
10300000
00010000
,
01010000
00000000
10000000
00100000
10000000
01000000
00010000
00001000
,
00000100
00000000
00000001
00000010
00000001
00000000
00000100
00000000
00000010
00001000
00000010
00001000
00000100
00000000
00010000
00000000
,
00011000
00000000
01000000
10000000
00100000
00010000
00001000
00000010
,
00000001
00000000
00001000
00000100
00001000
00000000
00000100
00000000
00010000
00000000
00001000
00010000
00001000
00000000
00000000
00000000
,
00011000
00100000
01000000
10000000
10010000
01000000
00010000
00001000
,
00011000
00000010
00000100
00000001
00001001
00000010
00000200
00000000
,
00001300
00000100
00010000
00001000
00100000
00010000
01000000
00100000
,
10000000
01000000
10000000
01000000
00100000
00010000
00100000
00010000
02000000
00000000
00000000
00000000
03001000
00000000
00010000
00000000
,
00000000
00000000
00001000
00000000
00010000
00000000
00001000
00000000
00000100
00000000
00000000
00000110
00000000
00000000
00000001
00000000
,
00000000
00000011
00000000
00000000
00001000
00000000
00010000
00000000
00100000
00000000
10000000
00000000
00200000
00000000
00000000
00000000
,
10300000
00000000
00010000
00000000
00100000
00010000
00100000
00000000
00002000
00000000
00000000
00000000
00013000
00000000
00001000
00000000
,
00000100
00000000
00000001
00000000
00000010
00000100
00000010
00000100
00001000
00000000
00000100
00000000
00010000
00001000
00010000
00000000
,
00001000
00000000
00000000
00000000
00010000
00000000
00000000
00000000
00001000
00000000
00000000
00000000
01000000
00000000
00000000
00000000
00010000
00000000
00000000
00000000
00100000
00000000
00000000
00000000
01000000
00000000
00000000
00000000
00000000
00000000
10000000
00000000
00000000
00000000
00000000
00000000
02000000
00000000
00000000
00000000
00000000
00000000
00000000
00000000
00000000
03020000
00000000
00000000
,
00000000
00000000
00031000
00000010
00000001
00000100
00001000
00010000
,
01000000
10000000
00100000
00010000
00002000
00000000
00003010
00000001
,
00001000
00000100
00010000
00001000
00010000
00001000
00100000
00010000
01000000
00000000
00000000
00000000
00000000
00000000
00000000
00000000
,
11000000
00000000
00000000
00000000
,
00000000
00000000
00000000
00000000
;
