
//----- song ID: hart -----//
#TITLE:春を告げる;
#ARTIST:yama;
#TITLETRANSLIT:Haru wo tsugeru;
#BANNER:Haru wo tsugeru.png;
#BACKGROUND:Haru wo tsugeru-bg.png;
#CDTITLE:./CDTitles/DDR A20 PLUS.png;
#MUSIC:Haru wo tsugeru.ogg;
#SAMPLESTART:65.422;
#SAMPLELENGTH:15;
#BPMS:0=120;
#NOTES:
     dance-single:
     :
     Beginner:
     3:
     :
0000
0000
0000
0000
,
0000
0000
0000
0000
,
0000
0000
0000
0000
,
0000
0000
0000
0000
,
0000
0000
0000
0000
,
1000
0000
0000
0000
,
0001
0000
0000
0000
,
1000
0000
0000
0000
,
0001
0000
0000
0000
,
0010
0000
0010
0000
,
0100
0000
0100
0000
,
0010
0000
0010
0000
,
0100
0000
0100
0000
,
1000
0000
1000
0000
,
0001
0000
0001
0000
,
1000
0000
1000
0000
,
0001
0000
0001
0000
,
0010
0000
0000
0000
,
0010
0000
0000
0000
,
0100
0000
0000
0000
,
0100
0000
0000
0000
,
1000
0000
0000
0000
,
1000
0000
0000
0000
,
0001
0000
0000
0000
,
0001
0000
0000
0000
,
0010
0000
0001
0000
,
0010
0000
0001
0000
,
1000
0000
0100
0000
,
1000
0000
0100
0000
,
1000
0000
1000
0000
,
0002
0000
0003
0000
,
0010
0000
0000
0000
,
0200
0000
0300
0000
,
0010
0000
0010
0000
,
0100
0100
0100
0000
,
0001
0000
0001
0000
,
1000
1000
1000
0000
,
0100
0000
0100
0000
,
0010
0010
0010
0000
,
0001
0000
0001
0000
,
0100
0000
0000
0000
,
1001
0000
0000
0000
,
0100
0100
0100
0000
,
1001
0000
0000
0000
,
0010
0010
0010
0000
,
1001
0000
0000
0000
,
1000
1000
1000
0000
,
1001
0000
0000
0000
,
1001
0000
0000
0000
,
0010
0000
0010
0000
,
0100
0000
0100
0000
,
0010
0000
0010
0000
,
0100
0000
0100
0000
,
1000
0000
1000
0000
,
0001
0000
0001
0000
,
1000
0000
1000
0000
,
0001
0000
0001
0000
,
0000
0000
0000
0000
;
#NOTES:
     dance-single:
     :
     Easy:
     5:
     :
0000
0000
0000
0000
,
0000
0000
0000
0000
,
0000
0000
0000
0000
,
0000
0000
0000
0000
,
0000
0000
0000
0000
,
1000
0000
1000
0000
,
0001
0000
0001
0000
,
0100
0000
0100
0000
,
0020
0000
0000
0030
,
0100
0100
0001
0010
,
0100
0100
1000
0010
,
1000
1000
0001
0010
,
0001
0001
1000
0100
,
0010
0001
0010
0100
,
1000
0010
1000
0100
,
1000
0001
1000
0010
,
0100
0010
0100
0001
,
1000
0001
1000
0000
,
0010
0100
0010
0000
,
1000
0001
1000
0000
,
0001
1000
0001
0001
,
0010
0100
0010
0000
,
0001
0010
0001
0000
,
1000
0100
1000
0000
,
0001
1000
0001
0000
,
1000
1000
0001
0001
,
0010
0010
0100
0100
,
1000
1000
0010
0010
,
0100
0100
0001
0001
,
1000
0001
1000
0001
,
2002
0000
3003
0000
,
0020
0000
0030
0000
,
0200
0000
0300
0000
,
0010
0010
0100
0000
,
0001
0001
1000
0000
,
0010
1000
0001
0100
,
0010
0100
0001
1000
,
0010
0010
0100
0000
,
0001
0001
1000
0000
,
0001
0010
0100
0000
,
1000
0010
0100
0000
,
0010
1000
0010
0010
,
0100
0001
0100
0000
,
0001
1000
0001
1001
,
1000
0001
1000
1001
,
0100
0100
0010
0000
,
1000
1000
0001
0000
,
0010
0100
1000
0000
,
0020
0000
0030
1001
,
0010
0010
1000
0100
,
0010
0010
0001
0100
,
0001
0001
1000
0100
,
1000
1000
0001
0010
,
0100
1000
0100
0010
,
0001
0100
0001
0010
,
0001
1000
0001
0100
,
0010
0100
0010
1001
,
0000
0000
0000
0000
;
#NOTES:
     dance-single:
     :
     Medium:
     8:
     :
0000
0000
0000
0000
,
0000
0000
0000
0000
,
0000
0000
0000
0000
,
0000
0000
0000
0000
,
0000
0000
0000
0000
,
1000
0010
0100
0001
,
1000
0010
0100
0001
,
1000
0100
0010
0000
0001
0000
0100
0000
,
0001
0100
0010
0000
1000
0000
0002
0000
,
1003
0000
0100
0000
1000
0001
0100
0000
,
0001
0000
0100
0000
0001
1000
0100
0000
,
0010
0000
0001
0000
0010
0100
1000
0000
,
0010
0000
1000
0000
0010
0100
0001
0000
,
1000
0000
0001
0000
1000
0001
0100
0000
,
0001
0000
1000
0000
0001
1000
0010
0000
,
0100
0000
0010
0000
1000
0010
0100
0000
,
0010
0000
0100
0000
0010
0100
0001
0010
,
0100
0100
1000
1000
,
0001
1000
0100
0000
0010
0000
0010
0000
,
0001
0010
0100
0000
0011
0000
1100
0000
,
1000
0001
0100
0000
0001
0100
0010
0000
,
1000
0010
0100
0000
0001
0000
0010
0000
,
0100
1000
0010
0000
1010
0000
0101
0000
,
1000
0010
0100
0000
0001
0000
0010
0000
,
0001
0010
0100
0000
1000
0000
1001
0000
,
2000
3010
0002
0013
,
2000
3100
0002
0103
,
0020
0130
0200
0310
,
0100
0001
0010
0000
0100
1000
0010
0000
,
1000
0010
0100
0001
,
0220
0000
0330
0000
,
0002
0000
0000
0000
,
2003
0000
0000
3001
0000
0000
0000
0000
,
0011
0000
1100
0000
0001
0010
0100
0000
,
1000
0000
0001
0000
1000
0010
0100
0000
,
0010
0000
0010
0000
0010
1000
0100
0000
,
0010
0000
0010
0000
0010
0001
0100
0010
,
1000
0000
0001
0000
1000
0010
0100
0000
,
1010
0000
0101
0000
0001
0010
0100
0000
,
1000
0000
1000
0000
0001
1000
0100
0000
,
0020
0000
0000
0130
,
0110
0000
1001
0000
1000
0001
0010
0000
,
0100
0000
0010
0000
0001
1000
0100
0000
,
0011
0000
1100
0000
0001
1000
0100
0000
,
1010
0000
0101
0000
1000
0001
0100
0010
,
1000
0000
0001
0000
1000
0010
0100
0000
,
0001
0000
1000
0000
0001
0100
1000
0000
,
0100
0000
0001
0000
1000
0100
0001
0000
,
0220
0000
0000
0330
,
0001
0000
0010
0000
0001
1000
0010
0000
,
1000
0000
0010
0000
1000
0001
0010
0000
,
0100
0000
1000
0000
0100
0010
0001
0000
,
0100
0000
0001
0000
0100
0010
1000
0000
,
0001
0000
1000
0000
0001
1000
0010
0000
,
1000
0000
0001
0000
1000
0001
0100
0000
,
0010
0000
0100
0000
0001
0100
0010
0000
,
0100
0000
0010
0000
0100
0010
1000
0100
,
0000
0000
0000
0000
;
#NOTES:
     dance-single:
     :
     Hard:
     11:
     :
0000
0000
0000
0000
,
0000
0000
0000
0000
,
0000
0000
0000
0000
,
0000
0000
0000
0000
,
0000
0000
0000
0000
,
0001
0000
1000
0000
0001
0010
0100
0000
,
1000
0000
0001
0000
1000
0010
0100
0000
,
0001
0000
1000
0000
0001
1000
0010
0000
,
0200
0000
0000
0310
,
1000
0000
0000
1010
0000
0000
1000
0000
0100
0000
0000
0110
0000
0000
0001
0000
,
0100
0000
0000
0101
0000
0000
0001
0000
0100
0000
0010
0000
1000
0000
0100
0000
,
0010
0000
0000
0011
0000
0000
1000
0000
0100
0000
0000
0110
0000
0000
0001
0000
,
0100
0000
0000
1100
0000
0000
1000
0000
0010
0000
0100
0000
0001
0000
0010
0000
,
0100
0000
0000
1001
0000
0000
1000
0000
0010
0000
0000
1001
0000
0000
1000
0000
,
0100
0000
0000
0110
0000
0000
0001
0000
0100
0000
0010
0000
1000
0000
0100
0000
,
0010
0000
0000
1100
0000
0000
0001
0000
0100
0000
0000
0110
0000
0000
1000
0000
,
0010
0000
0000
1001
0000
0000
0001
0000
0010
0000
1000
0000
0010
0000
0001
0000
,
0100
0010
1000
0000
0100
0010
0001
0000
,
1000
0010
0100
0000
0001
0010
0100
0000
,
1000
0010
0100
0001
0010
0100
1000
0000
,
0001
0010
0100
1000
0010
0100
0001
1000
,
0001
0000
1000
0100
0010
0000
0110
0000
,
0010
0001
1000
0000
1000
0001
0010
0100
,
1000
0010
0100
0000
0001
0100
0010
0000
,
1000
0001
0100
0000
0001
1000
0010
0000
,
1010
1010
0101
0101
,
0011
0011
1100
1100
,
0010
0001
0100
0000
0010
1000
0100
0000
,
0010
0100
1000
0010
0100
0001
0010
0100
,
0110
1001
0110
1001
,
0001
0000
1000
0000
0001
0000
1000
0000
0001
0000
1000
0000
0020
0000
0000
0000
0000
0000
0130
0000
0000
0100
0000
0000
,
0020
0000
0230
0000
,
0302
0000
0000
1003
0000
0000
0000
0000
,
0010
1000
0010
0100
0001
0010
0100
0000
,
1000
0010
0100
0010
1000
0100
0110
0000
,
1000
0010
0001
0010
1010
0101
1010
0000
,
1000
0100
0001
0100
0110
1001
0110
0001
,
1000
0010
0100
0010
1000
0001
1000
0000
,
0001
0010
0100
1000
0001
0000
0110
0000
,
0010
1000
0001
0100
0010
0000
1001
0000
,
0010
0100
1000
0001
0100
0000
1001
0000
,
0001
0100
0001
0010
0100
1000
0001
0000
,
1000
0010
1000
0100
0010
0001
1001
0000
,
0010
1000
0010
0100
0101
1010
0101
0000
,
0001
0010
0100
0010
0110
1001
0110
1000
,
0010
0100
0001
0010
1000
0010
0001
0000
,
1000
0010
0001
0010
1000
0000
0110
0000
,
0001
0100
0010
1000
0001
0000
0110
0000
,
0002
0000
0000
1003
,
0001
0000
0000
0101
0000
0000
0001
0000
0010
0000
0000
0110
0000
0000
1000
0000
,
0010
0000
0000
1010
0000
0000
1000
0000
0010
0000
0100
0000
0001
0000
0010
0000
,
0100
0000
0000
1100
0000
0000
0001
0000
0010
0000
0000
0110
0000
0000
0001
0000
,
0010
0000
0000
0011
0000
0000
0001
0000
0100
0000
0010
0000
1000
0000
0100
0000
,
0010
0000
0000
1001
0000
0000
0001
0000
0100
0000
0000
0110
0000
0000
1000
0000
,
0010
0000
0000
0110
0000
0000
1000
0000
0010
0000
0100
0000
0001
0000
0010
0000
,
0100
0000
0000
0011
0000
0000
1000
0000
0100
0000
0000
1001
0000
0000
0001
0000
,
0100
0000
0000
1001
0000
0000
1000
0000
0100
0000
0001
0000
0100
0000
1000
0000
,
0000
0000
0000
0000
;
#NOTES:
     dance-double:
     :
     Easy:
     4:
     :
00000000
00000000
00000000
00000000
,
00000000
00000000
00000000
00000000
,
00000000
00000000
00000000
00000000
,
00000000
00000000
00000000
00000000
,
00000000
00000000
00000000
00000000
,
10000000
00000000
10000000
00000000
,
00010000
00000000
00010000
00000000
,
00100000
00000000
00100000
00000000
,
00002000
00000000
00000000
00003000
,
00010000
00010000
00000100
00000000
,
00000010
00000010
00000001
00000000
,
00000100
00000100
00001000
00000000
,
00010000
00010000
00100000
00000000
,
10000000
10000000
01000000
00000000
,
00100000
00100000
00001000
00000000
,
00010000
00010000
00000010
00000000
,
00001000
00001000
00000001
00000000
,
00001000
00000100
00000010
00000000
,
00000001
00000010
00000100
00000000
,
00010000
00001000
00100000
00000000
,
01000000
10000000
00010000
00100000
,
01000000
01000000
00100000
00000000
,
00001000
00001000
00010000
00000000
,
00000010
00000010
00000100
00000000
,
00000001
00000010
00000100
00000000
,
00010000
00010000
00001000
00001000
,
00100000
00100000
01000000
01000000
,
10000000
10000000
00010000
00010000
,
00100000
00100000
00001000
00001000
,
00010000
00000100
00000010
00000001
,
00002002
00000000
00003003
00000000
,
00000200
00000000
00000300
00000000
,
00000020
00000000
00000030
00000000
,
00000001
00000001
00000100
00000000
,
00000010
00000010
00010000
00000000
,
00001000
00100000
00010000
10000000
,
00100000
01000000
00001000
00010000
,
00000100
00000100
00000010
00000000
,
00000001
00000001
00001000
00000000
,
00000100
00010000
00001000
00000000
,
00010000
00001000
00100000
00000000
,
00100000
00010000
10000000
00000000
,
00100000
01000000
00001000
00000000
,
00010000
00001000
00000100
00000010
,
00001000
00000001
00000010
00000100
,
00000010
00000010
00000001
00000000
,
00001000
00001000
00000100
00000000
,
00010000
00001000
00100000
00000000
,
00002000
00000000
00003000
00011000
,
00001000
00001000
00100000
00000000
,
01000000
01000000
10000000
00000000
,
00100000
00100000
00010000
00000000
,
00001000
00001000
00000100
00000000
,
00000001
00000001
00000010
00000000
,
00000100
00000100
00010000
00000000
,
00001000
00001000
01000000
00000000
,
00010000
00010000
10000000
10010000
,
00000000
00000000
00000000
00000000
;
#NOTES:
     dance-double:
     :
     Medium:
     8:
     :
00000000
00000000
00000000
00000000
,
00000000
00000000
00000000
00000000
,
00000000
00000000
00000000
00000000
,
00000000
00000000
00000000
00000000
,
00000000
00000000
00000000
00000000
,
00000001
00000010
00000100
00010000
,
00001000
00100000
00010000
01000000
,
00100000
10000000
00100000
00000000
01000000
00000000
00001000
00000000
,
00010000
00001000
00010000
00000000
00000100
00000000
00000020
00000000
,
00000130
00000000
00001000
00000000
00000100
00010000
00001000
00000000
,
00010000
00000000
00001000
00000000
01000000
00010000
10000000
00000000
,
00100000
00000000
01000000
00000000
00100000
01000000
00010000
00000000
,
00100000
00000000
00001000
00000000
00010000
00000100
00001000
00000000
,
00000010
00000000
00001000
00000000
00000001
00000010
00000100
00000000
,
00001000
00000000
00000100
00000000
00010000
00001000
00100000
00000000
,
00010000
00000000
10000000
00000000
00010000
00100000
00001000
00000000
,
00010000
00000000
00001000
00000000
00010000
00000100
00000010
00000001
,
00001000
00001000
00000001
00000001
,
00001000
00000010
00000100
00000000
00000010
00000000
00000010
00000000
,
00000010
00010000
00001000
00000000
00011000
00000000
00110000
00000000
,
10000000
00100000
01000000
00000000
00010000
00000000
00100000
00000000
,
00001000
00010000
00000100
00000000
00001000
00000000
00000001
00000000
,
00000010
00000100
00001000
00000000
00000011
00000000
00001100
00000000
,
00000001
00000010
00000100
00000000
00010000
00000000
00001000
00000000
,
00010000
00001000
00100000
00000000
01000000
00000000
01100000
00000000
,
20000000
31000000
00200000
00310000
,
00002000
00003100
00000020
00000031
,
00000200
00000310
00020000
00031000
,
00010000
00001000
00100000
00000000
01000000
00000000
00100000
00000000
,
00010000
10000000
00100000
01000000
,
02200000
00000000
03300000
00000000
,
20000000
00000000
00000000
00000000
,
30020000
00000000
00000000
10030000
00000000
00000000
00000000
00000000
,
00011000
00000000
00110000
00000000
10000000
00100000
01000000
00000000
,
00010000
00000000
00100000
00000000
00001000
00010000
00000010
00000000
,
00000100
00000000
00000100
00000000
00000001
00001000
00000100
00000000
,
00010000
00000000
00010000
00000000
00001000
00100000
00010000
01000000
,
00100000
00000000
10000000
00000000
00010000
00100000
01000000
00000000
,
00110000
00000000
00011000
00000000
00001000
00010000
00000010
00000000
,
00000100
00000000
00000100
00000000
00000010
00001000
00000100
00000000
,
00000020
00000000
00000000
00000130
,
00000011
00000000
00000110
00000000
00000001
00001000
00000100
00000000
,
00001000
00000000
00000100
00000000
00010000
00001000
00100000
00000000
,
00110000
00000000
11000000
00000000
10000000
00100000
01000000
00000000
,
01010000
00000000
00011000
00000000
00001000
00010000
00000100
00000010
,
00000001
00000000
00001000
00000000
00000001
00000100
00001000
00000000
,
00010000
00000000
00001000
00000000
00010000
01000000
10000000
00000000
,
00100000
00000000
01000000
00000000
00100000
01000000
00010000
00000000
,
20020000
00000000
00000000
30030000
,
00100000
00000000
00010000
00000000
00100000
00001000
00010000
00000000
,
00001000
00000000
00010000
00000000
00000010
00001000
00000001
00000000
,
00000100
00000000
00000010
00000000
00000100
00000010
00001000
00000000
,
00000100
00000000
00010000
00000000
00001000
00100000
00010000
00000000
,
01000000
00000000
00010000
00000000
10000000
01000000
00100000
00000000
,
00010000
00000000
00100000
00000000
00001000
00010000
00000100
00000000
,
00001000
00000000
00000001
00000000
00001000
00000100
00010000
00000000
,
00001000
00000000
00010000
00000000
00001000
00100000
01000000
10000000
,
00000000
00000000
00000000
00000000
;
#NOTES:
     dance-double:
     :
     Hard:
     10:
     :
00000000
00000000
00000000
00000000
,
00000000
00000000
00000000
00000000
,
00000000
00000000
00000000
00000000
,
00000000
00000000
00000000
00000000
,
00000000
00000000
00000000
00000000
,
10000000
00000000
00010000
00000000
00100000
00001000
00010000
00000000
,
00001000
00000000
00000100
00000000
00000010
00001000
00000100
00000000
,
00000010
00000000
00000001
00000000
00001000
00000001
00000010
00000000
,
00000200
00000000
00000000
00000310
,
00000001
00000000
00000000
00000101
00000000
00000000
00000001
00000000
00000100
00000000
00000000
00001100
00000000
00000000
00010000
00000000
,
00001000
00000000
00000000
00011000
00000000
00000000
00010000
00000000
01000000
00000000
10000000
00000000
00100000
00000000
01000000
00000000
,
00100000
00000000
00000000
10100000
00000000
00000000
10000000
00000000
00100000
00000000
00000000
00110000
00000000
00000000
00001000
00000000
,
00010000
00000000
00000000
00011000
00000000
00000000
00001000
00000000
00000100
00000000
00000001
00000000
00000010
00000000
00000100
00000000
,
00001000
00000000
00000000
00001001
00000000
00000000
00000001
00000000
00000010
00000000
00000000
00001100
00000000
00000000
00010000
00000000
,
00000100
00000000
00000000
00010100
00000000
00000000
00010000
00000000
00001000
00000000
00100000
00000000
01000000
00000000
10000000
00000000
,
00100000
00000000
00000000
01100000
00000000
00000000
00100000
00000000
10000000
00000000
00000000
01100000
00000000
00000000
00010000
00000000
,
00001000
00000000
00000000
00011000
00000000
00000000
00010000
00000000
00001000
00000000
00000100
00000000
00000001
00000000
00000010
00000000
,
00000100
00000010
00000001
00000000
00001000
00000010
00000100
00000000
,
00000010
00010000
00001000
00000000
00010000
00001000
00100000
00000000
,
01000000
10000000
00100000
00010000
00001000
00010000
00100000
00000000
,
10000000
01000000
00100000
00001000
00010000
00000100
00000010
00000001
,
00001000
00000000
00000001
00000100
00001000
00000000
00000110
00000000
,
00010000
00001000
00010000
00000000
00001000
00010000
01000000
10000000
,
00100000
01000000
00100000
00000000
10000000
00100000
01000000
00000000
,
00001000
00010000
00001000
00000000
00010000
00000100
00000010
00000000
,
00000011
00000011
00000110
00000110
,
00001100
00000000
00001100
00000000
00011000
00000000
00001000
00010000
,
01000000
00000000
00100000
00010000
01000000
00000000
00100000
00000000
,
10000000
01000000
00010000
00001000
00010000
01000000
10000000
00100000
,
01100000
00110000
00011000
00001010
,
00000010
00000000
00000100
00000000
00000010
00000000
00000100
00000000
00000010
00000000
00000100
00000000
00000020
00000000
00000000
00000000
00000000
00000000
00000130
00000000
00000000
00000001
00000000
00000000
,
00000020
00000000
00000230
00000000
,
00020300
00000000
00000000
00031000
00000000
00000000
00000000
00000000
,
00001000
00010000
01000000
10000000
00100000
01000000
00010000
00000000
,
10000000
01000000
00010000
00001000
00000100
00000010
00001000
00000000
,
00000001
00000010
00000100
00000010
00000001
00000001
00000001
00000000
,
00000001
00000100
00001000
00010000
01000000
01000000
10000000
10000000
,
00100000
00010000
00001000
00010000
00100000
10000000
00010000
00000000
,
00100000
01000000
10000000
01000000
00100000
00000000
10010000
00000000
,
10000000
00100000
00010000
00001000
00010000
00000000
00011000
00000000
,
00001000
00010000
00001000
00000100
00000001
00000000
00001001
00000000
,
00000001
00000100
00000010
00010000
00001000
00100000
00010000
00000000
,
10000000
01000000
00010000
00001000
00000100
00000010
00000110
00000000
,
00000001
00000100
00001000
00010000
00001000
00001000
00011000
00000000
,
00010000
01000000
10000000
01000000
00010000
00010000
00001000
00001000
,
00000010
00000100
00001000
00000010
00000100
00000001
00000010
00000000
,
00000001
00000010
00001000
00010000
00001000
00000000
00011000
00000000
,
00001000
00010000
01000000
10000000
00010000
00000000
01100000
00000000
,
20000000
00000000
00000000
30010000
,
10000000
00000000
00000000
10100000
00000000
00000000
00010000
00000000
00100000
00000000
00000000
00101000
00000000
00000000
00001000
00000000
,
00010000
00000000
00000000
00011000
00000000
00000000
00001000
00000000
00000010
00000000
00000001
00000000
00000100
00000000
00000010
00000000
,
00000100
00000000
00000000
00000101
00000000
00000000
00001000
00000000
00000100
00000000
00000000
00010100
00000000
00000000
00010000
00000000
,
00001000
00000000
00000000
00011000
00000000
00000000
00010000
00000000
00100000
00000000
10000000
00000000
01000000
00000000
00100000
00000000
,
00010000
00000000
00000000
10010000
00000000
00000000
10000000
00000000
01000000
00000000
00000000
01100000
00000000
00000000
00010000
00000000
,
00100000
00000000
00000000
00101000
00000000
00000000
00001000
00000000
00010000
00000000
00000100
00000000
00000010
00000000
00000001
00000000
,
00000100
00000000
00000000
00000110
00000000
00000000
00000100
00000000
00000001
00000000
00000000
00001010
00000000
00000000
00000100
00000000
,
00010000
00000000
00000000
00011000
00000000
00000000
00001000
00000000
00010000
00000000
00100000
00000000
10000000
00000000
01000000
00000000
,
00000000
00000000
00000000
00000000
;
