
//----- song ID: hang -----//
#TITLE:叛逆のディスパレート;
#ARTIST:Vanitas Lacrimosa;
#TITLETRANSLIT:Hangyaku no disparate;
#BANNER:Hangyaku no disparate.png;
#BACKGROUND:Hangyaku no disparate-bg.png;
#CDTITLE:./CDTitles/DDR A20 PLUS.png;
#MUSIC:Hangyaku no disparate.ogg;
#SAMPLESTART:60.001;
#SAMPLELENGTH:15;
#BPMS:0=194;
#NOTES:
     dance-single:
     :
     Beginner:
     3:
     :
0000
0000
0000
0000
,
0000
0000
0000
0000
,
0000
0000
0000
0000
,
0000
0000
0000
0000
,
0000
0000
0000
0000
,
0000
0000
0000
0000
,
0000
0000
0000
0000
,
0000
0000
0000
0000
,
0000
0000
0000
0000
,
0001
0000
0000
0000
,
0001
0000
0000
0000
,
1000
0000
0000
0000
,
1000
0000
0000
0000
,
0001
0000
0001
0000
,
0001
0000
0000
0000
,
1000
0000
1000
0000
,
1000
0000
0000
0000
,
0010
0000
0000
0000
,
0010
0000
0000
0000
,
0100
0000
0000
0000
,
0100
0000
0000
0000
,
0001
0000
0000
0000
,
0001
0000
0000
0000
,
1000
0000
0000
0000
,
1000
0000
0000
0000
,
0001
0000
0001
0000
,
0001
0000
0000
0000
,
1000
0000
1000
0000
,
1000
0000
0000
0000
,
0001
0000
0000
0000
,
0010
0000
0000
0000
,
1000
0000
0000
0000
,
0010
0000
0000
0000
,
0200
0000
0000
0000
,
0300
0000
0000
0000
,
0001
0000
0000
0000
,
0001
0000
0000
0000
,
1000
0000
0000
0000
,
1000
0000
0000
0000
,
0002
0000
0000
0000
,
0003
0000
0000
0000
,
2000
0000
0000
0000
,
3000
0000
0000
0000
,
0001
0000
0001
0000
,
0001
0000
0000
0000
,
1000
0000
1000
0000
,
1000
0000
0000
0000
,
0020
0000
0000
0000
,
0030
0000
0000
0000
,
0010
0000
0001
0000
,
0001
0000
0000
0000
,
0010
0000
1000
0000
,
1000
0000
0000
0000
,
0001
0000
0000
0000
,
1000
0000
0000
0000
,
0001
0000
1000
0000
,
0001
0000
0000
0000
,
0010
0000
0001
0000
,
0001
0000
0000
0000
,
0010
0000
1000
0000
,
1000
0000
0000
0000
,
0001
0000
0000
0000
,
1000
0000
0000
0000
,
0001
0000
0000
0000
,
1000
0000
0000
0000
,
0010
0000
0000
0000
,
0100
0000
0000
0000
,
0001
0000
0010
0000
,
0001
0000
0000
0000
,
1000
0000
0010
0000
,
1000
0000
0000
0000
,
0001
0000
0000
0000
,
1000
0000
0000
0000
,
0001
0000
0000
0000
,
1000
0000
0000
0000
,
0010
0000
0000
0000
,
0200
0000
0000
0000
,
0300
0000
0000
0000
,
0001
0000
0000
0000
,
0001
0000
0000
0000
,
1000
0000
0000
0000
,
1000
0000
0000
0000
,
0001
0000
1000
0000
,
0002
0000
0000
0003
,
0000
0000
0000
0000
;
#NOTES:
     dance-single:
     :
     Easy:
     6:
     :
0000
0000
0000
0000
,
0000
0000
0000
0000
,
0000
0000
0000
0000
,
0000
0000
0000
0000
,
0000
0000
0000
0000
,
0010
0000
0010
0000
,
0100
0000
0100
0000
,
0001
0001
1000
1000
,
0002
0000
0000
0003
,
1000
0100
1000
0000
,
0001
0100
0001
0000
,
1000
0010
1000
0000
,
0001
0010
0001
0000
,
0010
0001
0001
0000
,
0010
1000
1000
0000
,
1001
0000
0110
0000
,
1001
0000
0000
0000
,
0001
0001
0100
0000
,
0010
0010
0010
0000
,
1000
1000
0100
0000
,
0010
0010
0010
0000
,
0001
0010
0100
0000
,
1000
0010
0100
0000
,
0010
0010
0010
0000
,
0100
0100
0100
0000
,
0220
0000
0330
0000
,
2002
0000
3003
0000
,
0220
0000
0330
0000
,
2002
0000
3003
0000
,
0001
1000
0010
0000
,
1000
0001
0010
0000
,
0001
0010
0100
0000
,
1000
0010
0100
0000
,
2002
0000
0000
0000
,
3003
0000
0000
0000
,
0001
0100
0100
0000
,
1000
0100
0100
0000
,
0001
1000
0100
0000
,
1000
0001
0100
0000
,
0020
0000
0000
0000
,
0000
0000
0000
0030
,
0200
0000
0000
0000
,
0300
0000
0000
0000
,
1001
0000
0000
0000
,
0110
0000
0000
0000
,
0001
0001
0001
0000
,
1000
1000
1000
0000
,
0010
0010
0100
0100
,
0001
1000
0001
0000
,
0010
0001
0010
0001
,
0010
0100
1000
0000
,
0100
1000
0100
1000
,
0100
0010
0001
0000
,
0001
0010
0010
0000
,
1000
0010
0010
0000
,
1001
0000
0110
0000
,
1001
0000
0000
0000
,
0010
0001
0100
0001
,
0010
0100
0010
0000
,
1000
0001
1000
0001
,
0020
0000
0000
0030
,
0001
0000
0001
0000
,
1000
0000
1000
0000
,
0002
0000
0000
0003
,
2000
0000
0000
3000
,
0002
0000
0000
0003
,
2000
0000
0000
3000
,
0001
0000
0001
0000
,
0010
0100
1000
0000
,
0001
1000
0001
1000
,
0020
0000
0000
0030
,
1000
0000
1000
0000
,
0001
0000
0001
0000
,
2000
0000
0000
3000
,
0002
0000
0000
0003
,
0020
0000
0000
0030
,
0200
0000
0000
0000
,
0300
0000
0000
0000
,
0001
0010
0001
0000
,
1000
0010
1000
0000
,
0010
0001
0001
0000
,
0100
1000
1000
0000
,
0010
0000
0100
0000
,
2002
0000
0000
3003
,
0000
0000
0000
0000
;
#NOTES:
     dance-single:
     :
     Medium:
     10:
     :
0000
0000
0000
0000
,
0000
0000
0000
0000
,
0000
0000
0000
0000
,
0000
0000
0000
0000
,
0000
0000
0000
0000
,
0010
0010
0001
0001
,
1000
1000
0100
0100
,
0010
0000
0010
0000
0001
0010
0001
2000
,
0000
0000
0000
3000
,
0010
0000
0100
0000
0010
1000
0100
1000
,
0000
0000
1001
0000
0001
1000
0100
0000
,
0010
0000
0100
0000
0010
0001
0100
0001
,
0000
0000
1001
0000
1000
0001
0100
0000
,
0010
0000
1000
0100
0000
1000
0100
0000
,
0010
0000
0001
0100
0000
0001
0100
0000
,
0010
0001
0100
0010
,
1000
0000
0100
0000
0010
0001
1000
0000
,
0100
0000
0100
0000
1000
0010
1000
0000
,
0010
0000
0010
0000
0100
0001
0100
0000
,
0001
0000
0001
0000
0100
0001
0100
0000
,
0010
0000
0001
1000
0000
0001
1000
0000
,
0010
0000
0010
0000
1000
0100
1000
0000
,
0001
0000
0001
0000
0100
0010
0100
0000
,
0010
0000
1000
0000
0010
1000
0001
0000
,
0100
0000
0001
1000
0000
0001
1000
0000
,
0001
0001
0000
1001
0000
0001
0001
0000
,
1000
1000
0000
1001
0000
1000
1000
0000
,
0001
0001
0000
0011
0000
0001
0001
0000
,
1000
1000
0000
1010
0000
1000
1000
0000
,
0010
0000
1000
0000
0010
1000
0100
0000
,
0010
0000
0001
0000
0010
0001
0100
0000
,
0001
0010
0001
0000
1000
0010
1000
0000
,
0010
0000
0010
0000
0100
0010
0100
0000
,
0010
0010
0001
0100
,
1000
0000
1000
0000
0001
0010
0001
1000
,
0010
0000
0010
0000
1000
0001
0100
0000
,
0001
0000
0001
0000
0010
0100
1000
0000
,
0010
0000
0010
0000
0100
0001
0010
0000
,
0100
0000
0100
0000
1000
0010
0100
0000
,
2002
0000
0000
0000
,
0000
0000
3003
0110
,
0220
0000
0330
1001
,
2002
0000
0000
3003
,
0010
0000
1000
0100
0000
1000
0100
0000
,
0010
0000
0001
0100
0000
0001
0100
0000
,
0010
1000
0010
0010
,
0100
0001
0010
0010
,
0001
0010
1000
0100
,
0001
0000
0010
0000
0001
0001
0000
0000
,
1000
0100
1000
0000
0001
0100
0001
0000
,
0010
0001
0100
0000
0010
1000
0100
0000
,
1000
0001
0010
0000
0001
1000
0010
0000
,
1000
0010
0100
0000
0001
0010
0100
0000
,
1000
0100
1000
0010
0000
0100
0001
0100
,
1000
0000
0100
0001
0000
0000
0010
0001
,
0010
0000
0001
0100
0000
0010
0000
0200
,
0000
0000
0000
0300
,
0001
0100
0001
0000
1000
0100
1000
0000
,
0010
1000
0100
0000
0010
0001
0100
0000
,
0001
1000
0001
1000
0000
0010
0000
0020
,
0000
0000
0000
0030
,
0100
0000
0001
0000
0100
0000
0010
1000
,
0000
0000
0000
0001
1000
0200
0000
0000
,
0310
0000
0010
0001
0000
1000
0000
0010
,
0000
1000
0010
2000
0000
0000
3000
0000
,
0010
0000
0010
0100
0000
0001
0000
2002
,
0000
0000
0000
3003
,
1000
0100
1000
0000
0001
0100
0001
0000
,
0010
0001
0100
0000
0010
1000
0100
0000
,
1000
0001
0010
0001
0000
0010
0000
0020
,
0000
0000
0000
0030
,
0001
0000
0010
0000
0001
0000
0100
0020
,
0000
0000
0030
1000
0100
0010
0000
0000
,
0100
0000
1000
0010
0000
0010
1000
0001
,
0000
0001
1000
0200
0000
0000
0300
0000
,
1000
0000
0010
0100
0000
0001
0000
2002
,
0000
0000
0000
3003
,
0010
0000
1001
0000
1000
0001
0100
0000
,
0010
0000
0100
0000
0010
1000
0100
1000
,
0000
0000
1001
0000
0001
1000
0100
0000
,
1000
0000
0001
0100
0000
0001
0100
0000
,
0001
0000
1000
0100
0000
1000
0100
0020
,
0000
0000
0000
0030
,
1001
0000
0010
0001
0000
1000
0100
0000
,
0000
0000
0000
0000
;
#NOTES:
     dance-single:
     :
     Hard:
     13:
     :
0000
0000
0000
0000
,
0000
0000
0000
0000
,
0000
0000
0000
0000
,
0000
0000
0000
0000
,
0000
0000
0000
0000
,
0010
0001
0100
0000
0010
1000
0100
0000
,
0010
0001
1000
0000
0010
1000
0001
0000
,
0010
0001
1000
0010
1000
0100
0010
0002
,
0000
1000
1000
1003
,
0010
1000
0001
0010
0001
0100
1000
0200
,
0000
0000
0301
0000
1000
0001
0010
0000
,
0010
0001
1000
0010
1000
0100
0001
0200
,
0000
0000
1300
0000
0001
1000
0010
0000
,
1000
0100
0100
1000
0100
0100
1000
0000
,
0001
0100
0100
0001
0100
0100
0001
0000
,
0100
0001
1000
0100
0010
0001
0100
1000
,
0100
0001
0010
0001
1000
0100
1000
0000
,
0010
0000
1000
0000
0001
1000
0001
0000
,
0010
0000
0001
0000
1000
0001
1000
0000
,
0010
0000
0010
0000
0010
1000
0001
0000
,
0001
0001
0100
1000
1000
0100
0001
0000
,
0010
0000
0001
0000
1000
0001
1000
0000
,
0010
0000
1000
0000
0001
1000
0001
0000
,
0010
0000
0010
0000
0010
0001
1000
0000
,
1000
1000
0100
0001
0001
0100
1000
0000
,
1100
1100
0000
1100
0000
1001
1001
0000
,
1010
1010
0000
1010
0000
0110
0110
0000
,
0101
0101
0000
0101
0000
1001
1001
0000
,
0011
0011
0000
0011
0000
0110
0110
0000
,
1000
0100
1000
0100
0001
0100
1000
0000
,
0001
0100
0001
0100
1000
0100
0001
0000
,
1000
0001
1000
0000
0001
1000
0001
0000
,
1000
0010
1000
0010
0100
0001
0100
0001
,
0010
0001
0010
0001
1000
0001
0100
0002
,
0000
0000
0003
1000
0100
0001
0100
1000
,
0010
0000
0100
0000
0001
0100
0001
0000
,
0010
0000
0100
0000
1000
0100
1000
0000
,
0010
1000
0100
0000
0010
0001
0100
0000
,
0010
1000
0010
0100
0010
0001
0010
0100
,
0020
0000
1030
0200
,
0301
0200
1300
0020
,
0130
0002
0013
0200
,
0301
0200
1300
0010
,
1000
0010
1000
0001
0000
0001
1000
0000
,
0001
0010
0001
1000
0000
1000
0001
0000
,
1000
0000
0100
0000
0001
0100
1000
0000
,
0001
0000
0100
0000
1000
0100
0001
0000
,
0010
0001
0100
1000
,
0010
0000
0001
0000
0100
0100
0000
0000
,
0010
0100
0010
1000
0100
0010
0001
0000
,
0001
0010
1000
0010
0100
1000
0010
0000
,
0010
0100
0010
1000
0100
0001
0100
0000
,
0100
0001
0100
0010
0100
1000
0001
0000
,
0010
0001
0100
1000
0000
1000
0100
0001
,
0010
0000
0100
0002
0000
0000
0103
1000
,
0010
1000
0010
0001
0010
1000
0100
0020
,
0000
0000
0100
0130
,
0100
0010
0100
1000
0010
0100
0001
0000
,
0001
0100
1000
0100
0010
1000
0100
0000
,
0100
0010
0100
1000
0010
1000
0000
2000
,
0000
0001
0001
3001
,
0010
0000
0001
0000
1000
0000
1000
0100
,
0000
0000
0000
0001
0100
2000
0000
0000
,
3001
0000
0001
0010
0000
0001
0000
1000
,
0000
0010
1000
2000
0000
0000
3001
0000
,
1000
0000
1000
0010
0000
1000
0000
2000
,
0000
0001
0001
3001
,
0010
0100
0010
0001
0100
0010
1000
0000
,
1000
0010
0001
0010
0100
0001
0010
0000
,
0010
0100
0010
0001
0100
0010
0000
2000
,
0000
0001
0001
3001
,
0100
0000
0001
0000
0100
0000
0001
0010
,
0000
0000
0000
1000
0010
0002
0000
0000
,
0013
0000
0010
0001
0000
0001
1000
0100
,
0000
0100
1000
0002
0000
0000
1003
0000
,
0010
0000
0010
1000
0000
1000
0000
1000
,
0000
1000
0001
0010
0001
0100
1000
0200
,
0000
0000
0301
0000
1000
0001
0010
0000
,
0010
0001
1000
0010
1000
0100
0001
0200
,
0000
0000
1300
0000
0001
1000
0010
0000
,
1000
0010
0010
1000
0010
0010
1000
0000
,
0001
0010
0010
0001
0010
0010
0001
0000
,
0010
0000
0010
0000
1000
0001
1000
0000
,
0001
0100
0001
0000
0001
0000
1000
0100
1000
0000
1000
0000
1001
0000
0000
0000
,
0000
0000
0000
0000
;
#NOTES:
     dance-double:
     :
     Easy:
     7:
     :
00000000
00000000
00000000
00000000
,
00000000
00000000
00000000
00000000
,
00000000
00000000
00000000
00000000
,
00000000
00000000
00000000
00000000
,
00000000
00000000
00000000
00000000
,
00100000
00000000
00100000
00000000
,
00010000
00000000
00010000
00000000
,
00001000
00001000
00010000
00010000
,
00002000
00000000
00000000
00003000
,
00010000
00001000
00010000
00000000
,
00000010
00001000
00000010
00000000
,
00000100
00000001
00000100
00000000
,
00000001
00000100
00001000
00000000
,
00010000
01000000
01000000
00000000
,
10000000
00100000
00100000
00000000
,
00110000
00000000
00011000
00000000
,
00001100
00000000
00000000
00000000
,
00000010
00000001
00000100
00000000
,
00000010
00000100
00001000
00000000
,
00010000
00001000
00010000
00000000
,
01000000
10000000
00100000
00000000
,
10000000
01000000
00010000
00000000
,
00001000
00000100
00000001
00000000
,
00000010
00000001
00000100
00000000
,
00000010
00010000
00001000
00000000
,
00022000
00000000
00033000
00000000
,
02020000
00000000
03030000
00000000
,
00022000
00000000
00033000
00000000
,
00002200
00000000
00003300
00000000
,
00001000
00000100
00000010
00000000
,
00000001
00000010
00000100
00000000
,
00001000
00000010
00010000
00000000
,
00001000
00100000
00010000
00000000
,
20020000
00000000
00000000
00000000
,
30030000
00000000
00000000
00000000
,
10000000
01000000
00010000
00000000
,
01000000
00010000
00001000
00000000
,
00010000
00001000
00000100
00000000
,
00001000
00000100
00000001
00000000
,
00000020
00000000
00000000
00000000
,
00000000
00000000
00000000
00000030
,
00002000
00000000
00000000
00000000
,
00003000
00000000
00000000
00000000
,
00001100
00000000
00000000
00000000
,
00011000
00000000
00000000
00000000
,
00001000
00010000
00001000
00000000
,
00010000
00100000
10000000
00000000
,
01000000
01000000
00010000
00010000
,
00001000
00001000
00011000
00000000
,
00000010
00001000
00000100
00000010
,
00000001
00000100
00001000
00000000
,
00010000
01000000
00100000
00010000
,
01000000
00100000
10000000
00000000
,
10000000
01000000
00010000
00000000
,
00001000
00000100
00000001
00000000
,
00001001
00000000
00011000
00000000
,
10010000
00000000
00000000
00000000
,
00100000
00010000
01000000
00100000
,
10000000
01000000
00010000
00000000
,
00001000
00000100
00001000
00010000
,
00002000
00000000
00000000
00003000
,
00010000
00000000
00010000
00000000
,
00100000
00000000
00100000
00000000
,
02000000
00000000
00000000
03000000
,
00020000
00000000
00000000
00030000
,
00002000
00000000
00000000
00003000
,
00000200
00000000
00000000
00000300
,
00000010
00000100
00001000
00010000
,
00001000
00010000
01000000
00000000
,
10000000
01000000
00100000
00001000
,
00020000
00000000
00000000
00030000
,
00001000
00000010
00001000
00000000
,
00000010
00000001
00000010
00000000
,
00000200
00000000
00000000
00000300
,
00020000
00000000
00000000
00030000
,
00200000
00000000
00000000
00300000
,
02000000
00000000
00000000
00000000
,
03000000
00000000
00000000
00000000
,
00010000
00100000
00010000
00000000
,
00100000
00001000
00010000
00000000
,
00001000
00010000
00000100
00000000
,
00001000
00000100
00001000
00000000
,
00010000
00000000
00001000
00000000
,
00022000
00000000
00000000
00033000
,
00000000
00000000
00000000
00000000
;
#NOTES:
     dance-double:
     :
     Medium:
     11:
     :
00000000
00000000
00000000
00000000
,
00000000
00000000
00000000
00000000
,
00000000
00000000
00000000
00000000
,
00000000
00000000
00000000
00000000
,
00000000
00000000
00000000
00000000
,
00000001
00000001
00000100
00000100
,
00001000
00001000
00010000
00010000
,
01000000
00000000
01000000
00000000
10000000
01000000
10000000
00200000
,
00000000
00000000
00000000
00300000
,
01000000
00000000
00100000
00000000
00010000
00001000
00010000
00001000
,
00000000
00000000
00000100
00000000
00000001
00000010
00000100
00000000
,
00000010
00000000
00000100
00000000
00010000
00001000
00010000
00001000
,
00000000
00000000
00100000
00000000
00010000
01000000
00100000
00000000
,
01000000
00000000
00100000
10000000
00000000
00100000
00010000
00000000
,
00001000
00000000
00000100
00000001
00000000
00000100
00001000
00000000
,
00010000
00001000
00010000
01000000
,
10000000
00000000
00100000
00000000
10000000
01000000
00010000
00000000
,
00001000
00000000
00001000
00000000
00000100
00000001
00000100
00000000
,
00000001
00000000
00000001
00000000
00000001
00000100
00001000
00000000
,
00010000
00000000
00010000
00000000
00001000
00100000
00010000
00000000
,
01000000
00000000
00010000
00100000
00000000
00010000
00100000
00000000
,
00001000
00000000
00001000
00000000
00001000
00000100
00000001
00000000
,
00000010
00000000
00000010
00000000
00000100
00010000
00001000
00000000
,
00010000
00000000
00010000
00000000
01000000
00100000
00010000
00000000
,
01000000
00000000
00010000
00100000
00000000
00010000
00100000
00000000
,
00010000
00010000
00000000
00011000
00000000
00001000
00001000
00000000
,
00000100
00000100
00000000
00000110
00000000
00000100
00000100
00000000
,
00000001
00000001
00000000
00000011
00000000
00000010
00000010
00000000
,
00000100
00000100
00000000
00000110
00000000
00000100
00000100
00000000
,
00001000
00000000
00000100
00000000
00010000
00001000
00010000
00000000
,
01000000
00000000
10000000
00000000
00100000
10000000
00100000
00000000
,
01000000
00010000
01000000
00000000
00001000
00010000
00001000
00000000
,
00000010
00000000
00000010
00000000
00000001
00000010
00000001
00000000
,
00000100
00000100
00001000
00001000
,
00010000
00000000
00010000
00000000
01000000
10000000
01000000
00010000
,
01000000
00000000
01000000
00000000
10000000
00010000
01000000
00000000
,
00100000
00000000
00100000
00000000
00010000
00000100
00001000
00000000
,
00000010
00000000
00000010
00000000
00001000
00000100
00000010
00000000
,
00000001
00000000
00000001
00000000
00000010
00000100
00001000
00000000
,
00022000
00000000
00000000
00000000
,
00000000
00000000
00033000
00011000
,
00220000
00000000
00330000
00011000
,
00002020
00000000
00000000
00003030
,
00001000
00000000
00000010
00000100
00000000
00000010
00000100
00000000
,
00000001
00000000
00000010
00000100
00000000
00000010
00000100
00000000
,
00001000
00000100
00010000
00001000
,
01000000
00010000
00100000
00100000
,
00010000
01000000
00100000
10000000
,
01000000
00000000
00100000
00000000
00010000
00010000
00000000
00000000
,
00100000
00010000
00100000
00000000
00001000
00010000
00001000
00000000
,
00000100
00000001
00000010
00000000
00000001
00000010
00001000
00000000
,
00010000
00001000
00010000
00000000
01000000
10000000
00100000
00000000
,
10000000
00100000
00010000
00000000
00001000
00010000
00001000
00000000
,
00010000
00001000
00000100
00000001
00000000
00000010
00000001
00000100
,
00001000
00000000
00010000
00100000
00000000
00000000
01000000
00100000
,
01000000
00000000
00100000
10000000
00000000
01000000
00000000
00200000
,
00000000
00000000
00000000
00300000
,
01000000
00100000
01000000
00000000
00100000
00010000
00100000
00000000
,
00001000
00010000
00001000
00000000
00000100
00000010
00000100
00000000
,
00000001
00000100
00000001
00000100
00000000
00001000
00000000
00002000
,
00000000
00000000
00000000
00003000
,
00010000
00000000
00001000
00000000
00100000
00000000
00010000
00100000
,
00000000
00000000
00000000
10000000
00100000
00020000
00000000
00000000
,
00130000
00000000
00100000
00001000
00000000
00010000
00000000
00010000
,
00000000
00001000
00000100
00000200
00000000
00000000
00000300
00000000
,
00000001
00000000
00000001
00000010
00000000
00000100
00000000
00000200
,
00000000
00000000
00000000
00000300
,
00001000
00000100
00001000
00000000
00000100
00010000
00000100
00000000
,
00010000
00001000
00010000
00000000
00100000
01000000
00100000
00000000
,
10000000
01000000
10000000
01000000
00000000
00100000
00000000
00200000
,
00000000
00000000
00000000
00300000
,
00010000
00000000
00100000
00000000
00001000
00000000
00010000
00002000
,
00000000
00000000
00003000
00010000
00001000
00000100
00000000
00000000
,
00000001
00000000
00000001
00000010
00000000
00000100
00001000
00000010
,
00000000
00000100
00000001
00000020
00000000
00000000
00000030
00000000
,
00001000
00000000
00010000
00001000
00000000
00010000
00000000
00002000
,
00000000
00000000
00000000
00003000
,
00010000
00000000
00001000
00000000
00010000
01000000
00100000
00000000
,
00010000
00000000
00100000
00000000
01000000
10000000
01000000
10000000
,
00000000
00000000
00100000
00000000
01000000
00001000
00010000
00000000
,
00001000
00000000
00000100
00000001
00000000
00000100
00000001
00000000
,
00000010
00000000
00000100
00001000
00000000
00000100
00010000
00002000
,
00000000
00000000
00000000
00003000
,
00011000
00000000
00001000
00001000
00000000
00010000
00010000
00000000
,
00000000
00000000
00000000
00000000
;
#NOTES:
     dance-double:
     :
     Hard:
     13:
     :
00000000
00000000
00000000
00000000
,
00000000
00000000
00000000
00000000
,
00000000
00000000
00000000
00000000
,
00000000
00000000
00000000
00000000
,
00000000
00000000
00000000
00000000
,
00000010
00000001
00000100
00000000
00000010
00001000
00000100
00000000
,
00010000
00001000
01000000
00000000
00100000
10000000
01000000
00000000
,
10000000
01000000
10000000
01000000
00010000
01000000
00010000
00002000
,
00000000
00000000
00000000
00003000
,
00010000
00001000
00000010
00000000
00000001
00000100
00000001
00000200
,
00000000
00000000
00001300
00000000
00010000
01000000
10000000
00000000
,
01000000
10000000
00100000
00000000
00010000
00001000
00010000
00002000
,
00000000
00000000
00013000
00000000
00001000
00000100
00000001
00000000
,
00010000
00000100
00000100
00010000
00000100
00000100
00010000
00000000
,
00001000
01000000
01000000
00001000
01000000
01000000
00001000
00000000
,
00010000
00001000
00000010
00000001
00001000
00000010
00000100
00000001
,
00000010
00000100
00010000
00001000
00010000
01000000
10000000
00000000
,
00100000
00000000
00100000
00000000
00010000
00001000
00010000
00000000
,
00000100
00000000
00000100
00000000
00000010
00000001
00000010
00000000
,
00000100
00000000
00000100
00000000
00010000
00001000
00010000
00000000
,
00001000
00001000
00010000
01000000
01000000
10000000
00010000
00000000
,
01000000
00000000
01000000
00000000
00001000
00010000
00001000
00000000
,
00000010
00000000
00000010
00000000
00000001
00000100
00000001
00000000
,
00000100
00000000
00000100
00000000
00001000
00010000
00001000
00000000
,
00010000
00010000
00001000
00100000
00100000
00010000
10000000
00000000
,
10100000
10100000
00000000
10100000
00000000
00110000
00110000
00000000
,
00011000
00011000
00000000
00011000
00000000
00010010
00010010
00000000
,
00000110
00000110
00000000
00000110
00000000
00000101
00000101
00000000
,
00001100
00001100
00000000
00001100
00000000
00011000
00011000
00000000
,
00001000
00010000
00001000
00100000
00010000
01000000
00100000
00000000
,
00010000
00001000
00010000
00000010
00001000
00000100
00000010
00000000
,
00000001
00001000
00000010
00000000
00000100
00001000
00010000
00000000
,
01000000
10000000
01000000
10000000
01000000
00100000
00010000
00000000
,
00001000
00000100
00001000
00000100
00000010
00000001
00000010
00000200
,
00000000
00000000
00000300
00000010
00000001
00000100
00001000
00010000
,
00001000
00000000
00010000
00000000
00001000
00010000
01000000
00000000
,
00010000
00000000
00001000
00000000
00010000
00001000
00000100
00000000
,
00000001
00000000
00000010
00000000
00000100
00010000
00001000
00000000
,
00100000
00000000
00010000
00000000
00100000
00001000
00010000
00000000
,
00000200
00000000
00000310
00000002
,
00000103
00002000
00013000
00200000
,
01300000
20000000
31000000
00020000
,
00130000
00002000
00003010
00000001
,
00000100
00000010
00000100
00000010
00000000
00010000
00001000
00000000
,
00100000
01000000
00100000
01000000
00000000
00010000
00001000
00000000
,
00000100
00000001
00000010
00000010
,
00001000
00010000
00100000
00100000
,
10000000
00100000
00010000
00001000
,
00000010
00000000
00000001
00000000
00000100
00000100
00000000
00000000
,
00000001
00000010
00000001
00000010
00000100
00010000
00001000
00000000
,
01000000
00010000
01000000
00010000
00100000
01000000
10000000
00000000
,
00100000
01000000
00100000
01000000
00001000
00010000
00000100
00000000
,
00000010
00000100
00000010
00000100
00001000
00000010
00000100
00000000
,
00001000
00010000
00001000
00000010
00000000
00001000
00010000
01000000
,
10000000
00000000
00100000
00020000
00000000
00000000
00031000
00000100
,
00000001
00000000
00000010
00001000
00000000
00010000
00000000
00002000
,
00000000
00000000
00000000
00003000
,
00000001
00000010
00000001
00000010
00000100
00010000
00001000
00000000
,
01000000
00010000
01000000
00010000
00100000
01000000
10000000
00000000
,
00100000
10000000
01000000
00010000
00001000
00000100
00000000
00000002
,
00000000
00000000
00000000
00000003
,
00000010
00000000
00001000
00000000
00010000
00000000
01000000
00100000
,
00000000
00000000
00000000
00100000
00001000
00020000
00000000
00000000
,
00031000
00000000
00000100
00000001
00000000
00000010
00000000
00000001
,
00000000
00001000
00000001
00002000
00000000
00000000
00003000
00000000
,
00010000
00000000
00001000
00010000
00000000
01000000
00000000
02000000
,
00000000
00000000
00000000
03000000
,
10000000
00100000
10000000
00100000
01000000
00001000
00010000
00000000
,
00000100
00001000
00000100
00001000
00000010
00000100
00000001
00000000
,
00000010
00000001
00000100
00001000
00010000
01000000
00000000
20000000
,
00000000
00000000
00000000
30000000
,
00100000
00000000
00010000
00000000
00001000
00000000
00000100
00000010
,
00000000
00000000
00000000
00000010
00010000
00002000
00000000
00000000
,
00013000
00000000
01000000
10000000
00000000
10000000
00100000
10000000
,
00000000
01000000
00010000
00002000
00000000
00000000
00003000
00000000
,
00010000
00000000
00010000
00001000
00000000
00000100
00000000
00000010
,
00010000
00001000
00000010
00000000
00000001
00000100
00000001
00000200
,
00000000
00000000
00001300
00000000
00010000
01000000
10000000
00000000
,
01000000
10000000
00100000
00000000
00010000
00001000
00010000
00002000
,
00000000
00000000
00013000
00000000
00001000
00000100
00000001
00000000
,
00010000
00000010
00000010
00010000
00000010
00000010
00010000
00000000
,
00001000
00100000
00100000
00001000
00100000
00100000
00001000
00000000
,
00010000
00100000
10000000
00010000
,
01000000
00010000
01000000
00000000
00010000
00000000
10000000
01000000
10000000
00000000
00010000
00000000
10010000
00000000
00000000
00000000
,
00000000
00000000
00000000
00000000
;
