
//----- song ID: haor -----//
#TITLE:花は折りたし梢は高し;
#ARTIST:夜叉姫神楽;
#TITLETRANSLIT:Hana wa oritashi kozue wa takashi;
#ARTISTTRANSLIT:Yasha-hime Kagura;
#BANNER:Hana wa oritashi kozue wa takashi.png;
#BACKGROUND:Hana wa oritashi kozue wa takashi-bg.png;
#CDTITLE:./CDTitles/DDR A20 PLUS.png;
#MUSIC:Hana wa oritashi kozue wa takashi.ogg;
#SAMPLESTART:27.525;
#SAMPLELENGTH:15;
#BPMS:0=215;
#NOTES:
     dance-single:
     :
     Beginner:
     2:
     :
0000
0000
0000
0000
,
0000
0000
0000
0000
,
0000
0000
0000
0000
,
0000
0000
0000
0000
,
0000
0000
0000
0000
,
0000
0000
0000
0000
,
0000
0000
0000
0000
,
0000
0000
0000
0000
,
0000
0000
0000
0000
,
1000
0000
0000
0000
,
0100
0000
0000
0000
,
1000
0000
0000
0000
,
0010
0000
0000
0000
,
0100
0000
0000
0000
,
0010
0000
0000
0000
,
0001
0000
0000
0000
,
0000
0000
0000
0000
,
0001
0000
0000
0000
,
0100
0000
0000
0000
,
0001
0000
0000
0000
,
0010
0000
0000
0000
,
0100
0000
0000
0000
,
0010
0000
0000
0000
,
1000
0000
1000
0000
,
1000
0000
0000
0000
,
2000
0000
0000
0000
,
3000
0000
0000
0000
,
0200
0000
0000
0000
,
0300
0000
0000
0000
,
0020
0000
0000
0000
,
0030
0000
0000
0000
,
0002
0000
0000
0000
,
0003
0000
0000
0000
,
0001
0000
0000
0000
,
0100
0000
0000
0000
,
0010
0000
0010
0000
,
0010
0000
0000
0000
,
1000
0000
0000
0000
,
0100
0000
0000
0000
,
0010
0000
0000
0000
,
0001
0000
0000
0000
,
0002
0000
0000
0000
,
0003
0000
0000
0000
,
0010
0000
0000
0000
,
0001
0000
0000
0000
,
0100
0000
0100
0000
,
0100
0000
0000
0000
,
0010
0000
0000
0000
,
1000
0000
0000
0000
,
0100
0000
0100
0000
,
0100
0000
0000
0000
,
1000
0000
0000
0000
,
0100
0000
0000
0000
,
0001
0000
0000
0000
,
0100
0000
0000
0000
,
1000
0000
0000
0000
,
0010
0000
0000
0000
,
0002
0000
0000
0000
,
0003
0000
0000
0000
,
1001
0000
0000
0000
,
0000
0000
0000
0000
,
0010
0000
0010
0000
,
0010
0000
0000
0000
,
1001
0000
0000
0000
,
0000
0000
0000
0000
,
0100
0000
0100
0000
,
0100
0000
0000
0000
,
1000
0000
0000
0000
,
0010
0000
0000
0000
,
0002
0000
0000
0000
,
0003
0000
0000
0000
,
1000
0000
0000
0000
,
0100
0000
0000
0000
,
0002
0000
0000
0000
,
0000
0000
0000
0000
,
0003
0000
0000
0000
,
0000
0000
0000
0000
,
0001
0000
0000
0000
,
0100
0000
0000
0000
,
0010
0000
0000
0000
,
0010
0000
0000
0000
,
1000
0000
0000
0000
,
0010
0000
0000
0000
,
0100
0000
0000
0000
,
0100
0000
0000
0000
,
0001
0000
0000
0000
,
0100
0000
0000
0000
,
0010
0000
0000
0000
,
1000
0000
0000
0000
,
0100
0000
0000
0000
,
0001
0000
0000
0000
,
0010
0000
0000
0000
,
0000
0000
1001
0000
,
0000
0000
0000
0000
;
#NOTES:
     dance-single:
     :
     Easy:
     5:
     :
0000
0000
0000
0000
,
0000
0000
0000
0000
,
0000
0000
0000
0000
,
0000
0000
0000
0000
,
0000
0000
0000
0000
,
0000
0000
0000
0000
,
0000
0000
0000
0000
,
0000
0000
0000
0000
,
0000
0000
0000
0000
,
0001
0000
0100
0000
,
0001
0000
0010
0000
,
0100
0000
1000
0000
,
0010
0000
0100
0000
,
0001
0000
0010
0000
,
0100
0000
1000
0000
,
0100
0000
0100
0000
,
0100
0000
0000
0000
,
1000
0000
0010
0000
,
0100
0000
0001
0000
,
0010
0000
0100
0000
,
0010
0000
0001
0000
,
1000
0000
0010
0000
,
0001
0000
0010
0000
,
1000
0000
1000
0000
,
1000
0000
0000
0000
,
0001
0000
0100
0000
,
0001
0000
0100
0000
,
1000
0100
1000
0000
,
1000
0000
0000
0000
,
1000
0000
0010
0000
,
1000
0000
0010
0000
,
0001
0010
0001
0000
,
0001
0000
0000
0000
,
0010
0000
0001
0000
,
1000
0000
0010
0000
,
1000
0000
0001
0000
,
0010
0000
0000
0000
,
0001
0000
0100
0000
,
0001
0000
1000
0000
,
0200
0000
0300
0000
,
0020
0000
0030
0000
,
2002
0000
0000
0000
,
3003
0000
1001
0000
,
0001
0000
1000
0000
,
0010
0000
0100
0000
,
0001
0000
0100
0000
,
0110
0000
0000
0000
,
0010
0000
1000
0000
,
0100
0000
0010
0000
,
0001
1000
0001
0000
,
1001
0000
0000
0000
,
0001
0000
0010
0000
,
1000
0000
0010
0000
,
0001
0000
0100
0000
,
1000
0000
0100
0000
,
0010
0000
0010
0000
,
0010
0010
0010
0000
,
1001
0000
2002
0000
,
0000
0000
3003
0000
,
1000
0000
0001
0000
,
0100
0000
0010
0000
,
1000
0000
0001
0000
,
0100
0000
0010
0000
,
1000
0000
0001
0000
,
0010
0000
0100
0000
,
1000
0000
0100
0000
,
0010
0000
0001
0000
,
1001
0000
0000
0000
,
0110
0000
0000
0000
,
1000
0000
0010
0000
,
0001
0000
0010
0000
,
1000
0000
0100
0000
,
0001
0000
0100
0000
,
2000
0000
0000
0000
,
0000
0000
0000
0000
,
3000
0000
0000
0000
,
0000
0000
0000
0000
,
0001
0010
0001
0000
,
1000
0010
1000
0000
,
0001
0000
1000
0000
,
0001
0000
0000
0000
,
1000
0100
1000
0000
,
0001
0100
0001
0000
,
1000
0000
0001
0000
,
1000
0000
0000
0000
,
1000
0000
1000
0000
,
0100
0000
0100
0000
,
0010
0000
0001
0000
,
1001
0000
0000
0000
,
0100
0000
0100
0000
,
0100
0100
0100
0000
,
0110
0000
0000
0000
,
1000
0000
2002
0000
,
0000
0000
0000
0000
,
0000
0000
0000
0000
,
0000
0000
0000
0000
,
0000
0000
0000
0000
,
0000
0000
0000
0000
,
3003
0000
0000
0000
,
0000
0000
0000
0000
;
#NOTES:
     dance-single:
     :
     Medium:
     9:
     :
0000
0000
0000
0000
,
0000
0000
0000
0000
,
0000
0000
0000
0000
,
0000
0000
0000
0000
,
0000
0000
0000
0000
,
0000
0000
0000
0000
,
0000
0000
0000
0000
,
0000
0000
0000
0000
,
0000
0010
0010
0010
,
1000
0000
0000
0001
0000
0000
0100
0000
0001
0000
0000
0010
,
0000
0001
0100
1000
,
0000
0001
0100
1000
,
0000
1000
0100
0001
,
0000
1000
0100
0001
,
0000
0001
1000
0001
,
0200
2300
3200
0302
,
2000
0000
3003
1000
,
0100
0000
0000
1000
0000
0000
0010
0000
1000
0000
0000
0100
,
0000
1000
0001
1000
,
0001
0010
0100
1000
,
0000
1000
0001
0100
,
0010
0001
0010
1000
,
0001
0100
1000
0100
,
0110
0000
0110
0000
,
1001
0000
0000
0000
0000
0000
0000
0000
0000
1000
0000
0001
,
1000
0000
0000
0010
0000
0100
0000
0000
0010
0000
0000
0100
,
0000
0001
0010
0100
,
0001
0000
0000
0100
0000
1000
0000
0000
0100
0000
0000
1000
,
0000
0000
0010
1000
,
0001
0000
0000
0010
0000
0001
0000
0000
0010
0000
0000
0001
,
0000
0001
0100
0010
,
1000
0000
0000
0100
0000
1000
0000
0000
0010
0000
0000
0010
,
0000
0000
0010
1000
,
0001
0000
0000
0100
0000
0010
0000
0000
0100
0000
0000
0010
,
0000
1000
0100
0010
,
1000
0000
0000
0010
0000
0001
0000
0000
0010
0000
0000
0001
,
0000
0000
0000
1000
,
0010
0001
0000
1000
,
0010
0001
0000
1000
,
0200
0000
0320
0000
,
0032
0000
2000
0000
,
0000
0000
0000
0000
,
3003
0100
0100
0100
,
0110
0010
1000
0000
,
0110
0010
0001
0002
,
0000
1000
1000
0000
,
0203
0000
0300
0100
,
0010
1000
1000
0000
,
0010
0001
0001
0200
,
0000
0000
0000
0310
0000
0000
0010
0000
0100
0000
0000
0100
,
0000
0000
0010
1000
,
0110
0010
0001
0000
,
0110
0010
1000
2000
,
0000
0001
0001
0000
,
3200
0000
0300
0100
,
1000
0000
0000
0001
0000
0000
1000
0000
0001
0000
0000
1000
,
0000
0000
0001
1000
0000
0000
0001
0000
1000
0000
0000
1001
,
0000
0000
0220
0000
,
0330
0010
0010
1000
,
1000
0001
0001
0100
,
0000
0100
0001
0010
,
0100
1000
0200
0000
,
0300
0100
0100
1000
,
1000
0010
0010
0100
,
0000
0100
0100
0001
,
1000
0100
0020
0000
,
0030
0000
0100
1000
,
0100
1100
0000
0001
,
0100
0101
0000
0010
,
2000
0000
3020
0000
,
0130
0001
0100
0001
,
0020
0000
0032
0000
,
2003
0000
3200
0000
,
0020
0000
0000
0000
,
0000
0000
0000
0000
,
0330
0000
0000
0000
,
0000
0000
0000
0000
,
0010
0001
0101
0000
,
0100
1000
1010
0020
,
0000
0001
0001
0000
,
2000
0000
3030
1000
,
0100
1000
1000
0000
,
0100
0001
0001
0200
,
0000
0000
0000
0310
0000
0000
1000
0000
0010
0000
0000
1001
,
0000
0000
0100
0001
,
0010
1000
1100
0000
,
0100
0001
0011
0020
,
0000
1000
1000
0000
,
0002
0000
0033
0001
,
1000
0000
0000
0001
0000
0000
1000
0000
0001
0000
0000
1000
,
0000
0000
0001
1000
0000
0000
0001
0000
1000
0000
0000
1001
,
0000
0000
0000
0000
0000
0000
0000
0000
0010
0100
0000
0010
,
0000
0000
0220
0000
,
0000
0000
0000
0000
,
0000
0000
0000
0000
,
0000
0000
0000
0000
,
0000
0000
0000
0000
,
0000
0000
0000
0000
,
0330
0000
0000
0000
,
0000
0000
0000
0000
;
#NOTES:
     dance-single:
     :
     Hard:
     12:
     :
0000
0000
0000
0000
,
0000
0000
0000
0000
,
0000
0000
0000
0000
,
0000
0000
0000
0000
,
0000
0000
0000
0000
,
0000
0000
0000
0000
,
0000
0000
0000
0000
,
0000
0000
0000
0000
,
0000
0001
1000
0001
,
1000
0000
0000
0100
0000
0000
0010
0000
0001
0000
0000
0010
,
0000
0000
0001
0100
0000
0000
0010
0000
0000
1000
0000
0000
,
0000
0010
1000
0100
,
0000
1000
0100
0001
,
0000
0100
0001
0010
,
0000
0001
0010
1000
,
0001
0100
1000
0001
,
0100
0000
0010
0000
0000
1000
0010
0000
0100
0001
0000
0100
,
0001
0000
0000
1000
0000
0000
0010
0000
0100
0000
0000
0010
,
0000
0000
1000
0001
0000
0000
1000
0000
0000
0100
0000
0000
,
0010
0011
0001
0101
,
0000
1000
0100
1000
,
0010
0000
1000
0010
0000
0000
0100
0000
0001
0100
0000
0000
,
0001
0000
0010
0001
0000
0000
1000
0000
0100
1000
0000
0000
,
1001
0000
0110
0000
,
1001
0000
0010
0100
0000
0010
0100
0000
0001
1000
0000
0001
,
1000
0000
0000
0001
0000
0100
0000
0000
1000
0000
0000
0100
,
0000
0000
0001
1000
0000
0000
0100
0000
0000
0001
0000
0000
,
0200
0000
0000
0310
0000
0001
0000
0000
0001
0000
0000
1001
,
0000
0000
0001
0100
0000
0000
0010
0000
0000
0010
0000
0000
,
1000
0000
0000
0100
0000
0010
0000
0000
0100
0000
0000
1000
,
0000
0000
0010
0100
0000
0000
0001
0000
0000
0010
0000
0000
,
0100
0000
0000
0010
0000
0001
0000
0000
0100
0000
0000
0010
,
1000
0000
0010
1000
0000
0010
0100
0000
0001
0100
0000
0001
,
1000
0000
0000
0001
0000
0010
0000
0000
1000
0000
0000
0010
,
0000
0000
0001
1000
0000
0000
0010
0000
0000
0001
0000
0000
,
0020
0000
0000
0130
0000
0001
0000
0000
0001
0000
0000
1001
,
0000
0000
0001
0010
0000
0000
0100
0000
0000
0001
0000
0000
,
0100
1100
0000
0001
,
0100
1100
0000
1000
,
0010
0000
0000
0100
0000
0000
0101
0000
0000
0001
0000
0010
,
0100
0000
1000
0001
0000
0010
0200
0000
0000
0000
0000
0000
,
0000
0000
0000
0000
,
0000
0010
1000
1300
,
1000
0000
0001
0010
0000
0000
0011
0000
0000
0000
0000
0000
,
0001
0000
1000
0010
0000
0000
1010
0000
0000
2000
0000
0000
,
0000
0001
0100
0000
,
3010
0000
0010
1000
,
0001
0000
1000
0100
0000
0000
1100
0000
0000
0000
0000
0000
,
1000
0000
0001
0100
0000
0000
0101
0000
0000
0002
0000
0000
,
0000
0000
0000
1003
0000
0000
0010
0000
0100
0000
0000
0100
,
0010
0000
0000
1000
0000
0001
0000
0000
1000
0001
0000
0000
,
1000
0000
0000
0001
0000
0010
0001
0000
1000
0001
0000
0000
,
0100
0000
0000
0010
0000
1000
0100
0000
0010
0100
0000
0000
,
1000
0000
0000
0100
0000
0010
0001
0000
1000
0010
0000
0000
,
1000
0000
0000
0001
0000
0100
0010
0000
1000
0001
0000
0000
,
1000
0000
0000
0100
0000
0000
0001
0000
0100
0000
0000
1100
,
0000
0000
0001
0010
0000
0000
1000
0000
0010
0000
0000
0010
,
0001
0001
1002
0000
,
0000
0100
0100
0103
,
0010
0000
1000
0010
0000
0000
1000
0000
0010
1000
0000
0000
,
0010
0000
1000
0010
0000
0000
1000
0000
0000
0100
0000
0000
,
0010
0000
0001
0010
0000
0000
0001
0000
0010
0001
0000
0000
,
0010
0000
0001
0010
0000
0000
0001
0000
0000
1000
0000
0000
,
0100
0000
0010
0100
0000
0000
0010
0000
0100
0010
0000
0000
,
0100
0000
0010
0100
0000
0000
0010
0000
0000
0001
0000
0000
,
1000
0000
0100
1000
0000
0000
0100
0000
1000
0100
0000
0000
,
1000
0000
0100
1000
0000
0000
0100
0000
0000
0010
0000
0000
,
0001
1100
0000
0010
,
1000
0101
0000
0010
,
0002
0000
0203
0000
,
1300
0100
0001
0100
,
0020
0000
1000
0000
,
0100
0000
0002
0000
,
0000
0000
0000
0000
,
0000
0000
0000
0000
,
0033
0000
0100
0000
,
0100
0000
0100
0000
,
1000
0000
0001
0010
0000
0000
0110
0000
0000
0000
0000
0000
,
0001
0000
1000
0010
0000
0000
0110
0000
0000
0002
0000
0000
,
0000
1000
0013
0000
,
0010
0000
0010
1000
,
0010
0000
0001
0100
0000
0000
0110
0000
0000
0000
0000
0000
,
1000
0000
0100
0010
0000
0000
0110
0000
0000
0020
0000
0000
,
0000
0000
0000
1030
0000
0000
0100
0000
0010
0000
0000
0001
,
0100
0000
0000
0010
0000
0100
0000
0000
0010
0100
0000
0000
,
0001
0000
0010
0100
0000
0000
1000
0000
0100
0010
0000
0000
,
0001
0000
0100
0010
0000
0000
1000
0000
0010
0100
0000
0000
,
0001
0000
1000
0100
0000
0000
1000
0000
0001
0100
0000
0000
,
0010
0000
1000
0010
0000
0100
0001
0000
0000
0010
0000
0000
,
0001
0000
0000
0010
0000
0000
1000
0000
0010
0000
0000
0011
,
0000
0000
1000
0100
0000
0000
0001
0000
0100
0000
0000
0100
,
1000
0000
0000
0001
0000
0100
0000
0000
0001
1000
0000
0001
,
0000
0000
2002
0000
,
0000
0000
0000
0000
,
0000
0000
0000
0000
,
0000
0000
0000
0000
,
0000
0000
0000
0000
,
0000
0000
0000
0000
,
3003
0000
0000
0000
,
0000
0000
0000
0000
;
#NOTES:
     dance-double:
     :
     Easy:
     5:
     :
00000000
00000000
00000000
00000000
,
00000000
00000000
00000000
00000000
,
00000000
00000000
00000000
00000000
,
00000000
00000000
00000000
00000000
,
00000000
00000000
00000000
00000000
,
00000000
00000000
00000000
00000000
,
00000000
00000000
00000000
00000000
,
00000000
00000000
00000000
00000000
,
00000000
00000000
00000000
00000000
,
10000000
00000000
01000000
00000000
,
00100000
00000000
01000000
00000000
,
00010000
00000000
00001000
00000000
,
00010000
00000000
00000100
00000000
,
00001000
00000000
00000010
00000000
,
00001000
00000000
00000100
00000000
,
00000010
00000000
00000010
00000000
,
00000010
00000000
00000000
00000000
,
00000001
00000000
00000100
00000000
,
00000010
00000000
00001000
00000000
,
00000100
00000000
00010000
00000000
,
00001000
00000000
00010000
00000000
,
00001000
00000000
00001000
00000000
,
01000000
00000000
01000000
00000000
,
00100000
00000000
00100000
00000000
,
00100000
00000000
00000000
00000000
,
10000000
00000000
01000000
00000000
,
00100000
00000000
00001000
00000000
,
00010000
00001000
00010000
00000000
,
00010000
00000000
00000000
00000000
,
00001000
00000000
00010000
00000000
,
00000100
00000000
00010000
00000000
,
00000100
00001000
00000100
00000000
,
00000100
00000000
00000000
00000000
,
00000001
00000000
00000100
00000000
,
00000010
00000000
00001000
00000000
,
00000100
00000000
00010000
00000000
,
00001000
00000000
00000000
00000000
,
00100000
00000000
00010000
00000000
,
01000000
00000000
00010000
00000000
,
20000000
00000000
30000000
00000000
,
00200000
00000000
00300000
00000000
,
00022000
00000000
00000000
00000000
,
00033000
00000000
00000000
00000000
,
00011000
00000000
00001000
00000000
,
00000010
00000000
00000100
00000000
,
00001000
00000000
00000100
00000000
,
00010000
00000000
00000000
00000000
,
00011000
00000000
00010000
00000000
,
00100000
00000000
01000000
00000000
,
00010000
00100000
00010000
00000000
,
01000000
00000000
00000000
00000000
,
00001000
00000000
00000100
00000000
,
00001000
00000000
00000100
00000000
,
00000001
00000000
00001000
00000000
,
00000100
00000000
00010000
00000000
,
00001000
00000000
00010000
00000000
,
00001000
00001000
00001000
00000000
,
00011000
00000000
00022000
00000000
,
00000000
00000000
00033000
00000000
,
01000000
00000000
00010000
00000000
,
10000000
00000000
00100000
00000000
,
01000000
00000000
00001000
00000000
,
00010000
00000000
00000100
00000000
,
00001000
00000000
00000100
00000000
,
00000010
00000000
00000001
00000000
,
00001000
00000000
00000100
00000000
,
00000010
00000000
00000100
00000000
,
00001100
00000000
00000000
00000000
,
00011000
00000000
00000000
00000000
,
00010000
00000000
01000000
00000000
,
10000000
00000000
01000000
00000000
,
00010000
00000000
00001000
00000000
,
00000100
00000000
00000001
00000000
,
00000200
00000000
00000000
00000000
,
00000000
00000000
00000000
00000000
,
00000300
00000000
00000000
00000000
,
00000000
00000000
00000000
00000000
,
00010000
00001000
00100000
00000000
,
00010000
01000000
00100000
00000000
,
10000000
00000000
00100000
00000000
,
00010000
00000000
00000000
00000000
,
00001000
00010000
00000010
00000000
,
00001000
00000100
00000010
00000000
,
00000001
00000000
00000100
00000000
,
00001000
00000000
00000000
00000000
,
00010000
00000000
01000000
00000000
,
00100000
00000000
01000000
00000000
,
00010000
00000000
00000100
00000000
,
00000010
00000000
00000100
00000000
,
00000001
00000000
00000010
00000000
,
00001000
00000000
00010000
00000000
,
00011000
00000000
00000000
00000000
,
00000000
00000000
00022000
00000000
,
00000000
00000000
00000000
00000000
,
00000000
00000000
00000000
00000000
,
00000000
00000000
00000000
00000000
,
00000000
00000000
00000000
00000000
,
00000000
00000000
00000000
00000000
,
00033000
00000000
00000000
00000000
,
00000000
00000000
00000000
00000000
;
#NOTES:
     dance-double:
     :
     Medium:
     9:
     :
00000000
00000000
00000000
00000000
,
00000000
00000000
00000000
00000000
,
00000000
00000000
00000000
00000000
,
00000000
00000000
00000000
00000000
,
00000000
00000000
00000000
00000000
,
00000000
00000000
00000000
00000000
,
00000000
00000000
00000000
00000000
,
00000000
00000000
00000000
00000000
,
00000000
00000001
00000001
00000001
,
00000010
00000000
00000000
00000100
00000000
00000000
00010000
00000000
00001000
00000000
00000000
00010000
,
00000000
00001000
01000000
10000000
,
00000000
00010000
01000000
10000000
,
00000000
10000000
01000000
00010000
,
00000000
10000000
01000000
00010000
,
00000000
00001000
00010000
00001000
,
00000020
00000032
00002003
00003200
,
00000020
00000000
00000330
00000010
,
00000001
00000000
00000000
00001000
00000000
00000000
00000010
00000000
00001000
00000000
00000000
00000100
,
00000000
00010000
00001000
00010000
,
00100000
00100000
10000000
10000000
,
00000000
10000000
01000000
10000000
,
00100000
00010000
00100000
00100000
,
00010000
00001000
00000100
00000100
,
00000110
00000000
00000110
00000000
,
00001001
00000000
00000000
00000000
,
00000001
00000000
00000000
00000010
00000000
00001000
00000000
00000000
00010000
00000000
00000000
01000000
,
00000000
00100000
00010000
00000000
,
10000000
00000000
00000000
00100000
00000000
00010000
00000000
00000000
00001000
00000000
00000000
00000100
,
00000000
00000000
00000001
00001000
,
00000100
00000000
00000000
00000010
00000000
00000100
00000000
00000000
00000010
00000000
00000000
00000100
,
00000000
00010000
00001000
01000000
,
00010000
00000000
00000000
00100000
00000000
00010000
00000000
00000000
01000000
00000000
00000000
01000000
,
00000000
00000000
10000000
00100000
,
10000000
00000000
00000000
01000000
00000000
00010000
00000000
00000000
00001000
00000000
00000000
00000010
,
00000000
00000001
00001000
00000000
,
00000001
00000000
00000000
00000100
00000000
00001000
00000000
00000000
00010000
00000000
00000000
00100000
,
00000000
00000000
00000000
00010000
,
00100000
10000000
00000000
00010000
,
00100000
10000000
00000000
00100000
,
00020000
00000000
00230000
00000000
,
00302000
00000000
00020000
00000000
,
00000000
00000000
00000000
00000000
,
00033000
00010000
00010000
00010000
,
00000100
00001000
00000110
00000000
,
00000010
00000001
00000110
00000200
,
00000000
00010000
00010300
00000000
,
00022000
00000000
00033000
00001000
,
01000000
00010000
01100000
00000000
,
00100000
10000000
01100000
02000000
,
00000000
00000000
00000000
03010000
00000000
00000000
00100000
00000000
00001000
00000000
00000000
00010000
,
00000000
00000000
00001000
00001000
,
00000100
00000001
00000100
00000001
,
00000010
00000100
00000010
00000100
,
00010000
00001000
00010000
00001000
,
01000000
00010000
01000000
00010000
,
10000000
00000000
00000000
01000000
00000000
00000000
00100000
00000000
01000000
00000000
00000000
00100000
,
00000000
00000000
01000000
00100000
00000000
00000000
01000000
00000000
00100000
00000000
00000000
01100000
,
00000000
00000000
02200000
00000000
,
03000000
00001000
00301000
00000000
,
00001000
00010000
00000010
00001000
,
00000001
00000010
00000100
00001000
,
00000010
00000100
00001000
00010000
,
00100000
01000000
00010000
10000000
,
01000000
00100000
10000000
00100000
,
00010000
00100000
00001000
00010000
,
00000100
00001000
00000010
00000001
,
00000010
00000100
00000001
00000010
,
00000100
00001100
00000000
00010000
,
00001000
00011000
00000000
00100000
,
00020000
00000000
02030000
00000000
,
13000000
01000000
10000000
01000000
,
00020000
00000000
00230000
00000000
,
00302000
00000000
00020000
00000000
,
00000000
00000000
00000000
00000000
,
00000000
00000000
00000000
00000000
,
00033000
00000000
00000000
00000000
,
00000000
00000000
00000000
00000000
,
01000000
00010000
01100000
00000000
,
00100000
10000000
01100000
02000000
,
00000000
00001000
03001000
00000000
,
00022000
00000000
00033000
00010000
,
00000100
00001000
00000110
00000000
,
00000010
00000001
00000110
00000200
,
00000000
00000000
00000000
00001300
00000000
00000000
00000010
00000000
00010000
00000000
00000000
00001000
,
00000000
00000000
00010000
00010000
,
01000000
10000000
01000000
10000000
,
00100000
01000000
00100000
01000000
,
00001000
00010000
00001000
00010000
,
00000100
00001000
00000100
00001000
,
00000001
00000000
00000000
00000100
00000000
00000000
00000010
00000000
00000100
00000000
00000000
00000010
,
00000000
00000000
00000100
00000010
00000000
00000000
00000100
00000000
00000010
00000000
00000000
00000110
,
00000000
00000000
00000000
00000000
00000000
00000000
00000000
00000000
00001000
00010000
00000000
00001000
,
00000000
00000000
00022000
00000000
,
00000000
00000000
00000000
00000000
,
00000000
00000000
00000000
00000000
,
00000000
00000000
00000000
00000000
,
00000000
00000000
00000000
00000000
,
00000000
00000000
00000000
00000000
,
00033000
00000000
00000000
00000000
,
00000000
00000000
00000000
00000000
;
#NOTES:
     dance-double:
     :
     Hard:
     12:
     :
00000000
00000000
00000000
00000000
,
00000000
00000000
00000000
00000000
,
00000000
00000000
00000000
00000000
,
00000000
00000000
00000000
00000000
,
00000000
00000000
00000000
00000000
,
00000000
00000000
00000000
00000000
,
00000000
00000000
00000000
00000000
,
00000000
00000000
00000000
00000000
,
00000000
00001000
00010000
00001000
,
00010000
00000000
00000000
00100000
00000000
00000000
10000000
00000000
00010000
00000000
00000000
10000000
,
00000000
00000000
01000000
00100000
00000000
00000000
00010000
00000000
00000000
00100000
00000000
00000000
,
00000000
01000000
00010000
00001000
,
00000000
00010000
00001000
00000010
,
00000000
00001000
00000010
00000001
,
00000000
00000010
00000001
00000100
,
00001000
00000100
00000010
00010000
,
00001000
00000000
00010000
00000000
00000000
00010000
00001000
00000000
00010000
00001000
00000000
00000000
,
01000000
00000000
00000000
00010000
00000000
00000000
00100000
00000000
01000000
00000000
00000000
00010000
,
00000000
00000000
01000000
10000000
00000000
00000000
00100000
00000000
00000000
00010000
00000000
00000000
,
00001000
00001000
00000100
00000100
,
00000000
00000100
00000001
00000100
,
00001000
00010000
00001000
00000010
,
00001000
00010000
01000000
10000000
,
10010000
00000000
01100000
00000000
,
10010000
00000000
01000000
00100000
00000000
01000000
00100000
00000000
00001000
00100000
00000000
00001000
,
00100000
00000000
00000000
00001000
00000000
00010000
00000000
00000000
00001000
00000000
00000000
00000010
,
00000000
00000001
00001000
00000100
,
00000001
00000000
00000000
00000100
00000000
00000010
00000000
00000000
00000010
00000000
00000000
00000110
,
00000000
00000000
00000001
00001000
00000000
00000000
00000100
00000000
00000000
00000100
00000000
00000000
,
00010000
00000000
00000000
00001000
00000000
00010000
00000000
00000000
00100000
00000000
00000000
10000000
,
00000000
10000000
00100000
00100000
,
01000000
00000000
00000000
00010000
00000000
00100000
00000000
00000000
00001000
00000000
00000000
00010000
,
00001000
00000000
00010000
00001000
00000000
00010000
00000010
00000000
00001000
00000010
00000000
00001000
,
00000001
00000000
00000000
00000100
00000000
00000010
00000000
00000000
00001000
00000000
00000000
00000100
,
00000000
00010000
00001000
00010000
,
00000010
00000000
00000000
00000100
00000000
00001000
00000000
00000000
00010000
00000000
00000000
00011000
,
00000000
00000000
00001000
01000000
00000000
00000000
00100000
00000000
00000000
00100000
00000000
00000000
,
10000000
11000000
00000000
00100000
,
00010000
01010000
00000000
00100000
,
00002000
00000000
00000000
00000000
00000000
00000000
00013000
00000000
00000000
00000100
00000000
00001000
,
00000100
00000000
00000010
00000001
00000000
00001000
00000200
00000000
00000000
00000000
00000000
00000000
,
00000000
00000000
00000000
00000000
,
00000000
00001000
00001000
00010300
,
00010000
00000000
00001000
00010000
00000000
00000000
01001000
00000000
00000000
00000000
00000000
00000000
,
00001000
00000000
00010000
00001000
00000000
00000000
00010100
00000000
00000000
00000200
00000000
00000000
,
00000000
00000001
00000010
00000000
,
00001300
00000000
00000000
00010000
,
00001000
00000000
00010000
00001000
00000000
00000000
00010010
00000000
00000000
00000000
00000000
00000000
,
00010000
00000000
00001000
00010000
00000000
00000000
00101000
00000000
00000000
00200000
00000000
00000000
,
00000000
00000000
00000000
10300000
00000000
00000000
00100000
00000000
00001000
00000000
00000000
00001000
,
00010000
00000000
00000000
00000100
00000000
00000010
00000000
00000000
00000100
00000010
00000000
00000000
,
00000001
00000000
00000000
00000100
00000000
00000010
00000100
00000000
00000000
00000010
00000000
00000000
,
00010000
00000000
00000000
00001000
00000000
00100000
00001000
00000000
00000000
01000000
00000000
00000000
,
00010000
00000000
00000000
00100000
00000000
01000000
00100000
00000000
00000000
00010000
00000000
00000000
,
10000000
00000000
00000000
01000000
00000000
00100000
00001000
00000000
00010000
00001000
00000000
00000000
,
00010000
00000000
00000000
00000100
00000000
00000000
00000001
00000000
00000100
00000000
00000000
00001100
,
00000000
00000000
00000010
00000100
00000000
00000000
00001000
00000000
00010000
00000000
00000000
00010000
,
00001000
00000000
00022000
00000000
,
00033000
00001000
00010000
00001000
,
00100000
00000000
00010000
00100000
00000000
00000000
00010000
00000000
00100000
00010000
00000000
00000000
,
10000000
01000000
00100000
00010000
,
00100000
00000000
00001000
00010000
00000000
00000000
00001000
00000000
00010000
00001000
00000000
00000000
,
00010000
00000100
00001000
00001000
,
00000001
00000000
00000010
00000001
00000000
00000000
00000010
00000000
00000001
00000010
00000000
00000000
,
00000001
00000010
00000100
00001000
,
00000010
00000000
00010000
00001000
00000000
00000000
00010000
00000000
00001000
00010000
00000000
00000000
,
00001000
00100000
00010000
01000000
,
00100000
10100000
00000000
01000000
,
00100000
00101000
00000000
00010000
,
00002000
00000000
00003200
00000000
,
00000301
00000010
00001000
00010000
,
02000000
00000000
23000000
00000000
,
32000000
00000000
03020000
00000000
,
00002000
00000000
00000000
00000000
,
00000000
00000000
00000000
00000000
,
00033000
00000000
00001000
00000000
,
00010000
00000000
00010000
00000000
,
00001000
00000100
00000110
00000000
,
00000001
00000100
00000110
00000002
,
00000000
00000013
00001000
00000000
,
00022000
00000000
00033000
00001000
,
00010000
01000000
01100000
00000000
,
10000000
01000000
01100000
20000000
,
00000000
00000000
00000000
31000000
00000000
00000000
00100000
00000000
00001000
00000000
00000000
00001000
,
00010000
00000000
00000000
00000100
00000000
00001000
00000000
00000000
00000010
00001000
00000000
00000000
,
00000100
00000000
00000010
00000001
00000000
00000000
00001000
00000000
00000000
00000010
00000000
00000000
,
00010000
00000000
00001000
00100000
00000000
00000000
00010000
00000000
00000000
01000000
00000000
00000000
,
00100000
00000000
10000000
00100000
00000000
00000000
01000000
00000000
00010000
00100000
00000000
00000000
,
00001000
00000000
00010000
00000100
00000000
00001000
00000010
00000000
00000100
00000001
00000000
00000000
,
00000010
00000000
00000000
00001000
00000000
00000000
00010000
00000000
00001000
00000000
00000000
00001100
,
00000000
00000000
00001000
00010000
00000000
00000000
00100000
00000000
01000000
00000000
00000000
00010000
,
10000000
00000000
00000000
01000000
00000000
00100000
00000000
00000000
00001000
00010000
00000000
00001000
,
00000000
00000000
00022000
00000000
,
00000000
00000000
00000000
00000000
,
00000000
00000000
00000000
00000000
,
00000000
00000000
00000000
00000000
,
00000000
00000000
00000000
00000000
,
00000000
00000000
00000000
00000000
,
00033000
00000000
00000000
00000000
,
00000000
00000000
00000000
00000000
;
