
//----- song ID: hypd -----//
#TITLE:HYPERDRIVE;
#ARTIST:Moe Shop;
#BANNER:HYPERDRIVE.png;
#BACKGROUND:HYPERDRIVE-bg.png;
#CDTITLE:./CDTitles/DDR A20 PLUS.png;
#MUSIC:HYPERDRIVE.ogg;
#SAMPLESTART:65.481;
#SAMPLELENGTH:15;
#BPMS:0=150;
#NOTES:
     dance-single:
     :
     Beginner:
     3:
     :
0000
0000
0000
0000
,
0000
0000
0000
0000
,
0000
0000
0000
0000
,
0000
0000
0000
0000
,
0000
0000
0000
0000
,
0010
0000
0000
0000
,
0100
0000
0000
0000
,
0001
0000
0000
0000
,
1000
0000
0000
0000
,
1000
0000
1000
0000
,
0001
0000
0000
0000
,
0001
0000
0001
0000
,
1000
0000
0000
0000
,
0010
0000
0010
0000
,
0100
0000
0000
0000
,
0001
0000
0001
0000
,
0020
0000
0030
0000
,
0001
0000
0001
0000
,
0100
0100
0100
0000
,
0010
0000
0010
0000
,
1000
1000
1000
0000
,
0100
0000
0100
0000
,
0010
0010
0010
0000
,
0001
0000
0001
0000
,
0100
0100
0100
0000
,
0010
0010
0100
0000
,
0001
0000
1000
0000
,
0001
0001
1000
0000
,
0001
0000
1000
0000
,
0100
0100
0010
0000
,
0100
0000
0010
0000
,
0100
0100
1000
0000
,
0002
0000
0003
0000
,
1000
0000
0001
0000
,
1000
0000
0001
0000
,
0100
0000
0010
0000
,
0100
0000
0010
0000
,
1000
0000
0100
0000
,
1000
0000
0100
0000
,
0010
0000
0001
0000
,
0020
0000
0030
0000
,
0001
0001
0001
0000
,
0200
0000
0300
0000
,
0010
0010
0010
0000
,
2000
0000
3000
0000
,
1000
1000
1000
0000
,
0002
0000
0003
0000
,
0010
0010
0010
0000
,
0200
0000
0300
0000
,
1000
1000
1000
0000
,
0010
0000
0100
0000
,
0001
0001
0001
0000
,
0010
0000
0100
0000
,
0010
0010
0010
0000
,
0100
0000
0010
0000
,
0100
0100
0100
0000
,
1001
0000
0000
0000
,
1000
0001
0001
0000
,
0010
0000
0100
0000
,
0010
0100
0100
0000
,
1000
0000
0001
0000
,
0001
1000
1000
0000
,
0100
0000
0010
0000
,
0100
0010
0010
0000
,
0001
0000
1000
0000
,
1001
0000
0000
0000
,
0000
0000
0000
0000
;
#NOTES:
     dance-single:
     :
     Easy:
     6:
     :
0000
0000
0000
0000
,
0000
0000
0000
0000
,
0000
0000
0000
0000
,
0000
0000
0000
0000
,
0000
0000
0000
0000
,
1000
1000
0001
0000
,
0010
0100
0010
0100
,
0001
0001
1000
0000
,
0100
0010
0100
0010
,
0001
0100
0010
0000
,
1000
0010
0100
0001
,
1000
0100
0010
0000
,
0001
1000
0001
1000
,
0010
0010
0100
0000
,
0001
0010
0100
1000
,
0100
0100
0010
0000
,
0200
0000
0000
0300
,
0110
0100
1000
0001
,
1000
1000
0001
0010
,
0110
0010
0001
1000
,
0001
0001
0100
0010
,
1001
0010
0100
0001
,
0010
0010
0100
1000
,
1001
0010
0100
1000
,
0001
0001
0100
0010
,
1000
1000
0010
0100
,
0110
0110
0001
0010
,
0001
0001
0100
0010
,
0110
0110
1000
0100
,
0010
0010
1000
0001
,
1001
1001
0100
1000
,
0100
0100
1000
0001
,
2002
0000
0000
3003
,
0010
0100
1001
0000
,
0001
0001
1000
1000
,
0010
0100
0110
0000
,
0010
0010
0100
0100
,
0001
1000
1001
0000
,
0001
0100
0010
1000
,
1000
0001
1001
0000
,
0020
0000
0000
0030
,
1000
1000
0010
0010
,
0100
0000
0100
0000
0001
0100
0001
0000
,
0001
0001
0010
0010
,
0100
0000
0100
0000
1000
0100
1000
0000
,
0100
0010
0100
0010
,
1000
0000
0001
0000
1000
0001
1000
0000
,
0001
1000
0001
1000
,
0010
0000
0100
0000
0010
0100
0020
0000
,
0130
0001
0020
0130
,
1000
0010
0200
0310
,
1000
0001
2000
3010
,
0100
0001
0020
0130
,
1000
0001
0200
0301
,
0010
0100
2000
3010
,
0100
0010
2000
3001
,
0020
0000
0000
0030
,
0100
0100
0001
1001
,
0010
0010
0100
0110
,
1000
0010
0100
0110
,
0001
0100
0010
0110
,
0001
1000
0010
1001
,
0100
0001
0010
0110
,
0001
0010
0100
1001
,
0010
0010
0100
0010
,
0110
0000
0000
0000
,
0000
0000
0000
0000
;
#NOTES:
     dance-single:
     :
     Medium:
     9:
     :
0000
0000
0000
0000
,
0000
0000
0000
0000
,
0000
0000
0000
0000
,
0000
0000
0000
0000
,
0000
0000
0000
0000
,
0010
1000
1010
0000
,
0100
0001
0010
0100
,
0010
0001
0011
0000
,
0001
1000
0100
0010
,
0100
0010
0001
0000
0100
0000
0010
0000
,
1000
0100
0001
0000
0100
0000
0010
0000
,
0001
0100
0010
0000
1000
0000
0001
0000
,
1000
0010
0001
0000
0010
0000
0100
0000
,
0010
0100
0001
0000
0100
0000
0001
0000
,
0010
0100
1000
0000
0100
0000
0010
0000
,
1000
0010
0001
0000
0100
0000
0010
0000
,
0200
0000
0000
0000
,
0310
0100
0001
0101
,
1000
0010
1000
0000
0100
0000
0010
0000
,
0001
0010
0001
0011
,
0100
1000
0100
0000
0010
0000
0100
0000
,
1000
0001
0100
0101
,
0001
0100
0001
0000
0010
0000
0100
0000
,
1000
0001
0100
1100
,
1000
0100
1000
0000
0010
0000
0100
0000
,
0010
1000
0010
0000
0100
0000
0001
0000
,
0010
0000
0010
0000
0100
0010
0100
0000
,
1000
0010
1000
0000
0100
0000
0010
0000
,
0001
0000
0001
0000
1000
0001
1000
0000
,
0010
0100
0010
0000
1000
0000
0001
0000
,
0100
0000
0100
0000
0010
1000
0010
0000
,
0100
0001
0100
0000
0010
0000
1000
0000
,
0200
0000
0000
0300
,
2000
0010
0001
3100
,
1100
0000
1010
0000
1000
0001
1000
0000
,
0002
0010
1000
0103
,
0101
0000
0011
0000
0001
1000
0001
0000
,
0020
1000
0100
0031
,
0011
0000
1001
0000
0010
0100
0010
0000
,
0200
1000
0010
0301
,
1000
0000
0000
0001
0000
0000
1000
0000
0000
0001
0000
0000
2000
0000
0000
0000
,
3010
0100
0001
0000
0010
0100
1000
0000
,
0110
0000
0011
0000
1000
0001
0100
0000
,
0001
1000
0100
0000
1000
0001
0100
0000
,
1010
0000
0101
0000
0010
0100
0010
0000
,
0100
0001
0010
0000
0100
1000
0010
0000
,
0110
0000
1001
0000
0001
1000
0010
0000
,
0100
0001
0010
0000
0100
1000
0010
0000
,
0110
1001
0010
0200
,
0310
1000
0010
0000
0200
0000
0301
0000
,
0010
0100
0010
0000
0200
0000
1300
0000
,
0001
0100
0001
0000
2000
0000
3010
0000
,
0100
0010
0100
0000
0002
0000
1003
0000
,
0010
1000
0010
0000
1000
0000
0100
0000
,
0010
0001
0010
0000
0001
0000
0100
0000
,
0001
0100
1000
0000
0100
0000
0001
0000
,
1000
0100
0001
0100
1000
0000
1001
0000
,
0010
0000
0100
0000
0001
0100
0010
0100
,
0001
1000
0011
1001
,
1000
0000
0100
0000
1000
0100
0010
0100
,
1000
0110
1100
0001
,
0011
0000
1001
0000
0001
0100
1000
0100
,
0001
1000
0001
0110
,
1000
0100
0010
0000
0001
0100
0010
0000
,
0100
0010
0100
0001
1000
0000
0010
0000
,
0110
0000
0000
0000
,
0000
0000
0000
0000
;
#NOTES:
     dance-single:
     :
     Hard:
     12:
     :
0000
0000
0000
0000
,
0000
0000
0000
0000
,
0000
0000
0000
0000
,
0000
0000
0000
0000
,
0000
0000
0000
0000
,
0100
0000
0001
0000
0010
0001
0100
0000
,
0010
0000
1000
0000
0100
1000
0010
0000
,
1000
0000
0001
0000
1000
0001
0100
0000
,
0001
0000
1000
0000
0001
1000
0100
0000
,
1000
0000
0000
0000
0010
0000
0100
0010
0000
0000
1000
0000
0000
0001
0000
0000
,
0100
0000
0010
0000
0100
0001
0010
0100
,
1000
0000
0000
0000
0001
0000
1000
0001
0000
0000
0010
0000
0000
0100
0000
0000
,
1000
0000
0001
0000
1000
0010
0100
0001
,
0010
0000
0000
0000
0100
0000
0010
0001
0000
0000
0100
0000
0000
0010
0000
0000
,
1000
0000
0001
0000
0010
0100
0010
0001
,
1000
0000
0000
0000
0001
0000
1000
0001
0000
0000
0100
0000
0000
0010
0000
0000
,
0200
0320
2030
3002
,
1003
0010
1000
0000
1100
0000
1010
0000
,
0001
0010
0001
0000
0101
0000
0011
0000
,
0001
0100
1000
0000
0110
0000
0101
0000
,
1000
0100
0001
0000
0110
0000
1100
0000
,
1000
0010
0100
1000
0000
0100
0001
0000
,
0001
0010
0100
0001
0000
0100
1000
0000
,
0001
0010
1000
0010
0000
0100
0010
0000
,
1000
0010
0001
0010
0000
0100
0010
0000
,
1000
0100
0010
0001
0000
0100
0100
0000
,
0001
0100
1000
0100
0001
0000
0110
0000
,
0001
0100
0010
1000
0000
0100
0100
0000
,
1000
0100
0001
0100
1000
0000
0110
0000
,
0010
0000
0001
0000
0010
0000
0001
0010
0000
0000
0100
0000
0010
0000
0001
0000
,
0100
0000
0010
0000
1000
0000
0010
1000
0000
0000
0100
0000
1000
0000
0100
0000
,
1000
0000
0010
0000
0100
0000
0010
0100
0000
0000
0001
0000
1000
0000
0001
0000
,
2000
3020
0230
0302
,
1003
0000
0000
0000
0001
0000
1000
0010
0000
0000
0100
0000
0000
0001
0000
0000
,
0101
0000
0000
0000
1100
0000
0000
1000
0000
0000
0001
0000
0000
1000
0000
0000
,
0001
0000
0000
0000
1000
0000
0001
0100
0000
0000
0010
0000
0000
1000
0000
0000
,
1010
0000
0000
0000
0011
0000
0000
0001
0000
0000
1000
0000
0000
0001
0000
0000
,
1000
0000
0000
0000
0100
0000
0010
0100
0000
0000
1000
0000
0000
0001
0000
0000
,
0011
0000
0000
0000
1001
0000
0000
1000
0000
0000
0001
0000
0000
0010
0000
0000
,
0100
0010
0001
0001
0100
0010
2000
0000
,
3001
1000
0000
0001
1000
0000
0001
1000
0000
0001
1000
0000
0001
1000
0000
0001
,
1000
0000
0100
0000
0010
0000
0001
0000
0100
0000
0010
0000
1000
0010
1000
0000
,
0100
0010
0001
1000
0100
0100
0010
0010
,
0001
0000
0010
0000
0100
0000
1000
0000
0010
0000
0100
0000
0010
0100
0010
0000
,
0100
0001
1000
0100
0010
0100
0010
0000
,
0001
0000
0010
0000
0100
0000
1000
0000
0010
0000
0100
0000
0001
0100
0001
0000
,
0010
0100
1000
0001
0010
0010
0100
0100
,
1000
0000
0100
0000
0010
0000
0001
0000
0100
0000
0010
0000
0100
0010
0100
0000
,
0010
1000
0001
0010
0100
0010
0200
0000
,
1300
0010
1000
0010
0100
0010
0100
0000
,
0001
0010
0001
0010
0100
0010
0100
0000
,
0010
0001
0010
0100
1000
0010
1000
0000
,
0010
1000
0010
0100
0001
0010
0001
0000
,
1000
0010
0001
0010
1000
0100
0010
0000
,
0001
0010
1000
0010
0001
0100
0010
0000
,
1000
0100
0010
0001
0010
1000
0010
0000
,
0100
0000
0010
0000
0001
1000
0001
0000
0010
0000
0100
0000
0020
0000
0000
0000
,
0031
0100
0000
0000
0001
0000
0000
0100
0000
0000
0010
0000
1000
0000
0001
0000
,
0010
0100
0010
0100
1000
0010
0100
0000
,
0001
0010
0000
0000
0001
0000
0000
0010
0000
0000
0100
0000
1000
0000
0001
0000
,
0100
0010
0100
0010
1000
0001
1000
0001
,
1000
0100
0000
0000
1000
0000
0000
0100
0000
0000
0010
0000
0001
0000
1000
0000
,
0010
0100
0010
0100
0001
0010
0100
0000
,
1000
0010
0000
0000
1000
0000
0000
0010
0000
0000
0100
0000
0001
0000
1000
0000
,
0100
0010
0100
0010
0001
1000
0100
0010
,
1001
0000
0000
0000
,
0000
0000
0000
0000
;
#NOTES:
     dance-double:
     :
     Easy:
     6:
     :
00000000
00000000
00000000
00000000
,
00000000
00000000
00000000
00000000
,
00000000
00000000
00000000
00000000
,
00000000
00000000
00000000
00000000
,
00000000
00000000
00000000
00000000
,
10000000
10000000
01000000
00000000
,
00100000
00010000
00100000
00010000
,
00100000
00100000
00001000
00000000
,
00010000
00001000
00010000
00001000
,
00000100
00000010
00001000
00000000
,
00000001
00000100
00000010
00001000
,
00000100
00010000
00001000
00000000
,
00010000
00001000
00010000
00001000
,
00100000
00100000
01000000
00000000
,
10000000
00100000
01000000
00010000
,
00100000
00100000
00001000
00000000
,
00020000
00000000
00000000
00030000
,
00011000
00001000
00000100
00000001
,
00001000
00001000
00000001
00000010
,
00000110
00000100
00010000
00001000
,
00010000
00010000
00001000
00010000
,
00011000
00010000
01000000
10000000
,
00100000
00100000
01000000
00100000
,
01100000
01000000
00001000
00010000
,
00001000
00001000
00010000
00000100
,
00000010
00000010
00000001
00000100
,
00000110
00000110
00000010
00010000
,
00001000
00001000
00010000
00001000
,
00011000
00011000
00010000
01000000
,
00100000
00100000
00010000
01000000
,
01100000
01100000
00100000
10000000
,
01000000
01000000
00100000
00001000
,
00022000
00000000
00000000
00033000
,
00001000
00010000
00011000
00000000
,
00001000
00000100
00000001
00001000
,
00000001
00001000
00001001
00000000
,
00000001
00000001
00000100
00000100
,
00001000
00010000
00011000
00000000
,
00001000
00010000
01000000
10000000
,
00010000
10000000
10010000
00000000
,
00200000
00000000
00000000
00300000
,
10000000
10000000
01000000
01000000
,
00100000
00000000
00100000
00000000
00001000
00010000
00001000
00000000
,
00010000
00010000
00001000
00001000
,
00000010
00000000
00000010
00000000
00000001
00000010
00000001
00000000
,
00000100
00000010
00000100
00000010
,
00001000
00000000
00000100
00000000
00001000
00000100
00001000
00000000
,
00000100
00010000
00001000
00100000
,
00010000
00000000
01000000
00000000
00100000
01000000
00200000
00000000
,
01300000
00010000
00200000
01300000
,
10000000
00100000
02000000
03010000
,
00100000
00001000
00020000
00031000
,
00010000
00001000
00000200
00000310
,
00001000
00000001
00000020
00000130
,
00000010
00000001
00002000
00003100
,
00010000
00001000
00200000
00310000
,
02000000
00000000
00000000
03000000
,
00100000
00100000
10000000
10010000
,
00001000
00001000
00010000
00011000
,
00001000
00000010
00000100
00000110
,
00000001
00000100
00000010
00000110
,
00001000
00000100
00010000
00011000
,
00001000
00100000
01000000
01100000
,
00010000
00100000
00001000
00011000
,
00010000
00010000
00001000
00000100
,
00000110
00000000
00000000
00000000
,
00000000
00000000
00000000
00000000
;
#NOTES:
     dance-double:
     :
     Medium:
     9:
     :
00000000
00000000
00000000
00000000
,
00000000
00000000
00000000
00000000
,
00000000
00000000
00000000
00000000
,
00000000
00000000
00000000
00000000
,
00000000
00000000
00000000
00000000
,
10000000
01000000
11000000
00000000
,
01000000
00010000
00001000
00000100
,
00000001
00000100
00000101
00000000
,
00000001
00001000
00000100
00010000
,
00001000
00010000
00100000
00000000
01000000
00000000
00100000
00000000
,
10000000
01000000
00010000
00000000
01000000
00000000
00010000
00000000
,
00001000
00000010
00000001
00000000
00001000
00000000
00000100
00000000
,
00010000
00001000
00010000
00000000
00001000
00000000
01000000
00000000
,
00100000
01000000
00010000
00000000
00100000
00000000
01000000
00000000
,
10000000
01000000
00010000
00000000
00001000
00000000
00010000
00000000
,
00001000
00000100
00000001
00000000
00000010
00000000
00000100
00000000
,
00002000
00000000
00000000
00000000
,
00003100
00000010
00000001
00000011
,
00000001
00000100
00001000
00000000
00010000
00000000
00001000
00000000
,
00010000
01000000
10000000
11000000
,
10000000
01000000
00010000
00000000
00001000
00000000
00010000
00000000
,
00001000
00000010
00000001
00000011
,
00000001
00000010
00001000
00000000
00010000
00000000
00001000
00000000
,
00010000
00100000
10000000
10100000
,
10000000
00100000
00010000
00000000
00001000
00000000
00010000
00000000
,
00001000
00010000
01000000
00000000
00010000
00000000
00001000
00000000
,
00010000
00000000
00010000
00000000
00001000
00010000
00001000
00000000
,
00010000
00001000
00000100
00000000
00001000
00000000
00000100
00000000
,
00000010
00000000
00000010
00000000
00000100
00000001
00000010
00000000
,
00000001
00000100
00001000
00000000
00000100
00000000
00001000
00000000
,
00010000
00000000
00010000
00000000
01000000
10000000
00100000
00000000
,
01000000
00010000
00100000
00000000
00010000
00000000
00100000
00000000
,
00002000
00000000
00000000
00003000
,
00020000
00001000
00000100
00030010
,
00001010
00000000
00000110
00000000
00000010
00000100
00000010
00000000
,
00000002
00000010
00001000
00000103
,
00001100
00000000
00001010
00000000
00000010
00010000
00001000
00000000
,
00020000
00000100
00001000
00030100
,
00011000
00000000
00110000
00000000
00010000
00100000
01000000
00000000
,
00200000
00010000
01000000
10300000
,
00100000
00000000
00000000
00010000
00000000
00000000
10000000
00000000
00000000
00100000
00000000
00000000
02000000
00000000
00000000
00000000
,
03100000
10000000
01000000
00000000
00100000
00010000
01000000
00000000
,
00110000
00000000
00011000
00000000
00001000
00010000
00001000
00000000
,
00010000
00000100
00001000
00000000
00000100
00001000
00000001
00000000
,
00000011
00000000
00000101
00000000
00000001
00000100
00000001
00000000
,
00000010
00000001
00000100
00000000
00000010
00001000
00000100
00000000
,
00001010
00000000
00011000
00000000
00010000
00001000
00010000
00000000
,
00001000
01000000
00010000
00000000
01000000
00010000
10000000
00000000
,
10100000
11000000
10000000
02000000
,
03100000
00010000
00100000
00000000
00002000
00000000
00103000
00000000
,
00001000
00010000
00001000
00000000
00000200
00000000
00000310
00000000
,
00000100
00000010
00000100
00000000
00000002
00000000
00001003
00000000
,
00000100
00000010
00000001
00000000
00000200
00000000
00000310
00000000
,
00001000
00000100
00010000
00000000
00001000
00000000
00100000
00000000
,
00010000
01000000
00010000
00000000
00100000
00000000
01000000
00000000
,
10000000
01000000
00010000
00000000
00001000
00000000
00100000
00000000
,
00001000
00010000
01000000
00010000
00001000
00000000
00011000
00000000
,
00001000
00000000
00000100
00000000
00000001
00000100
00001000
00000100
,
00000001
00000010
00001000
00010000
,
01000000
00000000
10000000
00000000
00010000
01000000
10000000
01000000
,
00010000
00110000
00011000
00001100
,
00000100
00000000
00001000
00000000
00000001
00000010
00001000
00000010
,
00000001
00001000
00000100
00011000
,
00001000
00010000
01000000
00000000
00100000
00010000
01000000
00000000
,
00100000
01000000
00100000
10000000
00010000
00000000
00100000
00000000
,
00011000
00000000
00000000
00000000
,
00000000
00000000
00000000
00000000
;
#NOTES:
     dance-double:
     :
     Hard:
     12:
     :
00000000
00000000
00000000
00000000
,
00000000
00000000
00000000
00000000
,
00000000
00000000
00000000
00000000
,
00000000
00000000
00000000
00000000
,
00000000
00000000
00000000
00000000
,
01000000
00000000
00010000
00000000
00100000
00001000
00010000
00000000
,
00001000
00000000
00000100
00000000
00000010
00001000
00000100
00000000
,
00000010
00000000
00000100
00000000
00000010
00000001
00000100
00000000
,
00001000
00000000
00010000
00000000
00001000
00010000
01000000
00000000
,
10000000
00000000
00000000
00000000
00100000
00000000
01000000
00100000
00000000
00000000
10000000
00000000
00000000
01000000
00000000
00000000
,
00010000
00000000
00001000
00000000
00000100
00000001
00000010
00000100
,
00001000
00000000
00000000
00000000
00000001
00000000
00001000
00000100
00000000
00000000
00010000
00000000
00000000
00001000
00000000
00000000
,
01000000
00000000
00100000
00000000
10000000
01000000
00100000
00010000
,
00100000
00000000
00000000
00000000
01000000
00000000
00100000
00001000
00000000
00000000
00010000
00000000
00000000
00001000
00000000
00000000
,
00000100
00000000
00000010
00000000
00001000
00000100
00000010
00000001
,
00001000
00000000
00000000
00000000
00000010
00000000
00000100
00000010
00000000
00000000
00001000
00000000
00000000
00000100
00000000
00000000
,
00020000
00032000
00203000
02300000
,
03100000
01000000
00100000
00000000
00110000
00000000
00101000
00000000
,
00001000
00010000
00001000
00000000
00011000
00000000
00010100
00000000
,
00001000
00000100
00001000
00000000
00000110
00000000
00000011
00000000
,
00000001
00000010
00000001
00000000
00000101
00000000
00001001
00000000
,
00000001
00000100
00001000
00000000
00000110
00000000
00001010
00000000
,
00000100
00001000
00010000
00000000
00011000
00000000
00101000
00000000
,
00010000
00100000
10000000
00000000
01100000
00000000
00110000
00000000
,
10000000
01000000
00010000
00001000
00000000
00001000
00000100
00000001
,
00000010
00000001
00000100
00000010
00000000
00010000
00001000
00000000
,
00001000
00010000
00100000
10000000
00010000
00000000
01100000
00000000
,
00100000
10000000
01000000
00100000
00000000
00001000
00010000
00000000
,
00010000
00001000
00000010
00000001
00001000
00000000
00000110
00000000
,
00001000
00000000
00000010
00000000
00000100
00000000
00000010
00000100
00000000
00000000
00000010
00000000
00001000
00000000
00000100
00000000
,
00010000
00000000
00001000
00000000
00010000
00000000
01000000
00100000
00000000
00000000
00010000
00000000
01000000
00000000
10000000
00000000
,
01000000
00000000
00010000
00000000
00100000
00000000
00001000
00010000
00000000
00000000
00001000
00000000
00000100
00000000
00000001
00000000
,
00002000
00003020
00000230
00000302
,
00001003
00000000
00000000
00000000
00000001
00000000
00000010
00000001
00000000
00000000
00000100
00000000
00000000
00000010
00000000
00000000
,
00000110
00000000
00000000
00000000
00001010
00000000
00000000
00000100
00000000
00000000
00010000
00000000
00000000
00001000
00000000
00000000
,
00100000
00000000
00000000
00000000
00010000
00000000
01000000
00100000
00000000
00000000
10000000
00000000
00000000
01000000
00000000
00000000
,
11000000
00000000
00000000
00000000
10100000
00000000
00000000
10000000
00000000
00000000
01000000
00000000
00000000
00010000
00000000
00000000
,
00001000
00000000
00000000
00000000
00010000
00000000
00001000
00010000
00000000
00000000
00001000
00000000
00000000
00000100
00000000
00000000
,
00000110
00000000
00000000
00000000
00000101
00000000
00000000
00000001
00000000
00000000
00000100
00000000
00000000
00001000
00000000
00000000
,
00010000
00001000
00100000
00100000
01000000
10000000
00020000
00000000
,
10030000
00010000
00000000
10000000
00010000
00000000
10000000
00010000
00000000
10000000
00010000
00000000
10000000
00010000
00000000
10000000
,
00010000
01000000
00100000
10000000
01000000
00010000
00001000
00010000
,
00001000
00000100
00000001
00000010
00001000
00001000
00010000
00010000
,
00001000
00000100
00001000
00010000
01000000
00100000
00010000
10000000
,
00100000
01000000
00010000
10000000
01000000
00100000
00001000
00000000
,
00010000
00001000
00010000
01000000
10000000
00100000
00010000
00001000
,
00000100
00000001
00000010
00000001
00000100
00000100
00000010
00000010
,
00001000
00000100
00000010
00001000
00000010
00000001
00000100
00001000
,
00010000
01000000
10000000
00100000
01000000
00010000
00200000
00000000
,
00301000
00010000
00001000
00000100
00000010
00000100
00000010
00000000
,
00001000
00000010
00000001
00000010
00001000
00000100
00000010
00000000
,
00000001
00000100
00001000
00010000
00001000
00100000
00010000
00000000
,
10000000
00100000
00010000
00001000
00010000
00100000
01000000
00000000
,
10000000
01000000
00010000
00001000
00000100
00000001
00000010
00000000
,
00000001
00000010
00001000
00000010
00000001
00000100
00001000
00000000
,
00010000
00001000
00010000
00100000
10000000
01000000
00100000
00000000
,
00010000
00000000
00100000
00000000
01000000
00100000
01000000
00000000
00100000
00000000
00001000
00000000
00020000
00000000
00000000
00000000
,
00031000
00010000
00000000
00000000
00001000
00000000
00000000
00000010
00000000
00000000
00000001
00000000
00000100
00000000
00000010
00000000
,
00001000
00000100
00010000
00001000
00010000
00100000
01000000
00000000
,
00010000
00100000
00000000
00000000
01000000
00000000
00000000
10000000
00000000
00000000
00100000
00000000
01000000
00000000
00010000
00000000
,
00100000
10000000
00100000
00001000
00010000
00000100
00000010
00000001
,
00001000
00000100
00000000
00000000
00001000
00000000
00000000
00000010
00000000
00000000
00000100
00000000
00000001
00000000
00000010
00000000
,
00000100
00001000
00000100
00010000
00001000
01000000
00100000
00000000
,
10000000
00100000
00000000
00000000
10000000
00000000
00000000
01000000
00000000
00000000
00100000
00000000
00001000
00000000
00010000
00000000
,
00001000
00000100
00000001
00000100
00001000
00010000
01000000
10000000
,
10010000
00000000
00000000
00000000
,
00000000
00000000
00000000
00000000
;
