
//----- song ID: golo -----//
#TITLE:Good Looking;
#ARTIST:JAKAZiD;
#BANNER:Good Looking.png;
#BACKGROUND:Good Looking-bg.png;
#CDTITLE:./CDTitles/DDR A20 PLUS.png;
#MUSIC:Good Looking.ogg;
#SAMPLESTART:46.58;
#SAMPLELENGTH:15;
#BPMS:0=170;
#BGSTAGE:17;
#NOTES:
     dance-single:
     :
     Beginner:
     3:
     :
0000
0000
0000
0000
,
0000
0000
0000
0000
,
0000
0000
0000
0000
,
0000
0000
0000
0000
,
0000
0000
0000
0000
,
0001
0000
0001
0000
,
0001
0000
0000
0000
,
1000
0000
1000
0000
,
1000
0000
0000
0000
,
0010
0000
0010
0000
,
0010
0000
0000
0000
,
0100
0000
0100
0000
,
0100
0000
0000
0000
,
0010
0000
0001
0000
,
0001
0000
0000
0000
,
0010
0000
1000
0000
,
1000
0000
0000
0000
,
0001
0000
0000
0000
,
0001
0000
0000
0000
,
1000
0000
0000
0000
,
1000
0000
0000
0000
,
0010
0000
0000
0000
,
0010
0000
0000
0000
,
0100
0000
0000
0000
,
0100
0000
0000
0000
,
0001
0000
0001
0000
,
0001
0000
0000
0000
,
1000
0000
1000
0000
,
1000
0000
0000
0000
,
0001
0000
1000
0000
,
0001
0000
0000
0000
,
1000
0000
0001
0000
,
1000
0000
0000
0000
,
0001
0000
0001
0000
,
1000
0000
1000
0000
,
0100
0000
0100
0000
,
0010
0000
0010
0000
,
1000
0000
1000
0000
,
0001
0000
0001
0000
,
0100
0000
0100
0000
,
0010
0000
0010
0000
,
0001
0000
0000
0000
,
1000
0000
0000
0000
,
0001
0000
0000
0000
,
1000
0000
0000
0000
,
0010
0000
0000
0000
,
0100
0000
0000
0000
,
0010
0000
0000
0000
,
0100
0000
0000
0000
,
0001
0000
0001
0000
,
0010
0000
0010
0000
,
1000
0000
1000
0000
,
0100
0000
0100
0000
,
0001
0000
0001
0000
,
0100
0000
0100
0000
,
1000
0000
1000
0000
,
0010
0000
0010
0000
,
0001
0000
0001
0000
,
0001
0001
0001
0000
,
1000
0000
1000
0000
,
1000
1000
1000
0000
,
0010
0010
0010
0000
,
0100
0100
0100
0000
,
0001
0000
1000
0000
,
0001
0000
0000
1001
,
0000
0000
0000
0000
;
#NOTES:
     dance-single:
     :
     Easy:
     9:
     :
0000
0000
0000
0000
,
0000
0000
0000
0000
,
0000
0000
0000
0000
,
0000
0000
0000
0000
,
0000
0000
0000
0000
,
0010
0010
0001
0001
,
1000
1000
1001
0000
,
0010
0010
1000
1000
,
0001
0001
1001
0000
,
0100
0100
0001
0001
,
1000
1000
1001
0000
,
0100
0100
1000
1000
,
0001
0001
1001
0000
,
0010
0010
0100
0100
,
0001
1000
1001
0000
,
0100
0100
0010
0010
,
1000
0001
1001
0000
,
1000
1000
0001
0100
,
0010
0010
0100
0001
,
0100
0100
0001
0010
,
0001
0001
1000
0010
,
1000
0000
1000
0000
0100
0010
0100
0000
,
0010
0000
0010
0000
0001
0100
0001
0000
,
0100
0000
0100
0000
0010
0100
0010
0000
,
1000
1000
0010
1001
,
0001
1000
0001
0000
0010
0000
0010
0000
,
0100
0010
0100
0000
1000
0000
1000
0000
,
0010
0100
0010
0000
0100
0000
0100
0000
,
0001
1000
0001
0000
0100
0000
0100
0000
,
0001
0010
0002
0000
1000
0000
1003
0000
,
1000
0010
2000
0000
0001
0000
3001
0000
,
0001
0100
0002
0000
1000
0000
1003
0000
,
0001
1000
0001
0000
1001
0000
0000
0000
,
0010
0001
0100
1001
,
0010
0100
0010
1001
,
0010
1000
0100
1001
,
0010
0100
0010
1001
,
0010
0100
0010
0000
0100
0000
0100
0000
,
0001
1000
0001
0000
1000
0000
1000
0000
,
0100
0010
0100
0000
0010
0000
0010
0000
,
1000
0001
1000
0000
0001
0000
0001
0000
,
1002
0000
1000
1003
,
0210
0000
0010
0310
,
2001
0000
0001
3001
,
0120
0000
0100
0130
,
0001
0001
0100
0100
,
1000
1000
0010
0010
,
0001
0100
1000
0010
,
0001
0100
1001
0000
,
0001
1000
0001
0000
0010
0000
0010
0000
,
0100
0010
0100
0000
1000
0000
1000
0000
,
0010
0100
0010
0000
0100
0000
0100
0000
,
0001
1000
0001
0000
0100
0000
1001
0000
,
0001
0010
0002
0000
1000
0000
1003
0000
,
1000
0010
2000
0000
0001
0000
3001
0000
,
0001
0100
0002
0000
1000
0000
1003
0000
,
0001
1000
0001
0000
1001
0000
0000
0000
,
0000
1001
0000
1100
0000
1100
0000
0000
,
0000
1001
0000
1010
0000
1010
0000
0000
,
0000
1001
0000
0011
0000
0011
0000
0000
,
0000
1001
0000
0101
0000
0101
0000
0000
,
0100
0001
0100
0000
0010
1000
0010
0000
,
1000
0100
1000
0000
0001
0100
0001
0000
,
0100
0010
0100
0000
0010
0100
0010
0000
,
0100
0010
0100
2002
,
0000
0000
0000
0000
,
0000
0000
0000
0000
,
0000
0000
3003
0000
,
0000
0000
0000
0000
;
#NOTES:
     dance-single:
     :
     Medium:
     12:
     :
0000
0000
0000
0000
,
0000
0000
0000
0000
,
0000
0000
0000
0000
,
0000
0000
0000
0000
,
0000
0000
0000
0000
,
0010
0001
0010
0001
1000
0010
1000
0010
,
0100
0001
0100
0001
0101
0000
1100
0000
,
0010
1000
0010
1000
0001
0010
0001
0010
,
0100
0000
0010
0100
0010
0000
0100
0000
1000
0000
0001
0000
1000
0000
0001
0000
,
1000
0100
1000
0100
0001
0100
0001
0100
,
1000
0010
1000
0010
1001
0000
1001
0000
,
0001
0100
0001
0100
1000
0100
1000
0100
,
0001
0010
0001
0010
0011
0000
1010
0000
,
1000
0100
0001
0100
0010
0001
0100
0001
,
1000
0010
0100
0010
0110
0000
0110
0000
,
0001
0100
1000
0100
0010
1000
0010
1000
,
0100
0000
1000
0100
1000
0000
0100
0000
1100
0000
0000
0000
0101
0000
0000
0000
,
0010
0001
0100
0000
0010
1000
0100
0000
,
0010
0001
1000
0000
0010
1000
0001
0000
,
0010
0001
0010
0000
0100
1000
0100
0000
,
0010
0100
0010
0000
0100
0000
1001
0000
,
0010
1000
0100
0000
0010
0001
0100
0000
,
0001
1000
0100
0000
1000
0001
0100
0000
,
0010
0100
0010
0000
1000
0001
1000
0000
,
0100
0010
0100
0000
0010
0000
1001
0000
,
0010
0000
1000
0000
0010
0000
0000
0100
0000
0010
0100
0000
0100
0000
0000
0000
,
0001
0000
0010
0000
0001
0000
0000
0100
0000
0010
0100
0000
0100
0000
0000
0000
,
1000
0000
0010
0000
1000
0000
0000
0100
0000
0010
0100
0000
0100
0000
0000
0000
,
0010
0000
0001
0000
0010
0000
0000
0100
0000
0010
0100
0000
0100
0000
0100
0000
,
1000
0000
0010
0000
1000
0000
0000
0010
0000
0100
0010
0000
0010
0000
0000
0000
,
0100
0000
0001
0000
0100
0000
0000
0010
0000
0100
0010
0000
0010
0000
0000
0000
,
1000
0100
1000
0000
0001
0100
0001
0000
,
0010
0000
0001
1000
0001
0000
1000
0000
0010
0000
0010
0000
0010
0000
0000
0000
,
0001
0000
1000
0000
0001
1000
0000
0001
1000
0000
0001
1000
0000
0001
1000
0000
,
0010
0000
0100
0000
0010
0100
0000
0010
0100
0000
0010
0100
0000
0010
0100
0000
,
0001
0000
1000
0000
0001
1000
0000
0001
1000
0000
0001
1000
0000
0001
1000
0000
,
0010
0000
0100
0000
0010
0100
0000
0010
0100
0000
0010
0100
0000
0010
0100
0000
,
0001
0000
0010
0000
0001
0010
0000
0001
0010
0000
0001
0010
0000
0001
0010
0000
,
0100
0000
1000
0000
0100
1000
0000
0100
1000
0000
0100
1000
0000
0100
1000
0000
,
0010
0000
1000
0000
0010
1000
0000
0010
1000
0000
0010
1000
0000
0010
1000
0000
,
0001
0000
0100
0000
0001
0100
0000
0001
0100
0000
0001
0100
0000
0001
0100
0000
,
0010
0100
0010
0000
1000
0010
1000
0000
,
0001
0100
0001
0000
0010
0001
0010
0000
,
0100
1000
0001
0000
0100
0010
1000
0000
,
0100
0010
0001
0000
1000
0001
0100
0000
,
0001
0010
0001
0010
0100
1000
0100
1000
,
0010
0100
0010
1000
0001
0010
0001
0100
,
0010
1000
0010
1000
0100
1000
0100
1000
,
0010
0100
0001
0010
1001
0000
1001
0000
,
0010
0001
0010
0000
0100
1000
0100
0000
,
1000
0010
1000
0000
0001
0100
0001
0000
,
0010
0100
0010
0000
0100
0010
0100
0000
,
1000
0001
1000
0001
1000
0000
1001
0000
,
0010
0001
0010
0000
0001
0100
0001
0000
,
0100
1000
0100
0000
1000
0010
1000
0000
,
0010
1000
0010
0000
1000
0100
1000
0000
,
0100
0001
0100
0001
0100
0000
1001
0000
,
0000
1010
0000
1100
0000
0110
0000
0110
,
0000
0011
0000
0101
0000
0110
0000
0110
,
0000
1010
0000
0110
0000
0101
0000
0101
,
0000
0011
0000
0110
0000
1100
0000
1100
,
0100
0010
0001
0100
0010
1000
0010
0100
,
0001
0100
0010
1000
0100
0010
0001
0100
,
1000
0100
0001
0000
1000
0100
0001
0000
,
0100
0010
0001
0100
0010
0000
2002
0000
,
0000
0000
0000
0000
,
0000
0000
0000
0000
,
0000
0000
3003
0000
,
0000
0000
0000
0000
;
#NOTES:
     dance-single:
     :
     Hard:
     15:
     :
0000
0000
0000
0000
,
0000
0000
0000
0000
,
0000
0000
0000
0000
,
0000
0000
0000
0000
,
0000
0000
0000
0000
,
0010
0000
0001
0000
0100
0000
1000
0000
0100
0000
0010
0100
0000
0010
0100
0000
,
0010
1000
0100
0010
0011
0000
1001
0000
,
0010
0000
1000
0000
0100
0000
0001
0000
0100
0000
0010
0100
0000
0010
0100
0000
,
1000
0000
0010
1000
0010
0000
1000
0000
0001
0000
1000
0000
0001
0000
1000
0000
,
0010
0000
1000
0000
0100
0000
0001
0000
0100
0000
0010
0100
0000
0010
0100
0000
,
0010
0000
0001
0000
0100
0000
0010
0000
1000
0000
0001
1000
0000
0000
0000
0000
,
0010
0000
1000
0000
0100
0000
0001
0000
0100
0000
0010
0100
0000
0010
0100
0000
,
0010
0001
0100
0010
1010
0000
1001
0000
,
0010
0000
0001
0000
0100
0000
1000
0000
0100
0000
0010
0100
0000
0010
0100
0000
,
0010
0000
1000
0000
0100
0000
0010
0000
0001
0000
1000
0001
0000
0000
0000
0000
,
0010
0000
0001
0000
0100
0000
1000
0000
0100
0000
0010
0100
0000
0010
0100
0000
,
0001
0000
0010
0001
0010
0000
0001
0000
1000
0000
0001
0000
1000
0000
0001
0000
,
0010
0000
0010
0000
0100
0000
0000
1000
0000
0000
0010
0000
0001
0000
0000
0000
,
0010
0000
0010
0000
0100
0000
0000
1000
0000
0000
0100
0000
0001
0000
0001
0000
,
0010
0000
0010
0000
0100
0000
0000
1000
0000
0000
0010
0000
0001
0000
0000
0000
,
0010
0000
0010
0000
0100
0000
0000
0001
0000
0000
0100
0000
1000
0000
1000
0000
,
0100
0000
0100
0000
0010
0000
0000
1000
0000
0000
0100
0000
0001
0000
0000
0000
,
0100
0000
0100
0000
0010
0000
0000
1000
0000
0000
0010
0000
0001
0000
0001
0000
,
0100
0000
0100
0000
0010
0000
0000
1000
0000
0000
0100
0000
0001
0000
0000
0000
,
0100
0000
0100
0000
0010
0000
0000
0001
0000
0000
0010
0000
1000
0000
1000
0000
,
0010
0000
0001
0000
0001
0000
0000
1000
0000
0010
0100
0000
0010
0000
0100
0000
,
0010
0000
1000
0000
1000
0000
0000
0001
0000
0010
0100
0000
0010
0000
0100
0000
,
0010
0000
0001
0000
0001
0000
0000
1000
0000
0010
0100
0000
0010
0000
0100
0000
,
0010
0000
1000
0000
1000
0000
0000
0001
0000
0010
0100
0000
0010
0000
0100
0000
,
0010
0000
0100
0000
1000
0000
0000
0010
0000
0100
1000
0000
0100
0000
0100
0000
,
0010
0000
0100
0000
0001
0000
0000
0010
0000
0100
0001
0000
0100
0000
0100
0000
,
0010
0000
0100
0000
1000
0000
0000
0010
0000
0100
1000
0000
0100
0000
0100
0000
,
0010
0000
1000
0001
1000
0000
0100
0000
0010
0000
0010
0000
0010
0000
0000
0000
,
0001
0000
0010
0000
0001
0010
0000
0001
0010
0000
0001
0010
0000
0001
0010
0000
,
0100
0000
1000
0000
0100
1000
0000
0100
1000
0000
0100
1000
0000
0100
1000
0000
,
0010
0000
1000
0000
0010
1000
0000
0010
1000
0000
0010
1000
0000
0010
1000
0000
,
0001
0000
0100
0000
0001
0100
0000
0001
0100
0000
0001
0100
0000
0001
0100
0000
,
0010
0000
1000
0000
0100
0010
0000
0100
1000
0000
0100
0010
0000
0100
1000
0000
,
0010
0000
0100
0000
0001
0010
0000
0100
0010
0000
0001
0100
0000
0010
0100
0000
,
0001
0000
0100
0000
0010
0100
0000
1000
0100
0000
0001
0100
0000
0010
0100
0000
,
0001
0000
0010
0000
0100
0010
0000
1000
0010
0000
0100
0010
0000
0001
0010
0000
,
0001
0000
1000
0000
0100
0000
0010
0000
0000
0000
0011
0000
0000
1010
0000
0000
,
1000
0000
0001
0000
0100
0000
0010
0000
0000
0000
1010
0000
0000
0011
0000
0000
,
0010
0000
0001
0000
0100
0000
0010
0000
0000
0000
1010
0000
0000
1001
0000
0000
,
0100
1000
0010
0100
0000
0001
1000
0001
,
0100
0000
0001
0000
1000
0000
0010
0000
0000
0000
1001
0000
0000
1010
0000
0000
,
0010
0000
0001
0000
1000
0000
0100
0000
0000
0000
1001
0000
0000
0101
0000
0000
,
0100
0000
1000
0000
0001
0000
0010
0000
0000
0000
0110
0000
0000
1001
0000
0000
,
0100
0010
0100
0010
1001
0000
1001
0000
,
1000
0000
0001
0000
0100
0000
0001
0100
0000
0001
0100
0000
0001
1000
0000
1000
,
0001
0000
1000
0000
0100
0000
1000
0100
0000
1000
0100
0000
1000
0001
0000
0001
,
1000
0000
0010
0000
0100
0000
0010
1000
0000
0010
1000
0000
0001
1000
0000
1000
,
0001
0000
0010
0000
0100
0000
0010
0001
0000
0010
0001
0000
1001
0000
0000
0000
,
0010
0001
0100
0010
1000
0000
0010
1000
0000
0100
1000
0000
0010
0100
0000
0100
,
0010
1000
0100
0010
0001
0000
0010
0001
0000
0100
0001
0000
0010
0100
0000
0100
,
1000
0010
0001
0010
1000
0000
0100
0010
0000
0001
1000
0000
0010
0100
0000
0100
,
1000
0100
0001
0100
1000
0000
0100
0010
0000
1000
0001
0000
1001
0000
0000
0000
,
1000
1010
0000
0011
0000
1010
0000
0011
,
0001
0101
0000
1100
0000
0101
0000
0110
,
0001
0011
0000
0101
0000
0011
0000
0101
,
1000
1100
0000
1010
0000
1100
0000
1001
,
1000
0100
0001
0100
1000
0001
0010
1000
,
0010
0001
0100
0001
0100
1000
0100
0001
,
0100
0001
0100
0001
0100
0001
0100
0000
0010
1000
0010
1000
0010
1000
0010
0000
,
1000
0100
0000
0100
0001
0000
1000
0010
0000
0010
0001
0000
0200
0000
0000
0000
,
0000
0000
0000
0000
,
0000
0000
0000
0000
,
0000
0000
0300
0000
,
0000
0000
0000
0000
;
#NOTES:
     dance-single:
     :
     Challenge:
     17:
     :
0000
0000
0000
0000
,
0000
0000
0000
0000
,
0000
0000
0000
0000
,
0000
0000
0000
0000
,
0000
0000
0000
0000
,
0010
0000
0001
0000
0100
0000
0010
0000
1000
0000
0100
0001
0000
0100
1000
0100
,
1000
0000
0010
0100
0001
0000
0010
0000
0011
0000
0000
0000
1001
0000
0000
0000
,
0010
0000
1000
0000
0100
0000
0010
0000
0001
0000
0100
1000
0000
0100
0001
0100
,
0001
0000
0010
0100
1000
0000
0010
0000
0100
0000
0100
0000
0110
0000
0110
0000
,
0001
1000
0001
0000
0100
0010
1000
0010
0100
0000
0001
0010
0000
0100
1000
0100
,
0010
0000
0001
0100
0010
0000
1000
0100
0010
0000
0001
1000
0200
0000
0300
0000
,
1000
0001
1000
0000
0100
0010
0001
0010
0100
0000
1000
0010
0000
0100
0001
0100
,
0010
0000
1000
0100
0010
0000
0001
0100
0010
0000
1000
0001
0200
0000
0300
0000
,
0001
0100
0001
0000
0010
0100
0010
0100
1000
0000
0001
0100
0000
1000
0100
1000
,
0100
0000
0001
0010
0001
0000
0010
1000
0010
0000
0001
1000
0002
0000
0003
0000
,
1000
0000
1000
0000
0100
0000
0100
0000
0010
0001
0010
0001
1000
0010
1000
0010
,
0100
0000
0100
0010
0100
0000
0100
0000
0001
0000
1000
0000
0002
0000
0000
0000
,
1003
0010
0100
0001
0010
0000
0100
0010
0000
0010
0001
0000
1001
0000
0000
0000
,
1000
0100
0010
0001
0100
0000
1000
0100
0000
0100
0001
0000
0011
0000
1001
0000
,
1000
0001
0100
0010
1000
0000
0100
0010
0000
0010
0001
0000
1001
0000
0000
0000
,
1000
0100
1000
0000
0010
1000
0010
1000
0000
0001
0100
0001
0010
0001
0010
0000
,
0001
0100
0010
1000
0100
0000
0010
0100
0000
0100
1000
0000
1001
0000
0000
0000
,
0001
0010
0100
1000
0010
0000
0001
0010
0000
0010
1000
0000
1100
0000
1001
0000
,
0001
1000
0010
0100
0001
0000
0010
0100
0000
0100
1000
0000
1001
0000
0000
0000
,
0001
0010
0001
0000
0100
0001
0100
0001
0000
1000
0010
1000
0100
1000
0100
0000
,
0002
0000
0100
0000
0203
0000
1000
0000
1300
0000
0010
1000
0100
0010
0000
0010
,
2000
0000
0010
0000
3020
0000
0001
0000
0031
0000
0100
0001
0010
0100
0000
0100
,
1000
0010
0100
0001
0100
0000
0001
0010
0100
1000
0100
0000
0001
0100
0000
0100
,
2000
0000
0010
0000
0000
0000
3100
0010
0100
1000
0010
0000
0100
1000
0100
0000
,
2000
0000
0100
0000
3200
0000
0001
0000
0301
0000
0010
0001
0100
0010
0000
0010
,
0002
0000
0010
0000
0023
0000
1000
0000
1030
0000
0100
1000
0010
0100
0000
0100
,
0001
0010
0100
1000
0100
0000
1000
0010
0100
0001
0100
0000
1000
0100
0000
0100
,
0001
0000
0010
0001
0010
0000
0100
0010
0100
1000
0001
0000
0100
0001
0100
0000
,
0010
0000
1000
0000
0100
0010
0000
0001
0100
0000
0010
1000
0000
0100
0010
0001
,
1000
0000
0001
0000
0010
0100
0000
1000
0010
0000
0100
0001
0000
0010
0100
1000
,
0001
0000
0100
0000
1000
0100
0000
0001
0100
0000
1000
0100
0000
0001
0100
1000
,
0100
0000
0001
0000
0010
1000
0000
0010
0001
0000
0010
1000
0000
0010
0001
1000
,
0100
0000
0010
0000
0001
0100
0001
0100
0001
0000
1000
0010
1000
0010
0000
0010
,
0100
0000
0001
0000
1000
0100
1000
0100
1000
0000
0001
0010
0001
0010
0000
0010
,
0100
0000
1000
0000
0001
0100
0010
0100
0001
0000
0010
0100
1000
0100
0000
0100
,
0010
0001
0100
0000
0110
0000
0010
1000
0100
0000
0110
0000
1001
0000
0000
0000
,
0001
0000
0010
0000
0100
0000
2000
0000
0000
0000
0010
0000
0000
3010
0000
0000
,
1000
0000
0100
0000
0010
0000
0002
0000
0000
0000
0100
0000
0000
0103
0000
0000
,
0001
0000
0100
0000
1000
0000
0200
0000
0000
0000
0010
0000
0000
0310
0000
0000
,
1000
0000
0100
0000
0001
0000
0100
0000
0000
0100
0010
0000
0001
0000
1000
0000
,
0001
0000
0100
0000
0010
0000
1010
0000
0000
0000
1100
0000
0000
1001
0000
0000
,
1000
0000
0100
0000
0010
0000
0011
0000
0000
0000
0101
0000
0000
1001
0000
0000
,
0001
0000
0100
0000
1000
0000
1100
0000
0000
0000
0110
0000
0000
0101
0000
0000
,
1000
0100
0001
0100
0020
0000
0130
0000
,
1000
0010
0100
0001
0010
0000
0100
0010
0001
1000
0100
0000
0010
0001
0000
0001
,
0100
0010
1000
0100
0010
0000
0100
1000
0001
0100
0001
0000
0010
0100
0000
0100
,
1000
0001
0100
0001
0010
0000
0100
1000
0001
1000
0010
0000
0100
0001
0000
0001
,
0010
0100
0010
0100
1000
0001
1000
0001
1000
0010
0100
0000
0001
1000
0001
0000
,
1000
0010
0100
0001
1000
0010
0100
0001
1000
0000
0100
0010
0100
0010
0000
0010
,
0001
1000
0010
0100
0001
1000
0010
0100
0001
0000
0010
0100
0010
0100
0000
0100
,
1000
0010
1000
0010
0100
0001
0100
0001
0010
0001
0010
0001
1000
0100
1000
0100
,
0002
0000
0000
0000
0000
0000
0000
0000
0103
0000
1000
0000
1000
0001
1000
0000
,
0010
1000
0100
0000
0010
0001
0100
0000
0010
1000
0100
0000
0010
0001
0010
0001
,
0100
0001
0010
0000
0100
1000
0010
0000
0100
0001
0010
0000
0100
1000
0100
1000
,
0001
0100
1000
0000
1000
0100
0001
0000
1000
0100
0001
0000
0001
0100
1000
0000
,
0001
0010
1000
0000
1000
0010
0001
0000
1000
0010
0001
0000
0001
0010
1000
0000
,
0001
0100
0001
0100
0010
0100
0001
1000
0001
1000
0010
1000
0100
0010
0000
0010
,
0001
1000
0001
1000
0100
1000
0010
0100
0010
0100
0001
0100
0020
0000
1030
0100
,
0010
0001
1000
0001
0100
0010
1000
0100
0010
1000
0010
1000
0001
0100
0001
0100
,
1000
0010
1000
0010
0001
0000
1000
0100
1000
0100
0001
0000
0020
0000
0000
0000
,
0000
0000
0000
0000
,
0000
0000
0000
0000
,
0000
0000
0030
0000
,
0000
0000
0000
0000
;
#NOTES:
     dance-double:
     :
     Easy:
     9:
     :
00000000
00000000
00000000
00000000
,
00000000
00000000
00000000
00000000
,
00000000
00000000
00000000
00000000
,
00000000
00000000
00000000
00000000
,
00000000
00000000
00000000
00000000
,
00010000
00001000
00100000
00010000
,
01000000
00100000
10010000
00000000
,
10000000
01000000
00100000
00010000
,
00100000
00001000
00011000
00000000
,
00010000
00000100
00000010
00000001
,
00000100
00000010
00001001
00000000
,
00000001
00000100
00000010
00001000
,
00000010
00010000
00011000
00000000
,
00001000
01000000
00010000
10000000
,
01000000
00100000
01100000
00000000
,
01000000
10000000
00100000
01000000
,
00001000
00010000
00011000
00000000
,
00001000
00010000
00000100
00000100
,
00000010
00000001
00000010
00000010
,
00000100
00001000
00000100
00000100
,
00010000
00010000
00001000
00001000
,
00010000
00001000
00010000
00000000
00001000
00000000
00001000
00000000
,
00100000
00010000
00100000
00000000
00010000
00000000
00010000
00000000
,
10000000
00100000
10000000
00000000
00100000
00000000
00100000
00000000
,
10000000
01000000
00100000
00011000
,
00001000
00010000
00001000
00000000
00010000
00000000
00010000
00000000
,
00000100
00001000
00000100
00000000
00001000
00000000
00001000
00000000
,
00000010
00000100
00000010
00000000
00000100
00000000
00000100
00000000
,
00000001
00000010
00000100
00011000
,
00001000
00010000
00002000
00000000
00010000
00000000
00013000
00000000
,
01000000
00010000
02000000
00000000
00010000
00000000
03010000
00000000
,
10000000
00010000
20000000
00000000
00010000
00000000
30010000
00000000
,
10000000
00010000
10010000
00000000
,
00100000
00001000
00010000
00000100
,
00000010
00000100
00000010
00001001
,
00000010
00010000
00001000
00100000
,
01000000
00100000
01000000
10010000
,
10000000
01000000
10000000
00000000
01000000
00000000
01000000
00000000
,
00100000
00010000
00100000
00000000
00010000
00000000
00010000
00000000
,
01000000
00001000
01000000
00000000
00001000
00000000
00001000
00000000
,
00010000
00000100
00010000
00000000
00000100
00000000
00000100
00000000
,
00000020
00000000
00000001
00000031
,
00000200
00000000
00000010
00000310
,
00020000
00000000
00001000
00031000
,
00200000
00000000
00010000
00310000
,
00020000
00000000
10000000
10030000
,
02000000
00000000
00100000
03100000
,
00010000
01000000
10000000
00100000
,
01000000
00010000
10010000
00000000
,
00001000
00010000
00001000
00000000
00010000
00000000
00010000
00000000
,
00000100
00001000
00000100
00000000
00001000
00000000
00001000
00000000
,
00000001
00000100
00000001
00000000
00000100
00000000
00000100
00000000
,
00000010
00001000
00000010
00000000
00001000
00000000
00001001
00000000
,
00010000
00001000
00020000
00000000
00001000
00000000
00031000
00000000
,
00100000
00010000
00200000
00000000
00010000
00000000
00310000
00000000
,
10000000
00100000
20000000
00000000
00100000
00000000
30100000
00000000
,
01000000
00100000
01000000
00000000
10010000
00000000
00000000
00000000
,
00000000
00110000
00000000
00010000
00000000
00011000
00000000
00000000
,
00000000
00011000
00000000
00001000
00000000
00001100
00000000
00000000
,
00000000
00000101
00000000
00000100
00000000
00000110
00000000
00000000
,
00000000
00001010
00000000
00001000
00000000
00011000
00000000
00000000
,
00010000
00100000
00010000
00000000
00100000
00000000
00100000
00000000
,
00001000
00010000
00001000
00000000
00010000
00000000
00010000
00000000
,
00001000
00001000
00000010
00000010
,
00000100
00000010
00000100
00002002
,
00000000
00000000
00000000
00000000
,
00000000
00000000
00000000
00000000
,
00000000
00000000
00003003
00000000
,
00000000
00000000
00000000
00000000
;
#NOTES:
     dance-double:
     :
     Medium:
     12:
     :
00000000
00000000
00000000
00000000
,
00000000
00000000
00000000
00000000
,
00000000
00000000
00000000
00000000
,
00000000
00000000
00000000
00000000
,
00000000
00000000
00000000
00000000
,
00010000
01000000
00010000
01000000
00001000
00010000
00001000
00010000
,
00000100
00000010
00000100
00000010
00000011
00000000
00001010
00000000
,
00001000
00000010
00001000
00000010
00010000
00001000
00010000
00001000
,
00100000
00000000
00010000
00100000
00010000
00000000
00100000
00000000
01000000
00000000
10000000
00000000
01000000
00000000
10000000
00000000
,
00100000
01000000
00100000
01000000
00001000
00010000
00001000
00010000
,
00000100
00000010
00000100
00000010
00001001
00000000
00001001
00000000
,
00000010
00000100
00000010
00000100
00010000
00001000
00010000
00001000
,
01000000
00010000
01000000
00010000
01010000
00000000
11000000
00000000
,
00100000
00010000
00100000
00001000
00010000
00001000
00010000
00000100
,
00000010
00000001
00000010
00000001
00000011
00000000
00001001
00000000
,
00000010
00001000
00000010
00010000
00001000
00010000
00001000
01000000
,
00010000
00000000
01000000
00010000
01000000
00000000
00010000
00000000
01010000
00000000
00000000
00000000
10010000
00000000
00000000
00000000
,
10000000
01000000
00010000
00000000
01000000
10000000
00100000
00000000
,
01000000
00100000
00010000
00000000
00100000
00010000
00001000
00000000
,
00000100
00000001
00000010
00000000
00001000
00000010
00000001
00000000
,
00000100
00001000
00010000
00000000
00001000
00000000
00011000
00000000
,
00010000
01000000
10000000
00000000
00100000
01000000
00010000
00000000
,
00100000
00001000
00010000
00000000
00001000
00000100
00000001
00000000
,
00000010
00000001
00000100
00000000
00000010
00001000
00000100
00000000
,
00010000
00001000
00010000
00000000
00001000
00000000
00011000
00000000
,
00100000
00000000
00010000
00000000
00100000
00000000
00000000
01000000
00000000
00100000
01000000
00000000
01000000
00000000
00000000
00000000
,
00010000
00000000
00001000
00000000
00010000
00000000
00000000
00001000
00000000
00010000
00001000
00000000
00001000
00000000
00000000
00000000
,
00000100
00000000
00000001
00000000
00000100
00000000
00000000
00000010
00000000
00000100
00000010
00000000
00000010
00000000
00000000
00000000
,
00001000
00000000
00000100
00000000
00001000
00000000
00000000
00000100
00000000
00010000
00001000
00000000
00001000
00000000
00001000
00000000
,
01000000
00000000
00010000
00000000
01000000
00000000
00000000
00100000
00000000
01000000
00100000
00000000
00100000
00000000
00000000
00000000
,
10000000
00000000
00010000
00000000
10000000
00000000
00000000
01000000
00000000
00100000
01000000
00000000
01000000
00000000
00000000
00000000
,
10000000
01000000
00010000
00000000
00001000
00000100
00000001
00000000
,
00000010
00000000
00000100
00000010
00000100
00000000
00001000
00000000
00000100
00000000
00000100
00000000
00000100
00000000
00000000
00000000
,
00001000
00000000
00000010
00000000
00000000
00001000
00000000
00000000
00000010
00000000
00000000
00001000
00000000
00000000
00000010
00000000
,
00010000
00000000
00001000
00000000
00000000
00010000
00000000
00000000
00001000
00000000
00000000
00010000
00000000
00000000
00001000
00000000
,
00100000
00000000
00010000
00000000
00000000
00100000
00000000
00000000
00010000
00000000
00000000
00100000
00000000
00000000
00010000
00000000
,
01000000
00000000
00100000
00000000
00000000
01000000
00000000
00000000
00100000
00000000
00000000
01000000
00000000
00000000
00100000
00000000
,
00010000
00000000
00001000
00000000
00000000
00010000
00000000
00000000
00001000
00000000
00000000
00010000
00000000
00000000
00001000
00000000
,
00000010
00000000
00000100
00000000
00000000
00000010
00000000
00000000
00000100
00000000
00000000
00000010
00000000
00000000
00000100
00000000
,
00010000
00000000
00000100
00000000
00010000
00000100
00000000
00010000
00000100
00000000
00010000
00000100
00000000
00010000
00001000
00000000
,
01000000
00000000
00010000
00000000
01000000
00010000
00000000
01000000
00010000
00000000
01000000
00010000
00000000
01000000
00010000
00000000
,
00100000
00001000
00010000
00000000
00001000
00000100
00000001
00000000
,
00000010
00000001
00000100
00000000
00000010
00001000
00000100
00000000
,
00010000
00001000
00100000
00000000
00010000
01000000
10000000
00000000
,
01000000
00010000
00100000
00000000
00001000
00010000
00000100
00000000
,
00001000
00000010
00001000
00000010
00001000
00000100
00010000
00000100
,
00010000
00001000
00100000
00010000
01000000
00010000
01000000
00100000
,
10000000
01000000
00100000
00010000
01000000
00001000
00010000
00001000
,
00010000
00000100
00010000
00000100
00011000
00000000
00011000
00000000
,
00010000
00000010
00001000
00000000
00000010
00001000
00000100
00000000
,
00010000
00001000
00010000
00000000
00001000
00100000
00010000
00000000
,
00100000
00010000
01000000
00000000
00100000
10000000
01000000
00000000
,
00100000
01000000
10000000
00010000
10000000
00000000
10010000
00000000
,
01000000
10000000
00100000
00000000
01000000
00010000
00100000
00000000
,
00001000
00010000
00001000
00000000
00010000
00000100
00000010
00000000
,
00000100
00001000
00000010
00000000
00000100
00000001
00000010
00000000
,
00000100
00000010
00000001
00001000
00000001
00000000
00001001
00000000
,
00000000
00000011
00000000
00000110
00000000
00001100
00000000
00011000
,
00000000
01010000
00000000
01100000
00000000
11000000
00000000
11000000
,
00000000
10100000
00000000
01100000
00000000
01010000
00000000
00011000
,
00000000
00001010
00000000
00000110
00000000
00000101
00000000
00000101
,
00000001
00000100
00001000
00000100
00000001
00001000
00000100
00010000
,
00001000
01000000
00100000
01000000
10000000
01000000
00100000
10000000
,
01000000
00100000
00010000
00000000
00100000
00001000
00010000
00000000
,
00001000
00000100
00000001
00000100
00000010
00000000
00002002
00000000
,
00000000
00000000
00000000
00000000
,
00000000
00000000
00000000
00000000
,
00000000
00000000
00003003
00000000
,
00000000
00000000
00000000
00000000
;
#NOTES:
     dance-double:
     :
     Hard:
     15:
     :
00000000
00000000
00000000
00000000
,
00000000
00000000
00000000
00000000
,
00000000
00000000
00000000
00000000
,
00000000
00000000
00000000
00000000
,
00000000
00000000
00000000
00000000
,
00000100
00000000
00000001
00000000
00000100
00000000
00000010
00000000
00001000
00000000
00000100
00010000
00000000
00001000
00010000
00000000
,
01000000
00100000
01000000
10000000
10100000
00000000
00110000
00000000
,
01000000
00000000
10000000
00000000
01000000
00000000
00100000
00000000
00010000
00000000
01000000
00001000
00000000
00010000
00001000
00000000
,
00000100
00000000
00000010
00001000
00000010
00000000
00000100
00000000
00000001
00000000
00000100
00000000
00001000
00000000
00000100
00000000
,
00000001
00000000
00000010
00000000
00000100
00000000
00001000
00000000
00000100
00000000
00010000
00001000
00000000
00100000
00010000
00000000
,
00100000
00000000
10000000
00000000
00100000
00000000
00010000
00000000
10000000
00000000
00100000
10000000
00000000
00000000
00000000
00000000
,
10000000
00000000
00100000
00000000
01000000
00000000
00100000
00000000
00010000
00000000
00001000
00010000
00000000
00000010
00001000
00000000
,
00000010
00000001
00000010
00001000
00001010
00000000
00000110
00000000
,
00000010
00000000
00000100
00000000
00000010
00000000
00001000
00000000
00000100
00000000
00010000
00001000
00000000
01000000
00100000
00000000
,
10000000
00000000
01000000
00000000
00010000
00000000
01000000
00000000
00100000
00000000
00010000
00100000
00000000
00000000
00000000
00000000
,
00100000
00000000
01000000
00000000
00100000
00000000
00010000
00000000
01000000
00000000
00001000
00010000
00000000
00000100
00000010
00000000
,
00000100
00000000
00000010
00000001
00000010
00000000
00000001
00000000
00000010
00000000
00001000
00000000
00010000
00000000
01000000
00000000
,
10000000
00000000
00100000
00000000
00010000
00000000
00000000
00100000
00000000
00000000
00001000
00000000
00000010
00000000
00000000
00000000
,
00000001
00000000
00000010
00000000
00001000
00000000
00000000
00000010
00000000
00000000
00010000
00000000
00100000
00000000
01000000
00000000
,
10000000
00000000
01000000
00000000
00010000
00000000
00000000
01000000
00000000
00000000
00001000
00000000
00000100
00000000
00000000
00000000
,
00000001
00000000
00000100
00000000
00001000
00000000
00000000
00001000
00000000
00000000
00010000
00000000
00001000
00000000
01000000
00000000
,
00010000
00000000
01000000
00000000
10000000
00000000
00000000
01000000
00000000
00000000
00001000
00000000
00010000
00000000
00000000
00000000
,
00001000
00000000
00000100
00000000
00000001
00000000
00000000
00000100
00000000
00000000
00001000
00000000
00010000
00000000
00001000
00000000
,
01000000
00000000
10000000
00000000
01000000
00000000
00000000
00010000
00000000
00000000
01000000
00000000
00010000
00000000
00000000
00000000
,
01000000
00000000
00100000
00000000
01000000
00000000
00000000
10000000
00000000
00000000
01000000
00000000
00001000
00000000
00010000
00000000
,
00001000
00000000
00000100
00000000
00000010
00000000
00000000
00001000
00000000
00000100
00000010
00000000
00000100
00000000
00010000
00000000
,
00001000
00000000
00100000
00000000
01000000
00000000
00000000
00010000
00000000
01000000
00100000
00000000
00001000
00000000
00010000
00000000
,
00001000
00000000
00000100
00000000
00000010
00000000
00000000
00000100
00000000
00000010
00001000
00000000
00000100
00000000
00010000
00000000
,
00001000
00000000
00100000
00000000
01000000
00000000
00000000
00100000
00000000
01000000
00010000
00000000
00001000
00000000
00010000
00000000
,
00100000
00000000
00010000
00000000
00001000
00000000
00000000
00010000
00000000
00001000
00000100
00000000
00001000
00000000
00010000
00000000
,
00001000
00000000
00010000
00000000
01000000
00000000
00000000
00010000
00000000
01000000
00100000
00000000
00001000
00000000
00010000
00000000
,
00100000
00000000
00010000
00000000
00001000
00000000
00000000
00010000
00000000
00001000
00000100
00000000
00001000
00000000
00010000
00000000
,
00001000
00000000
00010000
00001000
00010000
00000000
00001000
00000000
00010000
00000000
01000000
00000000
10000000
00000000
00000000
00000000
,
00100000
00000000
10000000
00000000
00100000
01000000
00000000
00100000
01000000
00000000
00100000
01000000
00000000
00010000
00100000
00000000
,
00001000
00000000
00010000
00000000
00001000
00010000
00000000
00001000
00010000
00000000
00001000
00010000
00000000
00001000
00010000
00000000
,
00000100
00000000
00001000
00000000
00000100
00000010
00000000
00000100
00000010
00000000
00000100
00000010
00000000
00000100
00010000
00000000
,
00001000
00000000
00010000
00000000
00001000
00010000
00000000
00001000
00010000
00000000
00001000
00010000
00000000
00001000
01000000
00000000
,
00100000
00000000
01000000
00000000
00100000
10000000
00000000
00100000
00010000
00000000
00100000
10000000
00000000
00100000
00010000
00000000
,
00000010
00000000
00000100
00000000
00000010
00000001
00000000
00000010
00001000
00000000
00000010
00000001
00000000
00000010
00001000
00000000
,
00000100
00000000
00010000
00000000
00000100
00001000
00000000
00000100
00010000
00000000
00000100
00001000
00000000
00000100
00010000
00000000
,
00001000
00000000
00100000
00000000
00010000
00100000
00000000
00001000
00100000
00000000
00010000
00100000
00000000
00001000
00100000
00000000
,
00001000
00000000
00010000
00000000
00000100
00000000
00000010
00000000
00000000
00000000
00001100
00000000
00000000
00000011
00000000
00000000
,
00000001
00000000
00000100
00000000
00000001
00000000
00001000
00000000
00000000
00000000
00001100
00000000
00000000
00011000
00000000
00000000
,
00010000
00000000
00001000
00000000
01000000
00000000
00100000
00000000
00000000
00000000
01010000
00000000
00000000
10100000
00000000
00000000
,
10000000
01000000
10000000
00010000
00000000
00100000
00001000
00010000
,
00001000
00000000
00000100
00000000
00000001
00000000
00000100
00000000
00000000
00000000
00000011
00000000
00000000
00001100
00000000
00000000
,
00000010
00000000
00000100
00000000
00010000
00000000
00001000
00000000
00000000
00000000
00011000
00000000
00000000
00110000
00000000
00000000
,
00010000
00000000
01000000
00000000
00100000
00000000
01000000
00000000
00000000
00000000
00110000
00000000
00000000
00011000
00000000
00000000
,
00001000
00000100
00000001
00000100
00001100
00000000
00011000
00000000
,
00100000
00000000
00010000
00000000
01000000
00000000
00100000
01000000
00000000
00100000
01000000
00000000
00100000
10000000
00000000
10000000
,
01000000
00000000
00100000
00000000
00010000
00000000
01000000
00010000
00000000
01000000
00010000
00000000
01000000
00010000
00000000
00010000
,
00100000
00000000
00001000
00000000
00010000
00000000
00000100
00001000
00000000
00000100
00001000
00000000
00000100
00001000
00000000
00001000
,
00000010
00000000
00001000
00000000
00000100
00000000
00000001
00000100
00000000
00001000
00000100
00000000
00001001
00000000
00000000
00000000
,
00000001
00000100
00000010
00000100
00000001
00000000
00000010
00001000
00000000
00010000
00001000
00000000
00010000
01000000
00000000
01000000
,
10000000
00100000
01000000
00100000
10000000
00000000
01000000
00010000
00000000
00001000
00010000
00000000
00001000
00000100
00000000
00000100
,
00000001
00000100
00000010
00000100
00000001
00000000
00000100
00000010
00000000
00000100
00000001
00000000
00000010
00000001
00000000
00000001
,
00000010
00000100
00001000
00000100
00000010
00000000
00000001
00000100
00000000
00000010
00000100
00000000
00001001
00000000
00000000
00000000
,
00000010
00000011
00000000
00001010
00000000
00011000
00000000
00110000
,
10000000
10100000
00000000
11000000
00000000
01100000
00000000
01010000
,
00001000
00011000
00000000
00001100
00000000
00000101
00000000
00000011
,
00000100
00000110
00000000
00001010
00000000
00011000
00000000
00110000
,
10000000
01000000
00010000
01000000
00100000
00001000
00010000
00001000
,
00000100
00000001
00000010
00001000
00010000
00001000
00000100
00000001
,
00000010
00000100
00001000
00000100
00001000
00000100
00001000
00000000
00000100
00010000
00001000
00010000
00001000
00010000
00001000
00000000
,
00010000
01000000
00000000
10000000
00100000
00000000
00010000
00001000
00000000
00100000
00001000
00000000
00020000
00000000
00000000
00000000
,
00000000
00000000
00000000
00000000
,
00000000
00000000
00000000
00000000
,
00000000
00000000
00030000
00000000
,
00000000
00000000
00000000
00000000
;
#NOTES:
     dance-double:
     :
     Challenge:
     18:
     :
00000000
00000000
00000000
00000000
,
00000000
00000000
00000000
00000000
,
00000000
00000000
00000000
00000000
,
00000000
00000000
00000000
00000000
,
00000000
00000000
00000000
00000000
,
00000010
00000000
00000001
00000000
00000100
00000000
00000010
00000000
00001000
00000000
00000100
00010000
00000000
00001000
00010000
00001000
,
00010000
00001000
01000000
00100000
10100000
00000000
10010000
00000000
,
00100000
00000000
10000000
00000000
01000000
00000000
00100000
00000000
00010000
00000000
01000000
00001000
00000000
00010000
00001000
00010000
,
00001000
00000000
00000100
00000010
00000100
00000000
00000001
00000000
00001000
00000000
00001000
00000000
00001000
00000000
00001000
00000000
,
00000001
00000000
00000010
00000000
00000100
00001000
00000100
00001000
00000010
00000000
00010000
00000010
00000000
00010000
00001000
00010000
,
00001000
00000000
00010000
00000000
00100000
00000000
10000000
00000000
00100000
00000000
00010000
00001000
00020000
00000000
00030000
00000000
,
01000000
00000000
10000000
00000000
00100000
01000000
00100000
01000000
00010000
00000000
00100000
00001000
00000000
00010000
00001000
00010000
,
00001000
00000010
00000001
00001000
00000200
00000000
00000302
00000000
,
00000103
00000010
00000001
00000000
00000100
00000010
00000100
00000010
00000100
00000000
00001000
00010000
00000000
00100000
01000000
00100000
,
01000000
00000000
10000000
01000000
10000000
00000000
01000000
00010000
01000000
00000000
00100000
10000000
00200000
00000000
00300000
00000000
,
10000000
00000000
01000000
00000000
00100000
00000000
00010000
00000000
01000000
00001000
01000000
00001000
00010000
00001000
00010000
00001000
,
00010000
00000000
00000010
00000100
00000010
00000000
00001000
00000000
00000001
00000000
00001000
00000000
00001001
00000000
00000000
00000000
,
00000001
00000100
00000000
00000100
00001000
00000000
00001000
00010000
00000000
00010000
00100000
00000000
10000000
00100000
01000000
00010000
,
10000000
01000000
00000000
00010000
00001000
00000000
00001000
00010000
00000000
00010000
00100000
00000000
01100000
00000000
00000000
00000000
,
10000000
01000000
00000000
01000000
00010000
00000000
00010000
00001000
00000000
00001000
00000010
00000000
00000001
00000010
00000100
00001000
,
00000001
00000100
00000000
00001000
00010000
00000000
00010000
00001000
00000000
00001000
00000010
00000000
00000110
00000000
00000000
00000000
,
00000001
00000010
00000001
00000010
00000100
00000000
00010000
00000100
00000000
00010000
00001000
00000000
00010000
00100000
00000000
00100000
,
10000000
00010000
00100000
00010000
00100000
00000000
00001000
00010000
00000000
00010000
00100000
00000000
10000000
00000000
00010000
00000000
,
10000000
01000000
10000000
01000000
00100000
00000000
00001000
00100000
00000000
00001000
00010000
00000000
00001000
00000100
00000000
00000100
,
00000001
00001000
00000100
00001000
00000100
00000000
00010000
00001000
00000000
00001000
00000100
00000000
00000001
00000000
00001000
00000000
,
00000002
00000000
00000023
00000000
00002030
00000000
00023000
00000000
02030000
00000000
13000000
00010000
00100000
00010000
00000000
00010000
,
20000000
00000000
30200000
00000000
00320000
00000000
00032000
00000000
00003200
00000000
00000301
00001000
00000010
00001000
00000000
00001000
,
00000001
00000010
00000100
00001000
00000100
00000000
00010000
00001000
01000000
00001000
00010000
00000000
01000000
10000000
00000000
10000000
,
02000000
00000000
00100000
00000000
00000000
00000000
03010000
00001000
00000010
00000001
00000010
00000000
00000001
00001000
00000000
00001000
,
00000002
00000000
00000203
00000000
00002300
00000000
00023000
00000000
00230000
00000000
10300000
00010000
01000000
00010000
00000000
00010000
,
20000000
00000000
32000000
00000000
03020000
00000000
00032000
00000000
00003020
00000000
00000031
00001000
00000100
00001000
00000000
00001000
,
00000001
00000100
00000010
00001000
00000010
00000000
00010000
00001000
00100000
00001000
00010000
00000000
00100000
10000000
00000000
10000000
,
00200000
00000000
01000000
00000000
00000000
00000000
00310000
00001000
00000100
00000001
00000100
00000000
00000001
00001000
00000000
00001000
,
00000010
00000000
00000100
00000000
00001000
00010000
00000000
00010000
00001000
00000000
00000010
00001000
00000000
00001000
00010000
00000000
,
01000000
00000000
10000000
00000000
00100000
00010000
00000000
00010000
10000000
00000000
10000000
01000000
00000000
01000000
00010000
00000000
,
00100000
00000000
01000000
00000000
00010000
00001000
00000000
00001000
00010000
00000000
00100000
00010000
00000000
00010000
00001000
00000000
,
00000100
00000000
00000001
00000000
00000010
00001000
00000000
00001000
00000001
00000000
00000001
00000100
00000000
00000100
00001000
00000000
,
00000001
00000000
00000100
00000000
00001000
00010000
00000000
00010000
00100000
00000000
00100000
10000000
00010000
01000000
00000000
00100000
,
10000000
00000000
01000000
00000000
00010000
00001000
00000000
00001000
00000010
00000000
00000010
00000001
00001000
00000100
00000000
00000010
,
00000001
00000000
00000100
00000000
00000001
00000010
00000001
00000010
00000100
00000000
00010000
00001000
00010000
00001000
00000000
00001000
,
00100000
00000000
00010000
00000000
01000000
00100000
01000000
00100000
10000000
00000000
01000000
00010000
00001000
00000000
00000000
00000000
,
00010000
00000000
00000100
00000000
00001000
00000000
00000010
00000000
00000000
00000000
00001010
00000000
00000000
00000101
00000000
00000000
,
00000001
00000000
00000010
00000000
00000100
00000000
00010000
00000000
00000000
00000000
00011000
00000000
00000000
00101000
00000000
00000000
,
00100000
00000000
00010000
00000000
01000000
00000000
00100000
00000000
00000000
00000000
10100000
00000000
00000000
01010000
00000000
00000000
,
10000000
00000000
01000000
00000000
00010000
00000000
00001000
00000000
00000000
00001000
00010000
00000000
00000010
00000000
00010000
00000000
,
00001000
00000000
00000100
00000000
00000001
00000000
00000010
00000000
00000000
00000000
00000011
00000000
00000000
00001100
00000000
00000000
,
00001000
00000000
00000100
00000000
00010000
00000000
00001000
00000000
00000000
00000000
01001000
00000000
00000000
01010000
00000000
00000000
,
00010000
00000000
01000000
00000000
10000000
00000000
01000000
00000000
00000000
00000000
01100000
00000000
00000000
10100000
00000000
00000000
,
10000000
00100000
00010000
00001000
00020000
00000000
00031000
00000000
,
00010000
00001000
00000000
00001000
00000010
00000000
00000010
00000001
00001000
00000100
00000010
00000000
00000001
00001000
00000000
00001000
,
00000001
00000100
00000000
00000100
00001000
00000000
00001000
00010000
00100000
00010000
00100000
00000000
10000000
00010000
00000000
00010000
,
01000000
00100000
00000000
00100000
10000000
00000000
01000000
00100000
00010000
00100000
00010000
00000000
00100000
00001000
00000000
00001000
,
00010000
00000100
00001000
00000010
00010000
00000100
00001000
00000010
00010000
00000000
00001000
00000000
00000100
00000001
00000100
00000001
,
00000010
00001000
00000010
00001000
00010000
00000000
00001000
00010000
00001000
00010000
01000000
00000000
10000000
00100000
00000000
00100000
,
00010000
00001000
00010000
00001000
00000100
00000000
00001000
00000100
00001000
00000100
00000001
00000000
00000010
00000100
00000000
00000100
,
00000010
00000001
00000100
00000010
00001000
00000100
00010000
00001000
00100000
00010000
01000000
00100000
10000000
01000000
00100000
00010000
,
20000000
00000000
00000000
00000000
00000000
00000000
00000000
00000000
30000000
00000000
10010000
00000000
00010000
00100000
01000000
10000000
,
00010000
00000000
10000000
00100000
00010000
00000000
00100000
00010000
00001000
00000000
00010000
00001000
00000100
00000001
00001000
00000100
,
00000010
00000000
00000001
00000010
00001000
00000000
00000010
00001000
00010000
00000000
00001000
00010000
01000000
10000000
00010000
00100000
,
01000000
00000000
10000000
00100000
10000000
00100000
00010000
00001000
00010000
00000000
00001000
00000100
00001000
00000100
00000001
00000010
,
00000100
00000000
00000010
00001000
00000010
00001000
00010000
00001000
00010000
00000000
00001000
00010000
00001000
00010000
01000000
00000000
,
10000000
00100000
01000000
00100000
10000000
01000000
00100000
00010000
00100000
00001000
00010000
00001000
00100000
01000000
00000000
01000000
,
00010000
00001000
00010000
00001000
00000010
00000001
00000100
00000010
00001000
00000001
00000100
00000010
00002000
00000000
00003001
00000100
,
00000010
00001000
00000010
00010000
00001000
00010000
00001000
01000000
00010000
01000000
00010000
00100000
01000000
10000000
00100000
00000000
,
10000000
01000000
00000000
01000000
00010000
00000000
00010000
00001000
00000010
00000001
00001000
00000000
00000002
00000000
00000000
00000000
,
00000000
00000000
00000000
00000000
,
00000000
00000000
00000000
00000000
,
00000000
00000000
00000003
00000000
,
00000000
00000000
00000000
00000000
;
