
//----- song ID: gohy -----//
#TITLE:Going Hypersonic;
#ARTIST:Mameyudoufu;
#BANNER:Going Hypersonic.png;
#BACKGROUND:Going Hypersonic-bg.png;
#CDTITLE:./CDTitles/DDR A20 PLUS.png;
#MUSIC:Going Hypersonic.ogg;
#SAMPLESTART:78.478;
#SAMPLELENGTH:15;
#BPMS:0=156;
#STAGE:30;
#NOTES:
     dance-single:
     :
     Beginner:
     4:
     :
0000
0000
0000
0000
,
0000
0000
0000
0000
,
0000
0000
0000
0000
,
0000
0000
0000
0000
,
0000
0000
0000
0000
,
0000
0000
0000
0000
,
0002
0000
0003
0000
,
2000
0000
3000
0000
,
0020
0000
0000
0000
,
0030
0000
0000
0000
,
1000
0000
0100
0000
,
0010
0010
0010
0000
,
0001
0000
0010
0000
,
0001
0000
1000
0000
,
0001
0000
0100
0000
,
0010
0010
0010
0000
,
1000
0000
0010
0000
,
1000
0000
0001
0000
,
1001
0000
0000
0000
,
0100
0000
0010
0000
,
1001
0000
0000
0000
,
0100
0000
0010
0000
,
0001
0000
0010
0000
,
0100
0100
0100
0000
,
1000
0000
0010
0000
,
0100
0100
0100
0000
,
1001
0000
0000
0000
,
1001
0000
0000
0000
,
1000
1000
1000
0000
,
0010
0000
0001
0000
,
0100
0000
0010
0000
,
1001
0000
0000
0000
,
0001
0001
0001
0000
,
0010
0000
1000
0000
,
0100
0000
0010
0000
,
2002
0000
0000
0000
,
3003
0000
0000
0000
,
1000
1000
0100
0000
,
0010
0000
0100
0000
,
0001
0001
0010
0000
,
0100
0000
0010
0000
,
1000
1000
0010
0000
,
0100
0000
0100
0000
,
1001
0000
0000
0000
,
0000
0000
0000
0000
,
1001
0000
0000
0000
,
0000
0000
0000
0000
,
1000
0000
0100
0000
,
0010
0000
0001
0000
,
2000
0000
0000
0000
,
3000
0000
0000
0000
,
1000
0000
0010
0000
,
0100
0100
1000
0000
,
0100
0000
0001
0000
,
0010
0010
0001
0000
,
1000
0000
0010
0000
,
0100
0100
0010
0000
,
1000
0000
0100
0000
,
0001
0001
1000
0000
,
0001
0000
0100
0000
,
0010
1000
0010
0000
,
0100
0000
0010
0000
,
0100
0001
0100
0000
,
0002
0000
0003
0000
,
2000
0000
3000
0000
,
0010
1000
0100
0000
,
0010
0001
0100
0000
,
0020
0000
0030
0000
,
1001
0000
0000
0000
,
0000
0000
0000
0000
;
#NOTES:
     dance-single:
     :
     Easy:
     7:
     :
0000
0000
0000
0000
,
0000
0000
0000
0000
,
0000
0000
0000
0000
,
0000
0000
0000
0000
,
0000
0000
0000
0000
,
0000
0000
0000
0000
,
0010
0000
0100
0000
,
0010
0100
0010
0000
,
1000
0000
0001
0000
,
2002
0000
3003
0000
,
0001
0010
0001
0010
,
0100
0100
0100
0000
,
1000
0010
1000
0010
,
0100
0100
0100
0000
,
0001
0010
1000
0010
,
0001
1000
0001
0000
,
1000
0010
0001
0010
,
1000
0001
1000
0000
,
2000
0000
3100
0000
,
0100
0010
0001
0000
,
0002
0000
0103
0000
,
0100
0010
1000
0000
,
0100
0100
0010
0010
,
0100
0010
0110
0000
,
2002
0000
0000
3003
,
0001
0000
0000
1000
0000
0000
0001
0000
,
2002
0000
0000
3003
,
0001
0100
0010
0000
1000
0000
0010
0000
,
1000
0100
0010
0000
0001
0000
0010
0000
,
0001
0001
0100
0100
,
1000
1000
0010
0010
,
0001
1000
0100
0000
0010
0000
0100
0000
,
1000
0001
0100
0000
0010
0000
0100
0000
,
0010
0010
1000
1000
,
0100
0100
0001
0000
,
1001
0000
0000
0000
,
0010
0100
0010
0100
0010
0000
0110
0000
,
1000
0000
0001
0000
0100
0001
0100
0000
,
0010
0010
1000
1000
,
0001
0000
0100
0000
0001
0010
0100
0000
,
1100
0000
0000
0011
0000
0000
1001
0000
,
0010
1000
0100
0001
,
0020
0000
0000
0030
,
0001
0000
0010
0001
,
0100
0000
1000
0010
,
0100
0000
1000
0100
,
0001
0000
1000
0010
,
0001
0000
0011
0000
,
0101
0000
1001
0000
,
0220
0000
0000
0000
,
0330
0000
0000
0000
,
1000
0000
0001
0000
0100
0010
0100
0000
,
0001
0010
0100
1000
,
0001
0000
0100
0000
0010
1000
0010
0000
,
1000
0100
0001
0000
,
0010
0000
0001
0000
0100
0010
0100
0000
,
0010
1000
0100
0000
0010
0000
0001
0000
,
1000
1000
0010
0010
,
0001
0010
1000
0000
,
0001
0000
0100
0000
0010
1000
0100
0000
,
0010
0001
0100
0001
,
1000
0000
0010
0000
1000
0100
0010
0000
,
0001
0100
1000
0000
,
1010
0000
0000
1010
0000
0000
0000
0000
,
0011
0000
0000
0011
0000
0000
0000
0000
,
1000
0100
0001
0100
,
2000
0000
0000
3000
,
0220
0000
0000
0330
,
1001
0000
0000
0000
,
0000
0000
0000
0000
;
#NOTES:
     dance-single:
     :
     Medium:
     12:
     :
0000
0000
0000
0000
,
0000
0000
0000
0000
,
0000
0000
0000
0000
,
0000
0000
0000
0000
,
0000
0000
0000
0000
,
0000
0000
0000
0000
,
0001
0000
0100
0000
0001
0010
0001
0000
,
1000
0000
0100
0000
1000
0010
1000
0000
,
0100
0010
0001
0000
0100
0010
1000
0000
,
0010
0000
0000
0010
0000
0000
0010
0000
0000
0010
0000
0000
0010
0000
0000
0000
,
1000
0100
0001
0100
1000
0010
0100
0001
,
1000
0000
0000
1000
0000
0000
1000
0000
0010
0000
0100
0000
0001
0000
0100
0000
,
0001
1000
0100
0010
0001
1000
0010
0100
,
0001
0000
0001
0100
0010
0000
1001
0000
,
0001
0100
1000
0100
0001
1000
0100
0010
,
0001
0000
0000
0001
0000
0000
0001
0000
0100
0000
0010
0000
1000
0000
0010
0000
,
0100
0001
0100
0010
1000
0001
1000
0000
,
0110
0000
0000
0000
0000
0000
0000
0000
0010
0000
0000
0010
0000
0000
0010
0000
,
2000
0100
0001
3100
,
0002
0013
2000
3010
,
0002
0100
1000
0103
,
2000
3100
0002
0103
,
1010
0000
1010
0000
0100
0010
0001
0000
,
1000
0000
0000
0010
0000
0000
0100
0000
0001
0000
1000
0000
0001
0000
0000
0000
,
2002
0000
0000
3003
,
0100
0000
0000
0100
0000
0000
0100
0000
0000
0100
0000
0000
0100
0000
0000
0000
,
2002
0000
0000
3003
,
0001
0100
0010
0100
0001
0010
0100
1000
,
0010
1000
0100
1000
0010
0000
1001
0000
,
1000
0010
0001
0000
1000
0010
0001
0000
,
1000
0100
0001
0100
1000
0000
1001
0000
,
1000
0100
0010
0100
1000
0010
0100
0001
,
0010
0001
0100
0001
0010
0000
1001
0000
,
0001
0010
1000
0000
0001
0010
1000
0000
,
0001
0100
1000
0100
0001
0000
0110
0000
,
2002
0000
0000
3003
,
0010
0000
0100
0000
0001
0000
1000
0000
0001
1000
0001
1000
0001
0000
0000
0000
,
0100
0001
0010
0001
0100
0001
0010
0000
,
0100
1000
0010
1000
0100
1000
0010
0000
,
1000
0001
0100
0010
1000
0001
0010
0100
,
1000
0000
0001
1000
0000
0001
1000
0000
0001
1000
0000
0001
1000
0000
0000
0000
,
0001
1000
0001
1000
0001
0010
0100
1000
,
0200
0000
0000
0300
,
0020
0000
0031
0100
,
0020
0000
1030
0001
,
0100
0000
0000
0000
0000
0000
0001
1000
0001
0000
0000
0010
0000
0000
0001
0000
,
1000
0010
0200
0300
,
1001
0000
0110
0000
,
1001
0000
0110
0000
,
2002
0000
0000
3003
,
0100
0000
0010
0000
0100
0010
0000
0100
0010
0000
0000
0000
0110
0000
0000
0000
,
1000
0000
0000
0001
0000
0000
0100
0000
0001
0000
0000
1000
0000
0000
0100
0000
,
1000
0000
0010
0000
0001
0000
0010
0000
1000
0000
0000
1000
0000
0000
1000
0000
,
0001
0000
0000
0010
0000
0000
0001
0000
1000
0000
0000
0010
1000
0000
0100
0000
,
0010
0001
0010
0001
1000
0100
0010
0001
,
1001
0000
0100
1000
0010
1000
0100
1000
,
0001
0000
0000
0001
0000
0000
0001
0000
1000
0000
0000
1000
0000
0000
1000
0000
,
1001
0000
0000
0010
0000
0000
0010
0000
1001
0000
0000
0100
0000
0000
0100
0000
,
0001
0100
0010
1000
0001
0100
0010
1000
,
0001
0000
0000
1000
0000
0000
0010
0000
1000
0000
0000
0001
0000
0000
0010
0000
,
0001
0000
0100
0000
1000
0000
0100
0000
0001
0000
0000
0001
0000
0000
0001
0000
,
1000
0000
0000
0100
0000
0000
1000
0000
0001
0000
0000
0010
0001
0000
0100
0000
,
0010
1000
0010
1000
0001
0100
0010
1000
,
1001
0000
0000
0001
0000
0000
1001
0000
0000
1000
0000
0000
1001
0000
0000
0000
,
0010
0100
0000
0010
0000
0000
0100
0010
0000
0100
0000
0000
0110
0000
0000
0000
,
1000
0010
0001
0010
1000
0100
0001
0100
,
0010
0000
0000
0010
0000
0000
0010
0000
0000
0010
0000
0000
0010
0000
0000
0000
,
0220
0000
0000
0330
,
1001
0000
0000
0000
,
0000
0000
0000
0000
;
#NOTES:
     dance-single:
     :
     Hard:
     15:
     :
0000
0000
0000
0000
,
0000
0000
0000
0000
,
0000
0000
0000
0000
,
0000
0000
0000
0000
,
0000
0000
0000
0000
,
0000
0000
0000
0000
,
1000
0000
0100
0000
0001
0000
0100
0000
1000
0000
0000
1000
0000
0000
1000
0000
,
0001
0000
0100
0000
1000
0000
0100
0000
0001
0000
0000
0001
0000
0000
0001
0000
,
0010
0001
0100
0010
1000
0100
0110
0000
,
0011
0000
0000
0101
0000
0000
1010
0000
0000
1100
0000
0000
1001
0000
0000
0000
,
1000
0000
0010
0001
0000
0010
0000
1000
0000
0001
1000
0000
0001
0010
0100
1000
,
0010
0000
0000
0110
0000
0000
1010
0000
0001
0100
0000
0100
0000
0000
0010
0000
,
1001
0000
0000
0000
1000
0100
0000
0100
0000
0010
0100
0000
1000
0100
0010
0001
,
0100
0000
0000
0000
0010
1000
0010
1000
0000
0001
0000
0100
0001
1000
0001
0000
,
1001
0000
0000
0000
0001
0010
0000
1000
0000
0010
0001
0000
1000
0010
0100
0001
,
0010
0000
0000
0011
0000
0000
1100
0000
0000
1010
0000
0000
0100
0001
0100
0000
,
0110
0000
0000
0000
0010
1000
0100
1000
0000
0001
0010
0000
0100
0010
0001
0000
,
1002
0000
0000
0000
0103
0000
0000
0000
0110
0000
0000
0110
0000
0000
0110
0000
,
2001
0000
0100
0000
0010
0010
3010
0000
,
1002
0000
0100
0000
0010
0010
0013
0000
,
1000
0010
0001
0000
1000
0100
0001
0000
,
1010
0000
0000
0000
0101
0000
0010
1000
0100
0000
0000
0000
1001
0000
0000
0000
,
0011
0000
0000
0010
0001
0000
0100
0000
1010
0000
0000
0010
1000
0000
0100
0000
,
0011
0000
0000
1010
0000
0000
0101
0000
1000
0000
0010
0000
0100
0001
1000
0100
,
1000
0000
0000
0000
0001
0100
0010
0000
1000
0100
0010
0000
0001
0100
0010
0000
,
1010
0000
0000
0011
0000
0000
0101
0000
0000
1100
0000
0000
0110
0000
0000
0000
,
2002
0000
0000
3003
,
0001
0000
0100
0000
0001
0100
0000
0001
0100
0000
0001
0010
0000
0100
1000
0000
,
0010
0000
1000
0000
0010
1000
0000
0010
1000
0000
0100
0010
0000
0001
1000
0000
,
0010
0000
0100
0000
0110
0000
1000
0010
0100
0000
0001
0010
0100
0000
1000
0010
,
0100
0000
1000
0000
0100
0000
0001
0000
0100
0000
0100
0010
0000
0000
0100
0000
,
0010
0000
1000
0000
0010
1000
0000
0010
1000
0000
0100
0010
0000
0001
1000
0000
,
0001
0000
0100
0000
0001
0100
0000
0001
0100
0000
0001
0010
0000
0100
1000
0000
,
0001
0000
0010
0100
0010
0000
0001
0100
0000
0010
0000
0100
0010
1000
0010
0000
,
0200
0000
0000
0310
,
2002
0000
0000
3003
,
1000
0010
0100
0001
1000
0010
0100
0000
0001
0010
0100
1000
0001
0000
0000
0000
,
1000
0000
0100
0000
1000
0100
0000
0100
1000
0000
1000
0010
0000
0010
0100
0000
,
0001
0000
0010
0000
0100
0000
0010
0000
1000
0000
0010
0100
0000
0000
0100
0000
,
1000
0000
0100
0000
1000
0010
0000
0010
0100
0000
0001
0010
0000
0010
0100
0000
,
0010
0000
0001
0010
0000
1000
0010
0000
0001
0010
0000
1000
0010
0100
0010
0000
,
0001
0000
0010
0000
0100
1000
0001
1000
0000
0010
0000
0100
0001
0100
0001
0000
,
0020
0000
0000
0130
,
2002
0000
0000
0000
3003
0000
0000
0000
1000
0000
0000
1000
0000
0000
1000
0000
,
0100
0000
0000
0100
0000
0000
0100
0000
0010
0000
0000
0001
0000
0000
0010
0000
,
0002
0000
0000
0000
0003
0000
0100
0010
1000
0000
0000
0001
0000
0000
1000
0000
,
0200
0320
0032
1003
,
1001
0000
1010
0000
,
0011
0000
0110
0000
,
1100
0000
0000
0001
0000
0000
0101
0000
0000
1000
0000
0000
1100
0000
0010
0000
,
0220
0000
0000
0330
,
0101
0000
0001
0010
0000
0001
0010
0000
1100
0000
1000
0010
0000
0000
1000
0010
,
1000
0000
0001
0100
0000
0001
0000
0100
0010
0000
0000
1000
0000
0000
0010
0000
,
0110
0000
1000
0001
0000
1000
0001
0000
0110
0000
0000
1000
0001
0100
0010
1000
,
0001
0000
0100
0000
0001
0010
0100
0010
0001
0100
0000
0100
0010
0000
0100
0000
,
1001
0000
0000
0000
0010
1000
0100
0000
0100
1000
0010
0000
0100
0001
0010
0001
,
0100
0010
0000
0100
0000
0010
0100
0000
0001
0000
1000
0001
0000
1000
0001
0000
,
1001
0000
0100
1000
0000
0001
0010
0000
1001
0000
0100
0001
0000
1000
0010
0000
,
1000
0000
0100
0000
0010
0001
0000
1001
0000
0001
0100
0000
0010
0100
0010
0000
,
1010
0000
1000
0100
0000
0100
1000
0000
0011
0000
0001
0100
0000
0000
0100
0001
,
0100
0000
0010
1000
0000
1000
0010
0000
1010
0000
0100
0001
0000
0001
0100
0000
,
0110
0000
0001
1000
0000
1000
0001
0000
0110
0000
0000
0001
1000
0010
0100
0001
,
1000
0000
0010
0000
1000
0100
0010
0100
1000
0010
0000
0100
0010
0000
0010
0000
,
1001
0000
0000
0101
0000
0000
1100
0000
0000
0011
0000
0000
1010
0000
0000
0000
,
0001
0100
0000
0001
0000
0000
1000
0100
0000
1000
0000
0000
1001
0000
0000
0000
,
1000
0000
0010
0000
1000
0000
0010
0000
0100
0001
0100
0001
0010
0001
0010
0000
,
0011
0000
0000
1010
0000
0000
0101
0000
0000
1100
0000
0000
0110
0000
0000
0000
,
2002
0000
0000
3003
,
0110
0000
0000
0000
,
0000
0000
0000
0000
;
#NOTES:
     dance-single:
     :
     Challenge:
     17:
     :
0000
0000
0000
0000
,
0000
0000
0000
0000
,
0000
0000
0000
0000
,
0000
0000
0000
0000
,
0000
0000
0000
0000
,
0000
0000
0000
0000
0000
0000
0000
0000
0000
0001
1000
0000
0001
0000
0001
0000
,
1001
0000
1000
0000
0010
0000
0100
0001
0100
0000
0000
0010
0000
1000
0100
0010
,
0000
0000
0001
0000
1000
0000
0001
0100
0001
0100
0000
0010
0000
0100
0001
1000
,
0100
0010
0001
0010
0100
1000
0001
1000
0100
0010
0001
0100
0010
0000
0000
0000
,
1010
0000
0000
1100
0000
0000
0101
0000
0000
0011
0000
0000
0110
0000
0000
0000
,
1001
0000
0000
1000
0100
0001
0000
0100
0000
0010
0001
0000
1000
0010
0100
0001
,
0100
0000
0000
0001
0000
0100
1000
0000
0100
0001
0000
1000
0001
0010
0001
0100
,
0001
0000
0000
1000
0010
0100
0000
0010
0000
1000
0100
1000
0100
0010
0100
0010
,
0001
0000
0000
0000
1000
0001
0100
1000
0000
0100
0000
0001
0000
0010
0100
1000
,
1001
0000
0000
0000
0001
0010
0000
1000
0000
0010
0001
0000
1000
0100
0010
0001
,
0100
0000
0010
1000
0000
1000
0100
0000
0010
0001
1000
0001
0010
0001
1000
0001
,
0010
0000
0000
0100
0010
0001
0000
0100
0000
0010
1000
0010
0100
0001
0010
0100
,
1000
0000
0000
0000
0001
0100
0010
0000
0110
0000
0000
1001
0000
0000
0110
0000
,
2000
0000
0000
3200
0000
0000
0301
0000
0002
0000
0000
0203
0000
0000
1300
0001
,
2000
0000
3010
0200
0000
0000
0310
0000
0110
0000
0000
0000
0001
0010
0100
1000
,
0002
0000
0000
0203
0000
0000
1300
0000
2000
0000
0000
3200
0000
0000
0301
0000
,
1001
0000
0000
0000
0110
0000
1000
0010
0001
0000
0000
0000
0110
0000
0000
0000
,
1001
0000
0000
0001
0100
0000
1000
0000
1001
0000
0000
0001
0010
0000
1000
0000
,
1001
0000
0000
1100
0000
0000
0101
0000
0010
1000
0010
0000
0100
0001
0100
0000
,
1001
0000
0000
0000
1000
0100
0010
0001
0100
0010
1000
0100
0010
0001
0100
0010
,
1000
0000
0000
1010
0000
0000
0011
0000
0000
0101
0000
0000
1100
0000
0000
0000
,
1000
0100
1000
0100
0010
0001
0010
0001
1000
0100
0010
0001
1000
0000
0000
0000
,
1001
0000
0001
0000
0010
0001
0000
0001
0100
0000
0100
1000
0000
1000
0100
0000
,
0110
0000
0010
0000
1000
0100
0000
0100
0001
0000
0001
0100
0000
0100
1000
0000
,
0010
0000
0110
0000
1000
0010
0001
0010
1000
0100
0001
0100
0010
0001
0100
0010
,
0001
0000
0010
0000
1000
0000
0001
0000
0100
0000
0100
0010
0000
0000
0010
0000
,
1001
0000
1000
0000
0100
1000
0000
1000
0010
0000
0010
0001
0000
0001
0010
0000
,
0110
0000
0100
0000
0001
0010
0000
0010
1000
0000
1000
0010
0000
0000
0010
0001
,
0000
0000
1000
0100
0010
0100
0001
0100
0000
0001
0100
1000
0001
0010
0100
1000
,
0010
0000
0001
0000
0010
0000
1000
0000
0001
0000
0001
0100
0000
0000
0100
0000
,
0110
0000
0010
0000
1000
0001
0000
1000
0001
0000
1000
0001
0000
0000
0000
0000
,
1000
0100
0010
0001
1000
0100
0010
0001
1000
0001
1000
0001
1000
0000
0000
0000
,
0001
0000
1000
0000
0100
0001
0000
0001
0100
0000
1000
0010
0000
0010
0001
0000
,
0010
0000
1000
0000
0100
0000
1000
0000
0010
0000
1000
0001
0000
0000
0001
0000
,
1000
0000
0100
0000
0010
0001
0000
0001
0100
0000
0010
1000
0000
1000
0100
0000
,
1000
0010
1000
0001
0010
0001
1000
0100
1000
0001
0100
0001
1000
0001
1000
0000
,
0010
0000
1000
0100
0010
1000
0010
0100
0000
1000
0000
0001
0100
0010
0001
0010
,
0100
0000
0000
0000
0000
0000
0001
0000
0000
0000
0000
0000
0010
0000
0000
0000
0000
0000
1000
0000
0000
0000
0000
0000
0010
0000
0000
0000
0000
0000
0001
0000
0000
1000
0000
0000
0100
0000
1000
0000
0100
0000
1000
0000
0100
0000
1000
0000
,
0200
0000
0000
0000
,
0320
0000
0000
0000
,
0032
0000
0000
0000
,
2003
0000
0000
0000
0000
0000
3020
0000
0000
0000
0000
0000
2030
0000
0000
0000
0000
0000
3001
1000
0001
1000
0001
1000
,
0002
0003
2200
3300
,
0022
0033
2200
3300
,
2002
0000
3000
2000
0000
0003
0002
0000
3000
2000
0000
0003
3001
0000
1000
0000
,
0010
0000
0100
0000
0010
0100
0000
0100
0010
0100
0000
0220
0000
0000
0330
0000
,
1001
0000
1000
0010
0000
0100
0001
0000
0010
0000
0001
0100
0000
0010
1000
0010
,
1000
0000
0100
0001
0000
0100
0000
0010
0001
0000
1000
0001
0000
0001
1000
0000
,
1001
0000
0001
0100
0000
0010
1000
0000
0001
0000
0000
1000
0001
0010
0100
0010
,
0001
0000
0100
0010
1000
0100
1000
0010
0001
0010
0100
0001
0000
0001
1000
0000
,
1001
0000
0000
0000
0001
0010
0100
1000
0001
0100
0010
1000
0001
0010
0100
1000
,
0001
0000
0100
0000
0001
0000
1000
0000
0000
0000
0001
0010
0001
0000
0100
0000
0001
0000
0000
0000
0010
0000
0100
0000
0000
0000
0100
0000
0010
0000
0000
0000
,
0001
0000
0100
1000
0000
0001
0010
0000
1000
0000
0100
0001
0000
1000
0010
0001
,
0010
0000
0001
0000
0100
0010
0000
0110
0000
1000
0010
0100
0001
0100
0010
0000
,
0110
0000
0100
0001
0000
1000
0010
0000
0100
0000
0001
0010
0000
0100
1000
0001
,
1000
0000
0100
0010
0000
0010
0001
0000
1000
0000
0001
0100
0000
1000
0100
0000
,
0001
0000
0010
0100
0000
0100
1000
0000
0001
0000
0000
0100
1000
0100
0001
1000
,
0010
0000
0100
0001
0010
0001
0100
0010
1000
0100
1000
0010
1000
0100
0010
0000
,
0011
0000
0000
0101
0000
0000
1100
0000
0000
1010
0000
0000
1001
0000
0000
0000
,
1000
0100
0000
0100
0001
1000
0010
0001
0000
0001
0100
1000
0001
0010
1000
0000
,
0010
0000
0010
0000
0100
0000
0100
0000
0001
0100
0010
1000
0001
0010
0100
1000
,
0001
0000
0000
0101
0000
0000
1100
0000
0000
1010
0000
0000
0011
0000
0000
0000
,
1000
0100
0001
0100
1000
0010
0001
0010
1000
0100
0001
0100
1000
0000
0000
0000
,
1001
0000
0000
0000
,
0000
0000
0000
0000
;
#NOTES:
     dance-double:
     :
     Easy:
     7:
     :
00000000
00000000
00000000
00000000
,
00000000
00000000
00000000
00000000
,
00000000
00000000
00000000
00000000
,
00000000
00000000
00000000
00000000
,
00000000
00000000
00000000
00000000
,
00000000
00000000
00000000
00000000
,
00010000
00000000
00000100
00000000
,
00000010
00000000
00000010
00000000
,
00000001
00000000
00001000
00000000
,
00000010
00000010
00000010
00000000
,
00000001
00001000
00000100
00000000
,
00010000
00001000
00010000
00000000
,
00001000
01000000
00010000
00000000
,
00100000
01000000
10000000
00000000
,
01000000
01000000
01000000
00000000
,
00010000
00010000
00010000
00000000
,
00001000
00010000
00001000
00000000
,
00022000
00000000
00033000
00000000
,
00000010
00001000
00000010
00000100
,
00000001
00000001
00000001
00000000
,
00000001
00000100
00001000
00010000
,
00001000
00001000
00001000
00000000
,
00100000
00010000
01000000
00100000
,
10100000
00000000
01010000
00000000
,
00001000
00010000
00001000
00010000
,
00022000
00000000
00000000
00033000
,
00011000
00000000
00000000
00000000
,
00000010
00000000
00001000
00000000
00000001
00000100
00000001
00000000
,
00000010
00000000
00000100
00000000
00001000
00000100
00001000
00000000
,
00000100
00010000
00001000
00100000
,
00010000
00010000
00010000
00000000
,
00100000
00000000
00010000
00000000
10000000
01000000
10000000
00000000
,
00100000
00000000
01000000
00000000
00010000
01000000
00010000
00000000
,
01000000
00001000
00010000
00000010
,
00001000
00001000
00001000
00000000
,
00000001
00000100
00001000
00010000
,
00100000
00000000
10000000
00000000
00010000
10000000
00010000
00000000
,
01000000
00100000
01000000
00000000
00010000
00000000
00100000
00000000
,
00001000
00001000
00001000
00000000
,
00000010
00000001
00000010
00000001
,
00001000
00000001
00001000
00000001
00001000
00000000
00000110
00000000
,
00010000
00001000
00010000
00000000
,
00022000
00000000
00000000
00033000
,
00200000
00000000
00310000
00000000
,
02000000
00000000
13000000
00000000
,
00020000
00000000
01030000
00000000
,
00002000
00000000
00013000
00000000
,
00001100
00000000
00000000
00000000
00000010
00000001
00000010
00000000
,
00000101
00000000
00000000
00000000
00000010
00001000
00000010
00000000
,
00000220
00000000
00000000
00000000
,
00000330
00000000
00000000
00000000
,
00100000
00010000
00100000
00000000
00010000
00000000
10000000
00000000
,
01000000
00100000
00001000
00010000
,
00000100
00001000
00000100
00000000
00000010
00000000
00000001
00000000
,
00000100
00000100
00000010
00000010
,
00001000
00000100
00001000
00000000
00000001
00000010
00000001
00000000
,
00000100
00001000
00010000
00001000
,
00011000
00000000
01010000
00000000
,
00100000
00100000
00100000
00000000
,
01000000
00010000
01000000
00000000
00010000
00000000
10000000
00000000
,
00100000
01000000
00001000
00010000
,
00000010
00001000
00000010
00000000
00000100
00000000
00000001
00000000
,
00000010
00000010
00000100
00000100
,
00001000
00000000
00000000
00000010
00000000
00000000
00001000
00000000
,
00010000
00000000
00000000
00001000
00000000
00000000
00010000
00000000
,
00011000
00000000
00110000
00000000
,
01000000
01000000
01000000
00000000
,
00100000
00001000
00010000
00001000
,
00011000
00000000
00000000
00000000
,
00000000
00000000
00000000
00000000
;
#NOTES:
     dance-double:
     :
     Medium:
     12:
     :
00000000
00000000
00000000
00000000
,
00000000
00000000
00000000
00000000
,
00000000
00000000
00000000
00000000
,
00000000
00000000
00000000
00000000
,
00000000
00000000
00000000
00000000
,
00000000
00000000
00000000
00000000
,
10000000
01000000
00100000
00100000
,
00010000
00100000
00001000
00001000
,
00010000
00000100
00001000
00000100
00001000
00000100
00000010
00000000
,
00002002
00000000
00000000
00003003
,
00000001
00000000
00000010
00000001
00000000
00000010
00000001
00000000
00001000
00000000
00000100
00000000
00001000
00000000
00000000
00000000
,
00000010
00000000
00000100
00000000
00001000
00010000
00001000
00000000
,
00100000
00000000
00010000
01000000
00000000
00010000
01000000
00000000
00010000
00000000
10000000
00000000
01000000
00000000
00000000
00000000
,
00100000
00001000
00010000
00001000
,
00000100
00000001
00000100
00000000
00000001
00000010
00000100
00000000
,
00000010
00001000
00010000
00001000
00010000
00000000
01000000
00000000
,
10000000
00100000
10000000
00000000
00100000
00010000
00001000
00000000
,
00022000
00000000
00000000
00033000
,
00000100
00000000
00000000
00000100
00000000
00000000
00000100
00000000
00001000
00000000
00000000
00001000
00000000
00000000
00001000
00000000
,
00000010
00000000
00000000
00000010
00000000
00000000
00000010
00000000
00000010
00000000
00000000
00000000
00001001
00000000
00000000
00000000
,
00000100
00000000
00000000
00000100
00000000
00000000
00000100
00000000
00001000
00000000
00000000
00001000
00000000
00000000
00001000
00000000
,
00010000
00001000
00010000
00001000
,
01000000
00000000
00000000
01000000
00000000
00000000
01000000
00000000
00010000
00000000
00000000
00010000
00000000
00000000
00010000
00000000
,
10000000
00000000
00000000
10000000
00000000
00000000
10000000
00000000
00100000
00000000
00100000
00000000
00100000
00000000
00000000
00000000
,
20020000
00000000
00000000
30030000
,
01000000
00000000
00000000
01000000
00000000
00000000
00010000
00000000
00000000
00010000
00000000
00000000
00001000
00000000
00000000
00000000
,
00022000
00000000
00000000
00033000
,
00000010
00000000
00001000
00000000
00000010
00001000
00000000
00000000
00000001
00000000
00000000
00000001
00000000
00000000
00000001
00000000
,
00000100
00000000
00000010
00000000
00000100
00000010
00000000
00000000
00001000
00000000
00000000
00001000
00000000
00000000
00001000
00000000
,
00000100
00000100
00010000
00010000
00001000
00001000
00100000
00100000
,
00010000
00000000
01000000
00000000
00010000
00000000
00100000
00000000
01000000
00000000
10000000
01000000
00000000
00000000
01000000
00000000
,
00100000
00000000
00010000
00000000
00100000
00010000
00000000
00000000
10000000
00000000
00000000
10000000
00000000
00000000
10000000
00000000
,
01000000
00000000
00100000
00000000
01000000
00100000
00000000
00000000
00010000
00000000
00000000
00010000
00000000
00000000
00010000
00000000
,
01000000
01000000
00001000
00001000
00010000
00010000
00000010
00000010
,
00001000
00000000
00000100
00000000
00001000
00000000
00000010
00000000
00000100
00000000
00000001
00000100
00000000
00000000
00000100
00000000
,
00000010
00000000
00001000
00000000
00000000
00000001
00000000
00000000
00001000
00000000
00000000
00000001
00000000
00000000
00001000
00000000
,
00000010
00000100
00000010
00000100
00000010
00000100
00000010
00000000
,
00000100
00000000
00001000
00000000
00010000
00001000
00000000
00000000
01000000
00000000
00000000
01000000
00000000
00000000
01000000
00000000
,
00010000
00000000
10000000
00000000
00010000
00000000
01000000
00000000
00100000
00000000
10000000
00100000
00000000
00000000
00100000
00000000
,
10000000
00000000
01000000
00000000
10000000
01000000
00000000
00000000
00100000
00000000
00000000
00100000
00000000
00000000
00100000
00000000
,
00001000
00000000
00000000
00001000
00000000
00000000
00010000
00000000
00000000
00010000
00000000
00000000
00011000
00000000
00000000
00000000
,
00000100
00000000
00001000
00000000
00000100
00000000
00000010
00000000
00000000
00000001
00000000
00000000
00000001
00000000
00000100
00000000
,
00000020
00000000
00000000
00000030
,
00000100
00000000
00000000
00000000
00000000
00000000
00000000
00000000
00001000
00000000
00000000
00001000
00000000
00000000
00000000
00000000
,
00010000
00000000
00000000
00010000
00000000
00000000
00000000
00000000
00001000
00000000
00000000
00001000
00000000
00000000
00000000
00000000
,
02000000
00000000
00000000
00000000
03000000
00000000
00000000
00000000
00010000
00000000
00000000
00010000
00000000
00000000
00000000
00000000
,
10000000
00010000
10010000
00000000
,
01100000
00000000
00000000
00000000
00000000
00000000
00000000
00000000
00001000
00000000
00000000
00001000
00000000
00000000
00000000
00000000
,
00010000
00000000
00000000
00010000
00000000
00000000
00000000
00000000
00000100
00000000
00000000
00000100
00000000
00000000
00000000
00000000
,
00000010
00000000
00000000
00000001
00000000
00000000
00001000
00000000
00000000
00000001
00000000
00000000
00001000
00000000
00000000
00000000
,
00002002
00000000
00000000
00003003
,
00000010
00000000
00001000
00000010
00000000
00001000
00000010
00000000
00010000
00000000
00001000
00010000
00000000
00001000
00010000
00000000
,
00001000
01000000
00010000
00100000
00001000
01000000
00010000
00000000
,
01000000
00000000
00100000
10000000
00000000
00100000
10000000
00000000
01000000
00000000
00100000
00010000
00000000
00100000
00010000
00000000
,
00101000
00011000
00010100
00001100
,
00000110
00000000
00000010
00000001
00000100
00000001
00000100
00000001
,
00000100
00000010
00001000
00000010
00010000
00001000
00010000
00000000
,
00001000
00010000
00100000
00010000
00001000
00010000
00100000
00000000
,
10000000
01000000
00010000
01000000
10000000
01000000
00100000
00000000
,
00100000
00000000
00010000
00100000
00000000
00010000
00100000
00000000
00001000
00000000
00010000
00001000
00000000
00010000
00001000
00000000
,
00010000
00000100
00001000
00000010
00010000
00000100
00001000
00000000
,
00000100
00000000
00000010
00000001
00000000
00000010
00000001
00000000
00000100
00000000
00000010
00001000
00000000
00000010
00001000
00000000
,
00010010
00011000
01001000
01010000
,
00100000
10000000
01000000
10000000
00100000
00010000
00001000
00000000
,
00000010
00000001
00000100
00000001
00000010
00001000
00010000
00000000
,
00100000
01000000
00001000
00010000
00000100
00000010
00001000
00010000
,
00002000
00000000
00000000
00003000
,
00010000
00001000
00010000
00001000
00010000
00001000
00010000
00000000
,
00011000
00000000
00000000
00000000
,
00000000
00000000
00000000
00000000
;
#NOTES:
     dance-double:
     :
     Hard:
     15:
     :
00000000
00000000
00000000
00000000
,
00000000
00000000
00000000
00000000
,
00000000
00000000
00000000
00000000
,
00000000
00000000
00000000
00000000
,
00000000
00000000
00000000
00000000
,
00000000
00000000
00000000
00000000
,
00000001
00000100
00000001
00000010
,
00000100
00010000
00001000
01000000
,
00100000
00000000
10000000
00000000
01000000
00000000
00100000
00000000
00010000
01000000
00001000
00010000
00001000
00000000
00000000
00000000
,
00000100
00000000
00001000
00000010
00000000
00000100
00000001
00000000
00000100
00001000
00000000
00010000
00001000
00000000
00000000
00000000
,
00100000
00000000
00010000
00000000
01000000
00000000
00010000
00000000
00100000
00000000
01000000
00000000
10000000
01000000
00100000
00000000
,
00010000
00000000
01000000
00100000
00000000
00100000
00010000
00000000
00010000
00001000
00000000
00001000
00000100
00000000
00000000
00000000
,
00000010
00000000
00001000
00000000
00000100
00000000
00001000
00000000
00000001
00000000
00000100
00000000
00000010
00001000
00000001
00000000
,
00000100
00000000
00001000
00010000
00000000
00010000
00100000
00000000
10000000
00100000
00000000
00100000
01000000
00000000
00100000
00000000
,
10010000
00000000
00000000
00000000
01000000
00100000
01000000
00100000
00000000
00100000
01000000
00000000
00100000
10000000
01000000
00000000
,
00100000
00000000
00001000
00100000
00000000
00100000
00001000
00000000
00010000
00000100
00000000
00001000
00000100
00000000
00000010
00000000
,
00000110
00000000
00000000
00000000
00000001
00000000
00000010
00000001
00000000
00000001
00000100
00000000
00001000
00010000
00001000
00000000
,
00022000
00000000
00000000
00000000
00033000
00000000
00000000
00000000
00011000
00000000
00000000
00011000
00000000
00000000
00011000
00000000
,
00001000
00000000
00000000
00001000
00000000
00000000
01000000
00000000
00100000
00000000
00000000
00100000
00000000
00000000
10000000
01000000
,
10000000
00000000
01000000
00100000
00000000
00100000
00001000
00000000
00010000
00000000
00000000
00000000
00001000
00010000
00001000
00010000
,
00000100
00000000
00000000
00000100
00000000
00000000
00001000
00000000
00000010
00000000
00000000
00000010
00000000
00000000
00000100
00000000
,
00000010
00000000
00000000
00000000
00000110
00000000
00000001
00000100
00001000
00000000
00000000
00000000
00010000
00000000
00000000
00000000
,
00001000
00000000
01000000
00010000
00000000
01000000
00010000
00000000
10000000
00000000
01000000
10000000
00000000
01000000
00100000
00000000
,
00001000
00000000
00010000
00001000
00000000
00010000
00001000
00000000
00011000
00000000
00000000
00000000
00000100
00001000
00000010
00000100
,
00000002
00000000
00000013
00001000
00010000
01000000
10000000
00000000
,
00100000
00000000
01000000
00001000
00000000
00010000
00001000
00000000
00010000
00000100
00000000
00001000
00000100
00000000
00000000
00000000
,
00002002
00000000
00000000
00003003
,
00000010
00000000
00001000
00000000
00000100
00000000
00000001
00000000
00000100
00000000
00001000
00000000
00000010
00000100
00000010
00000000
,
00000100
00000000
00001000
00000000
00010000
00000000
00100000
00000000
01000000
00000000
00010000
00000000
00100000
00010000
00100000
00000000
,
01000000
00010000
00001000
00010000
01000000
00010000
00001000
00010000
,
00100000
00100000
01000000
01000000
00010000
10000000
00010000
00000000
,
00100000
00000000
00010000
00000000
01000000
00000000
10000000
00000000
01000000
00000000
00010000
00000000
00100000
01000000
00100000
00000000
,
01000000
00000000
00010000
00000000
00001000
00000000
00000010
00000000
00000100
00000000
00001000
00000000
00000010
00001000
00000010
00000000
,
00000100
00001000
00010000
00001000
00000100
00001000
00010000
00001000
,
00000010
00000010
00000100
00000100
00001000
00000001
00001000
00000000
,
00002002
00000000
00000000
00003003
,
00000001
00000100
00001000
00000000
00010000
00000000
00001000
00000000
00010000
00100000
10000000
00000000
00010000
00000000
00000000
00000000
,
10000000
00000000
01000000
00000000
00010000
00000000
01000000
00000000
10000000
00000000
00100000
00000000
01000000
10000000
01000000
00000000
,
00010000
00100000
00001000
00010000
00000100
00001000
00000010
00000000
,
00000001
00000000
00000100
00000000
00001000
00000000
00000100
00000000
00000001
00000000
00000010
00000000
00000100
00000001
00000100
00000000
,
00001000
00000000
00000100
00010000
00000000
00010000
00001000
00000000
00001000
00100000
00000000
00100000
00010000
00000000
01000000
00000000
,
10000000
01000000
00001000
00010000
00100000
00010000
00001000
00000100
,
00000002
00000000
00000000
00000003
,
00002002
00000000
00000000
00000000
00003003
00000000
00000000
00000000
00000100
00000000
00000000
00000001
00000000
00000000
00000010
00000000
,
00000100
00000000
00000000
00010000
00000000
00000000
00001000
00000000
00010000
00000000
00000000
00000100
00000000
00000000
00010000
00000000
,
02000000
00000000
00000000
00000000
13000000
00000000
01000000
00000000
00100000
00000000
00000000
00010000
00000000
00000000
01000000
00000000
,
00200000
00320000
00032000
00003100
,
00000110
00000000
00011000
00000000
,
01100000
00000000
00011000
00000000
,
00022000
00000000
00000000
00000000
,
00033000
00000000
00000000
00000000
,
00000010
00000000
00001000
00000000
00000001
00000100
00000010
00000000
00001000
00000000
00000100
00000000
00000010
00000100
00001000
00000000
,
00000100
00000000
00010000
00001000
00000000
00010000
00001000
00000000
00100000
00000000
00010000
01000000
00000000
00010000
01000000
00000000
,
00100000
00000000
10000000
00000000
01000000
00100000
00010000
00000000
10000000
00000000
00100000
00000000
01000000
00001000
00010000
00001000
,
00010000
00000000
00000100
00000000
00001000
00000010
00000100
00000000
00000001
00000010
00000100
00000000
00001000
00000001
00001000
00000001
,
00001000
00000000
00000001
00000000
00001000
00000010
00001000
00000000
00000100
00010000
00000100
00000000
00010000
00001000
00010000
00000000
,
00001000
00100000
00001000
00000000
00100000
00010000
00100000
00000000
01000000
00100000
01000000
00000000
10000000
00100000
10000000
00000000
,
01000000
00100000
00001000
00010000
01000000
00100000
00001000
00010000
,
01000000
00010000
00001000
00000100
00001000
00010000
00001000
00000000
,
00000100
00000000
00000001
00000000
00000010
00000100
00001000
00000000
00000001
00000000
00000100
00000000
00000010
00010000
00001000
00000000
,
01000000
00000000
00100000
10000000
00000000
10000000
00100000
00000000
01000000
00000000
00010000
00100000
00000000
00100000
00010000
00000000
,
00100000
00000000
00001000
00000000
00010000
00000010
00001000
00000000
00000010
00000000
00010000
00000000
00000100
00001000
00000100
00001000
,
00000001
00000000
00000010
00000100
00001000
00000000
00000010
00000000
00000100
00000000
00001000
00000000
00010000
00100000
01000000
00000000
,
00100000
00000000
10000000
00010000
00000000
10000000
00010000
00000000
00100000
01000000
00000000
00100000
01000000
00000000
00010000
00000000
,
00001000
00000100
00000000
00000100
00000000
00000000
00000001
00000010
00000000
00000010
00000000
00000000
00000001
00000000
00001000
00000000
,
00000100
00010000
00001000
00000000
00100000
00010000
00100000
00000000
01000000
10000000
00010000
00000000
10000000
01000000
00100000
00000000
,
00001000
00000000
00010000
00000100
00000000
00001000
00000100
00000000
00000010
00000001
00000000
00001000
00000001
00000000
00000000
00000000
,
00000200
00000000
00000000
00000310
,
00001001
00000000
00000000
00000000
,
00000000
00000000
00000000
00000000
;
#NOTES:
     dance-double:
     :
     Challenge:
     17:
     :
00000000
00000000
00000000
00000000
,
00000000
00000000
00000000
00000000
,
00000000
00000000
00000000
00000000
,
00000000
00000000
00000000
00000000
,
00000000
00000000
00000000
00000000
,
00000000
00000000
00000000
00000000
00000000
00000000
00000000
00000000
00000000
00001000
00010000
00000000
00001000
00000000
00001000
00000000
,
00011000
00000000
00100000
00000000
00001000
00000000
00010000
00001000
00100000
00000000
00000000
01000000
00000000
10000000
01000000
00100000
,
00000000
00000000
00001000
00000000
00010000
00000000
00001000
00010000
00000010
00001000
00000000
00000010
00000000
00000100
00000001
00001000
,
00000001
00000010
00000001
00000010
00000100
00001000
00000001
00000100
00000010
00001000
00000001
00000100
00001000
00000000
00000000
00000000
,
01100000
00000000
00000000
10100000
00000000
00000000
01010000
00000000
00000000
01100000
00000000
00000000
10010000
00000000
00000000
00000000
,
00110000
00000000
00000000
00100000
01000000
10000000
00000000
00100000
00000000
10000000
01000000
00000000
00010000
00001000
00010000
00000100
,
00000010
00000000
00000000
00000001
00000000
00001000
00000010
00000000
00000000
00000100
00000000
00000001
00000010
00000100
00001000
00000100
,
00010000
00000000
00000000
00010000
00001000
00000000
00001000
01000000
00000000
00010000
10000000
00010000
00100000
01000000
10000000
00010000
,
01000000
00000000
00000000
00000000
00010000
10000000
01000000
00100000
00000000
00001000
00000000
00000010
00000000
00000001
00000010
00000100
,
00001000
00000000
00000000
00000001
00000100
00001000
00000000
00010000
00000000
00100000
01000000
00000000
00010000
10000000
00010000
10000000
,
00100000
00000000
00000000
00010000
00000000
00000000
00001000
00000000
00000000
00000010
00000100
00001000
00000100
00000010
00000001
00001000
,
00000010
00000000
00000000
00000100
00000001
00001000
00000000
00000100
00000000
00010000
00001000
00010000
00001000
00100000
00010000
00100000
,
01000000
00000000
00000000
00000000
10000000
01000000
00010000
00000000
00011000
00000000
00000000
00000110
00000000
00000000
00000001
00000000
,
00002000
00000000
00000000
00003200
00000000
00000000
00000320
00000000
00000230
00000000
00000000
00020300
00000000
00000000
00031000
00010000
,
00002000
00000000
01003000
00020000
00000000
00000000
00230000
00000000
00302000
00000000
00000000
00000000
00013000
00001000
00010000
00001000
,
00020000
00000000
00000000
00030200
00000000
00000000
00000320
00000000
00000032
00000000
00000000
00000203
00000000
00000000
00002300
00000000
,
00023000
00000000
00000000
00000000
00032000
00000000
00103000
00010000
00200000
00000000
00000000
00000000
00302000
00000000
00003000
00000000
,
00011000
00000000
00000000
00010000
00001000
00000000
00000100
00000000
00000110
00000000
00000000
00010000
00001000
00000000
00000010
00000000
,
00000110
00000000
00000000
00010100
00000000
00000000
00011000
00000000
01001000
00000000
01000000
00000000
00010000
00000000
00100000
00000000
,
01000000
00000000
00000000
00000000
10000000
01000000
10000000
01000000
00100000
00010000
10000000
00100000
10000000
00100000
01000000
00010000
,
00100000
00000000
00000000
01100000
00000000
00000000
00110000
00000000
00000000
00101000
00000000
00000000
00011000
00000000
00000000
00000000
,
00001000
00010000
00001000
00010000
00001000
00010000
00001000
00010000
00000100
00001000
00000001
00000100
00000010
00000000
00000000
00000000
,
00001001
00000000
00000001
00000000
00000010
00000001
00000000
00000100
00001000
00000000
00000000
00100000
00000000
00000000
00001000
00000000
,
00010000
00000000
00100000
00000000
10000000
01000000
00000000
00100000
00010000
00000000
00000000
01000000
00000000
00000000
00100000
00000000
,
00000000
00000000
01000000
00000000
00010000
10000000
01000000
00100000
00010000
10000000
01000000
00010000
00001000
00010000
00000100
00010000
,
00001000
00000000
00000010
00000000
00000100
00000000
00010000
00000000
00001000
00000000
00000100
00000010
00000000
00000000
00010000
00000000
,
00001000
00000000
01000000
00000000
10000000
01000000
00000000
00100000
00010000
00000000
00000000
00000100
00000000
00000000
00000010
00000000
,
00000001
00000000
00000010
00000000
00000100
00010000
00000000
00001000
01000000
00000000
00000000
00100000
00000000
00000000
10000000
00010000
,
00000000
00000000
10000000
01000000
00100000
00010000
10000000
01000000
00010000
00001000
00000000
00010000
00001000
00000010
00000001
00001000
,
00000100
00000000
00000010
00000000
00001000
00000000
00010000
00000000
00001000
00000000
00000100
00000020
00000000
00000000
00000030
00000000
,
00001001
00000000
00000000
00000000
00000000
00000101
00000000
00001000
00000001
00000000
00000000
00000100
00000000
00000000
00000000
00000000
,
00000001
00000100
00000010
00001000
00000100
00010000
00001000
00100000
00010000
01000000
00100000
10000000
00010000
00000000
00000000
00000000
,
10000000
00000000
00010000
00000000
01000000
00100000
00000000
00010000
00001000
00000000
00000000
00000010
00000000
00000000
00000001
00000000
,
00000010
00000000
00000100
00000000
00010000
00000000
00001000
00000000
00000100
00000000
00000010
00000100
00000000
00000000
00000001
00000000
,
00001000
00000000
00000001
00000000
00000100
00001000
00000000
00010000
00100000
00000000
00000000
10000000
00000000
00000000
10000000
00000000
,
01000000
00100000
00010000
00000000
01000000
00100000
00000000
00100000
00010000
00000000
00010000
00001000
00000000
00001000
00000010
00000000
,
00000100
00000000
00010000
00001000
00010000
00000100
00001000
00000100
00000010
00000001
00000000
00000001
00000100
00000010
00001000
00000100
,
00010000
00000000
00000000
00000000
00000000
00000000
00001000
00000000
00000000
00000000
00000000
00000000
00010000
00000000
00000000
00000000
00000000
00000000
01000000
00000000
00000000
00000000
00000000
00000000
10000000
00000000
00000000
00000000
00000000
00000000
00100000
00000000
00000000
01000000
00000000
00000000
00010000
00000000
01000000
00000000
00010000
00000000
01000000
00000000
00010000
00000000
01000000
00000000
,
00020000
00000000
00000000
00000000
00000000
00000000
00000000
00000000
00230000
00000000
00000000
00302000
00000000
00000000
00023000
00000000
,
00030200
00000000
00000000
00000320
00000000
00000000
00000032
00000000
00000203
00000000
00000000
00002300
00000000
00000000
00023000
00000000
,
00032000
00000000
00000000
00000000
00000000
00000000
00103000
00010000
00200000
00000000
00000000
02300000
00000000
00000000
23000000
00000000
,
30200000
00000000
00000000
00000000
00000000
00000000
00320000
00000000
00000000
00000000
00000000
00000000
00032000
00000000
00000000
00000000
00000000
00000000
00013000
00001000
00010000
00001000
00010000
00001000
,
00020000
00000000
02030000
00000000
,
23000000
00000000
30200000
00000000
,
01000000
00000000
00000000
01000000
00000000
00000000
01000000
00000000
00000000
01000000
00000000
00000000
01300000
00000000
01000000
00000000
,
00010000
00000000
10000000
00000000
00100000
01000000
00000000
00100000
01000000
00010000
00000000
00200000
00000000
00000000
00300000
00000000
,
00010000
00000000
10000000
01000000
00000000
00010000
00001000
00000000
00000010
00000000
00000001
00000100
00000000
00001000
00010000
00000000
,
00001000
00000000
01000000
00010000
00000000
00100000
00000000
01000000
10000000
00000000
00000000
00010000
00000000
00000000
00010000
00000000
,
10000000
00000000
00100000
00010000
00000000
00001000
00010000
00000000
00000100
00000000
00000000
00010000
00001000
00000010
00000001
00000010
,
00000100
00000000
00001000
00000001
00001000
00000001
00000100
00000010
00001000
00000001
00000100
00001000
00000000
00010000
00001000
00000000
,
00100000
00000000
00010000
00100000
01000000
10000000
00010000
01000000
00000000
00010000
10000000
00100000
01000000
00010000
00100000
00001000
,
00010000
00000000
00000100
00000000
00000000
00000000
00010000
00000000
00001000
00000000
00010000
00001000
00010000
00000000
00001000
00000000
00010000
00000000
00000000
00000000
00000100
00000000
00000010
00000000
00000000
00000000
00000001
00000000
00000100
00000000
00000000
00000000
,
00000010
00000000
00010000
00001000
00000000
01000000
00010000
00000000
00100000
00000000
01000000
10000000
00000000
00100000
01000000
00010000
,
00100000
00000000
00001000
00000000
00010000
00001000
00000000
00100000
00000000
00001000
00010000
00000100
00001000
00000001
00000100
00000000
,
00000001
00000000
00000100
00001000
00000000
00010000
00100000
00000000
10000000
00000000
01000000
00010000
00000000
00001000
00000010
00000000
,
00000001
00000000
00000100
00000010
00001000
00000010
00010000
00000000
00001000
00000000
01000000
00010000
01000000
00100000
01000000
00000000
,
00010000
00000000
10000000
01000000
00000000
00010000
00001000
00000000
00000100
00000000
00000000
00000001
00000100
00000010
00001000
00000001
,
00000100
00001000
00010000
00001000
00010000
01000000
10000000
01000000
00100000
00010000
00000000
10000000
00000000
00010000
01000000
00000000
,
10100000
00000000
00000000
01001000
00000000
00000000
00011000
00000000
00000000
00010100
00000000
00000000
00001000
00000100
00000010
00000001
,
00000010
00000100
00000000
00010000
00001000
00001000
01000000
00010000
00000000
00100000
00000000
00000000
00010000
00100000
01000000
10000000
,
00100000
00000000
00100000
00000000
01000000
00000000
01000000
00000000
00010000
10000000
00100000
01000000
00010000
00100000
00001000
00010000
,
00001000
00000000
00000000
01001000
00000000
00000000
01010000
00000000
00000000
01100000
00000000
00000000
11000000
00000000
00000000
00000000
,
00100000
00000000
01000000
00000000
00010000
10000000
01000000
00100000
00010000
00001000
00000100
00000010
00000001
00000000
00000000
00000000
,
00001001
00000000
00000000
00000000
,
00000000
00000000
00000000
00000000
;
