
//----- song ID: guil -----//
#TITLE:GUILTY DIAMONDS;
#ARTIST:SOUND HOLIC Vs. Eurobeat Union feat. Nana Takahashi;
#BANNER:GUILTY DIAMONDS.png;
#BACKGROUND:GUILTY DIAMONDS-bg.png;
#CDTITLE:./CDTitles/DDR A20 PLUS.png;
#MUSIC:GUILTY DIAMONDS.ogg;
#SAMPLESTART:75.976;
#SAMPLELENGTH:15;
#BPMS:0=84,12=168;
#NOTES:
     dance-single:
     :
     Beginner:
     3:
     :
0000
0000
0000
0000
,
0000
0000
0000
0000
,
0000
0000
0000
0000
,
1000
0000
0000
0000
,
1000
0000
0000
0000
,
0001
0000
0000
0000
,
0001
0000
0000
0000
,
0010
0000
0000
0000
,
0010
0000
0000
0000
,
0100
0000
0000
0000
,
0100
0000
0000
0000
,
0001
0000
0001
0000
,
1000
0000
0000
0000
,
1000
0000
1000
0000
,
0001
0000
0000
0000
,
0010
0000
0010
0000
,
0100
0000
0000
0000
,
0100
0000
0100
0000
,
0010
0000
0000
0000
,
1000
0000
0000
0000
,
0100
0000
0000
0000
,
0010
0000
0000
0000
,
0001
0000
0000
0000
,
0100
0000
0100
0000
,
0010
0000
0010
0000
,
1000
0000
1000
0000
,
0001
0000
0001
0000
,
0100
0000
0000
0000
,
0001
0000
0000
0000
,
1000
0000
0000
0000
,
0100
0000
0000
0000
,
0010
0000
0010
0000
,
0100
0000
0100
0000
,
1000
0000
1000
0000
,
0001
0000
0001
0000
,
2002
0000
3003
0000
,
0010
0000
0010
0000
,
0001
0000
0001
0000
,
1000
0000
1000
0000
,
2002
0000
3003
0000
,
0010
0000
0010
0000
,
1000
0000
1000
0000
,
0001
0000
0001
0000
,
2000
0000
3000
0000
,
0002
0000
0003
0000
,
2000
0000
3000
0000
,
0002
0000
0003
0000
,
0010
0000
0010
0000
,
0100
0000
0100
0000
,
0001
0000
0001
0000
,
1001
0000
0000
0000
,
0001
0000
0000
0000
,
0001
0000
0000
0000
,
1000
0000
0000
0000
,
1000
0000
0000
0000
,
0010
0000
0010
0000
,
0100
0000
0100
0000
,
0002
0000
0003
0000
,
2000
0000
3000
0000
,
0010
0000
0010
0000
,
0100
0000
0100
0000
,
0001
0000
1000
0000
,
0001
0000
0000
0000
,
0100
0000
0100
0000
,
0010
0000
0010
0000
,
1000
0000
0001
0000
,
2002
0000
3003
0000
,
0010
0000
0010
0000
,
0100
0000
0100
0000
,
0001
0000
1000
0000
,
2002
0000
3003
0000
,
0001
0000
0001
0000
,
1000
0000
0000
0000
,
1000
0000
1000
0000
,
0001
0000
0000
0000
,
0010
0000
0010
0000
,
0100
0000
0000
0000
,
0100
0000
0100
0000
,
0010
0000
0000
0000
,
1001
0000
0000
0000
,
0000
0000
0000
0000
;
#NOTES:
     dance-single:
     :
     Easy:
     7:
     :
0000
0000
0000
0000
,
0000
0000
0000
0000
,
0000
0000
0000
0000
,
0001
0100
0010
0000
,
1000
0100
0010
0000
,
0001
1000
0100
0000
,
1000
0001
0100
0000
,
0002
1000
0100
1003
,
2000
0001
0100
3001
,
1000
0000
0100
0000
0010
0000
0002
2000
,
0000
0000
0000
3003
,
0010
0010
1000
1000
,
0001
0100
0010
1000
,
0100
0100
0010
0010
,
0001
0001
1000
0001
,
0100
0100
0001
0001
,
1000
0010
0100
0001
,
0010
0010
0100
0100
,
1000
0100
1001
0000
,
2000
3000
0002
0003
,
0020
0030
0200
0300
,
0010
0000
0010
0000
0100
0000
0100
0020
,
0000
0000
0000
0130
,
0010
0001
0100
0010
,
1000
1000
0001
0001
,
0010
0100
0010
0100
,
1000
0000
0001
1000
0000
1001
0000
0000
,
0001
0001
1000
1000
,
0010
0010
0100
0100
,
0001
0100
0001
0000
1000
0100
1000
0000
,
0010
0100
0001
1000
,
0100
0100
0010
0010
,
0100
0010
0001
1000
,
0100
0100
0010
0010
,
2002
0000
0000
3003
,
0001
0010
0100
1000
,
0010
0100
0001
1000
,
0001
0001
1000
1000
,
0010
0010
0100
0110
,
1000
0100
1000
0100
,
0010
0001
0010
0001
,
0100
0100
0010
0010
,
1000
1000
0110
1001
,
0001
0010
0100
0010
,
0001
1000
0100
0010
,
0100
1000
0001
0100
,
0010
0100
0001
1000
,
0100
0001
0100
1000
,
0001
0100
1000
0100
,
0001
0010
0100
0010
,
1001
0000
0000
0000
,
0001
0010
0001
0000
0100
0000
0010
0000
,
1000
0100
0010
0001
,
1000
0010
0010
0100
,
0001
0010
0100
1000
,
0001
0010
0001
0000
0100
0000
0010
0000
,
1000
1000
0010
0100
,
0002
0013
0200
1300
,
0020
0000
0130
0100
,
0001
0100
1001
0000
,
1000
0100
1001
0000
,
0001
0010
1000
0010
,
0001
0001
1000
1000
,
0010
0100
0110
0000
,
1000
0100
0010
0001
,
1000
1000
0001
0001
,
2002
0000
0000
3003
,
0100
0010
1000
0000
,
0001
1000
0001
0000
,
0100
0000
0010
0000
1000
0000
0001
2000
,
0000
0000
0000
3000
,
0100
0100
1000
1000
,
0001
0010
0100
1000
,
0010
0010
0100
0100
,
0001
0001
1000
0001
,
0010
0010
0001
0001
,
1000
0100
0010
0001
,
0100
0100
0010
0010
,
1000
0010
1001
0000
,
0220
0000
0000
0000
,
0000
0000
0000
0000
,
0000
0000
0000
0000
,
0000
0000
0000
0000
,
0000
0000
0000
0000
,
0330
0000
0000
0000
,
0000
0000
0000
0000
;
#NOTES:
     dance-single:
     :
     Medium:
     10:
     :
0000
0000
0000
0000
,
0000
0000
0000
0000
,
0000
0000
0000
0000
,
0001
0010
0001
0000
1000
0100
0000
0100
,
0000
1000
0010
0000
0100
0001
0000
0001
,
0000
0010
0001
0000
1000
0100
0000
0100
,
0000
1000
0010
0000
0100
0001
0000
0001
,
0020
0100
0000
0100
0000
0100
0000
0100
,
0230
1000
0000
1000
0000
1000
0000
1000
,
2300
0001
0001
0000
0001
0001
0000
0002
,
0000
0000
0000
3003
,
0001
0000
0100
0000
0001
0000
0000
0000
1000
0000
0000
0100
0000
0000
1000
0000
,
0000
0100
1000
0100
0010
0000
0110
0000
,
0010
0000
0100
0000
0010
0000
0000
0000
0100
0000
0000
1000
0000
0000
0001
0000
,
0000
1000
0100
0010
0001
0000
1001
0000
,
1000
0000
0100
0000
1000
0000
0000
0000
0001
0000
0000
0100
0000
0000
0001
0000
,
0000
0100
0001
0100
0010
0000
0110
0000
,
0010
0100
0010
0000
0100
0000
0001
1000
,
0000
0001
0100
0010
1000
0000
1001
0000
,
0002
0013
0200
1300
,
0020
0130
0002
1003
,
1000
0010
0100
0000
0001
0100
0010
2000
,
0000
0000
0000
3001
,
0100
0000
0010
0000
0100
0010
1000
0002
,
0000
0000
0103
0000
0100
0010
0000
1000
,
0100
0010
0001
1000
,
0010
0000
0010
0100
0000
1001
0000
0000
,
0001
0010
0100
0000
1000
0010
0100
0000
,
0001
0100
0010
0000
1000
0100
0010
0000
,
0001
1000
0100
0000
1000
0001
0010
0200
,
0000
0000
0000
0000
0000
2300
0000
0000
,
3010
1000
0001
0000
0100
0001
1000
0000
,
0010
0100
0010
0000
1000
0001
0100
0010
,
1000
0100
0010
0001
,
1000
0001
0010
0200
0000
0310
0001
0100
,
0020
0000
1000
0000
0130
0010
1000
0001
,
0100
0001
0010
0100
,
1100
0000
0000
0011
0000
0000
1010
0000
,
0000
0101
0000
0000
0110
0000
1001
0000
,
0001
0010
0100
0000
0010
0000
0100
0000
,
1000
0010
0100
0000
0001
0000
1000
0000
,
1001
0000
0000
0011
0000
0000
1010
0000
,
0000
0110
0000
0000
1100
0000
0101
0000
,
0100
0001
0010
0000
0100
0000
0010
0000
,
0100
1000
0010
0000
0100
0000
0010
0000
,
1000
0100
0001
0000
0100
0000
1000
0000
,
0001
0100
1000
0000
0100
0000
0001
0000
,
0010
0001
0010
0000
0100
0000
1000
0000
,
0010
1000
0010
0000
0100
0000
0001
0000
,
0010
0100
0010
0000
0100
0010
0001
1000
,
0000
1010
0101
0110
,
0010
1000
0010
0000
0100
0000
0010
0000
,
0100
0001
0100
0000
0001
0000
0010
0000
,
0100
0011
0110
1100
,
0001
0010
0001
0000
1000
0010
1000
0000
,
0020
0000
0000
0100
0130
0000
0100
0010
,
1000
0011
1010
1001
,
0020
1000
0001
0100
,
0230
0000
0000
0000
0310
1000
0001
0100
,
0010
0100
1001
1000
,
0001
1000
0001
0000
1001
0000
0100
0000
,
0010
0011
0110
1100
,
1000
0001
0100
0000
0010
1000
0001
0000
,
0100
0000
0010
0000
0200
0000
0000
0310
,
0000
1000
0001
0100
0000
0000
0010
0000
,
2000
0000
0000
0000
3002
0000
0000
2000
,
0000
0000
0000
0000
3003
0001
0100
0001
,
0100
0000
1010
0000
0102
0000
0000
1003
,
0000
0001
0010
0100
0000
0000
0010
0000
,
0002
0000
0000
0000
2003
0000
0000
0002
,
0000
0000
0000
3003
,
1000
0000
0010
0000
1000
0000
0000
0000
0001
0000
0000
0010
0000
0000
0001
0000
,
0000
0010
0001
0010
0100
0000
0110
0000
,
0100
0000
0010
0000
0100
0000
0000
0000
0010
0000
0000
0001
0000
0000
1000
0000
,
0000
0001
0010
0100
1000
0000
1001
0000
,
0001
0000
0010
0000
0001
0000
0000
0000
1000
0000
0000
0010
0000
0000
1000
0000
,
0000
0010
1000
0010
0100
0000
0110
0000
,
0100
0010
0100
0000
0010
0000
1000
0001
,
0000
1000
0010
0100
0001
0000
1001
0000
,
0220
0000
0000
0000
,
0000
0000
0000
0000
,
0000
0000
0000
0000
,
0000
0000
0000
0000
,
0000
0000
0000
0000
,
0330
0000
0000
0000
,
0000
0000
0000
0000
;
#NOTES:
     dance-single:
     :
     Hard:
     14:
     :
0000
0000
0000
0000
,
0000
0000
0000
0000
,
0000
0000
0000
0000
,
1000
0010
0010
0000
0100
0100
0000
0110
,
0000
0001
0001
0000
0010
0010
0000
0110
,
0000
0100
0100
0000
1000
1000
0000
1001
,
0000
0100
0100
0000
0010
0010
0000
0110
,
0002
0100
0100
0000
0010
0010
0000
0013
,
0200
1000
1000
0000
0010
0010
0000
0310
,
0002
1000
1000
0000
1003
0110
0000
2002
,
0000
0000
0000
3003
,
0001
0000
0010
0000
1000
0000
0010
0000
0001
0000
0000
1000
0000
0000
0001
0000
,
0000
0000
1000
0000
0010
0000
0001
0000
0010
0000
0000
0100
0000
0000
0010
0000
,
1000
0000
0100
0000
1000
0000
0100
0000
0010
0000
0000
0001
0000
0000
0010
0000
,
0000
0001
0001
0001
0010
0010
0100
0100
,
1000
0000
0010
0000
0001
0000
0010
0000
1000
0000
0000
0001
0000
0000
1000
0000
,
0000
0000
0001
0000
0010
0000
1000
0000
0010
0000
0000
0100
0000
0000
0010
0000
,
0001
0100
0001
0100
0110
0000
1010
0101
,
0000
1000
0100
0010
0001
0000
1001
0000
,
2000
0010
3200
0001
,
2300
0010
3002
1000
,
0013
0001
1000
0000
0100
1000
0010
2000
,
0001
0100
3010
1010
,
0101
0000
1000
0000
0001
1000
0010
0200
,
0000
0000
0310
1000
0100
0010
0000
1001
,
0000
0010
0100
0000
0100
0010
0000
0100
,
0110
0000
1000
0001
0000
1001
0000
0000
,
0001
0100
0001
0000
0010
0000
0100
0000
0010
0100
0010
0000
0100
0000
1000
0000
,
0100
1000
0100
0000
1000
0000
0001
0000
1000
0001
1000
0000
0100
0000
0010
0000
,
0001
0010
0001
0000
0100
0000
0010
0000
1000
0100
1000
0000
0001
0000
0100
0010
,
0100
0001
1000
0010
0100
0220
0000
0330
,
0100
0010
0100
0000
0001
0000
1000
0000
0010
0100
0010
0000
1000
0000
0001
0000
,
0010
0001
0010
0000
0100
0000
1000
0000
0010
0100
0010
0000
1000
0000
0001
0000
,
0100
0100
0000
0100
0010
0010
0000
0100
,
0001
0100
0010
2000
0000
3010
0100
0001
,
0020
0000
0001
0000
1030
0010
0001
0100
,
0020
0000
2030
0000
3001
1000
0000
0010
,
0100
0100
0000
0001
0001
0000
1000
1000
,
0000
0010
0010
0000
1000
0100
0010
0001
,
2000
0000
0001
0000
3010
1000
0100
0010
,
0001
0000
0011
0000
1100
1000
0000
0001
,
0100
0110
0000
0010
1010
0000
1000
1001
,
0000
0001
0011
0000
0110
0000
1001
0000
,
0001
0100
0010
1000
0010
0001
1000
0100
,
0001
1000
0100
0010
0001
0010
1000
0001
,
0100
0010
0001
1000
0100
0010
0001
0100
,
0010
1000
0001
0100
0010
1000
0001
0100
,
0010
1000
2000
0000
0001
3002
0000
1003
,
0100
0010
0020
0000
0130
0200
0000
0310
,
0001
0010
0011
0000
0100
1100
0000
0220
,
0000
0000
0000
0330
,
0001
0100
0001
0000
0010
0000
0100
0000
1000
0100
1000
0000
0010
0000
0100
0000
,
0001
0010
0001
0000
0100
0000
1000
0000
0100
0010
0100
0000
0001
0000
0010
0000
,
0100
1000
0100
0000
0010
0000
0001
0000
0010
0100
0010
0000
0001
0000
0100
0000
,
0010
1000
0010
0000
0100
0000
0001
0000
0010
0001
0010
0000
0001
0000
0100
0000
,
0002
0000
1003
0010
0010
0000
0100
0010
,
1010
0000
0101
0000
0010
0001
0000
0101
,
0001
0100
1000
0100
0001
1000
0010
0001
,
0010
0100
0010
0000
1000
0000
0001
0000
0010
0100
0010
0000
0001
0000
1000
0000
,
0010
1000
0010
0000
0202
0000
0303
0100
,
0000
0000
0001
0000
0010
0000
0000
0000
0011
0000
0000
0001
0000
0000
0100
0000
,
0110
0000
1010
0000
0101
0000
0110
0010
,
1000
0100
0001
0100
1000
0001
0100
1000
,
0100
0010
0100
0000
0001
0000
0000
0000
0011
0000
0000
0000
0000
0000
1100
0000
,
0000
0010
0100
0020
0000
0000
1030
0100
,
0020
0000
0000
0000
0032
0000
1000
2000
,
0000
0000
0000
0000
3003
1000
0100
0001
,
0100
0010
0100
0000
1000
0000
0000
0000
1010
0000
0000
0000
0000
0000
0101
0000
,
0000
0100
0010
0200
0000
0000
0301
0100
,
0020
0000
0000
0000
2030
0000
0001
0002
,
0000
0000
0000
3003
,
1000
0000
0010
0000
0001
0000
0010
0000
1000
0000
0000
0001
0000
0000
1000
0000
,
0000
0000
0001
0000
0010
0000
1000
0000
0010
0000
0000
0100
0000
0000
0010
0000
,
0001
0000
0100
0000
0001
0000
0100
0000
0010
0000
0000
1000
0000
0000
0010
0000
,
0000
1000
1000
1000
0010
0010
0100
0100
,
0001
0000
0010
0000
1000
0000
0010
0000
0001
0000
0000
1000
0000
0000
0001
0000
,
0000
0000
1000
0000
0010
0000
0001
0000
0010
0000
0000
0100
0000
0000
0010
0000
,
1000
0100
1000
0100
0110
0000
0011
1100
,
0000
0001
0100
0010
1000
0000
1001
0000
,
0220
0000
0000
0000
,
0000
0000
0000
0000
,
0000
0000
0000
0000
,
0000
0000
0000
0000
,
0000
0000
0000
0000
,
0330
0000
0000
0000
,
0000
0000
0000
0000
;
#NOTES:
     dance-double:
     :
     Easy:
     7:
     :
00000000
00000000
00000000
00000000
,
00000000
00000000
00000000
00000000
,
00000000
00000000
00000000
00000000
,
10000000
00010000
00100000
00000000
,
00001000
00010000
00000100
00000000
,
00000010
00000001
00000100
00000000
,
00000010
00001000
00000100
00000000
,
00020000
00001000
00000100
00031000
,
00002000
00010000
01000000
00013000
,
00001000
00000000
00100000
00000000
00010000
00000000
02000000
00200000
,
00000000
00000000
00000000
03300000
,
10000000
10000000
01000000
00100000
,
00001000
00010000
00001000
00010000
,
00001000
00001000
00000100
00000010
,
00001000
00001000
00000001
00000100
,
00000001
00000001
00000010
00000100
,
00010000
00001000
00010000
00001000
,
00010000
00010000
00100000
01000000
,
00010000
00010000
10010000
00000000
,
20000000
30000000
00020000
00030000
,
00002000
00003000
00000002
00000003
,
00000010
00000000
00000010
00000000
00000100
00000000
00000100
00000020
,
00000000
00000000
00000000
00000130
,
00001000
00000100
00010000
00001000
,
00100000
00010000
01000000
00100000
,
10000000
10000000
00010000
00010000
,
01000000
00000000
00100000
01000000
00000000
01100000
00000000
00000000
,
10000000
01000000
00010000
00001000
,
00000100
00000001
00000010
00000100
,
00000010
00000001
00000100
00001000
,
00010000
00100000
10000000
01000000
,
10000000
00100000
01000000
00010000
,
00100000
00001000
00010000
00000100
,
00000010
00000010
00000100
00000100
,
00000220
00000000
00000000
00000330
,
00000001
00000100
00001000
00010000
,
00001000
00010000
00100000
10000000
,
01000000
01000000
00100000
00100000
,
00010000
00010000
10000000
10010000
,
10000000
01000000
00010000
00001000
,
00010000
00001000
00000010
00000001
,
00000100
00000100
00000010
00000010
,
00001000
00001000
00000110
00001001
,
00000001
00000100
00000010
00001000
,
00000100
00010000
00001000
00100000
,
00010000
01000000
00100000
10000000
,
01000000
00010000
00001000
00000010
,
00000001
00000100
00001000
00010000
,
01000000
10000000
00100000
01000000
,
00010000
00100000
00001000
00010000
,
00011000
00000000
00000000
00000000
,
00010000
00001000
00010000
00000000
00000100
00000000
00000010
00000000
,
00000001
00000100
00000010
00001000
,
00000100
00001000
00001000
00000100
,
00010000
00001000
00100000
01000000
,
10000000
01000000
10000000
00000000
00100000
00000000
01000000
00000000
,
00001000
00001000
00010000
00001000
,
00020000
00031000
00200000
00310000
,
02000000
00000000
03100000
00100000
,
10000000
01000000
10010000
00000000
,
00100000
00001000
00011000
00000000
,
00001000
00000100
00000001
00000100
,
00001000
00001000
00010000
00010000
,
00001000
00100000
01100000
00000000
,
10000000
01000000
00100000
00010000
,
00100000
00100000
00001000
00001000
,
00022000
00000000
00000000
00033000
,
00001000
00000100
00000001
00000000
,
00000010
00000100
00000010
00000000
,
00000100
00000000
00010000
00000000
00001000
00000000
00100000
00020000
,
00000000
00000000
00000000
00030000
,
00100000
00100000
00001000
00001000
,
00010000
00001000
00000100
00000001
,
00000010
00000010
00000100
00000100
,
00000010
00000001
00000100
00001000
,
00010000
00010000
00001000
00001000
,
00010000
00100000
10000000
01000000
,
00100000
00100000
01000000
01000000
,
00100000
00001000
00010000
00000000
,
00022000
00000000
00000000
00000000
,
00000000
00000000
00000000
00000000
,
00000000
00000000
00000000
00000000
,
00000000
00000000
00000000
00000000
,
00000000
00000000
00000000
00000000
,
00033000
00000000
00000000
00000000
,
00000000
00000000
00000000
00000000
;
#NOTES:
     dance-double:
     :
     Medium:
     10:
     :
00000000
00000000
00000000
00000000
,
00000000
00000000
00000000
00000000
,
00000000
00000000
00000000
00000000
,
10000000
00100000
01000000
00000000
00010000
00100000
00000000
00100000
,
00000000
00001000
00010000
00000000
00000100
00000010
00000000
00000010
,
00000000
00000001
00000100
00000000
00000010
00001000
00000000
00001000
,
00000000
00000100
00010000
00000000
00001000
00100000
00000000
01000000
,
00200000
00010000
00000000
00010000
00000000
00010000
00000000
00010000
,
00320000
01000000
00000000
01000000
00000000
01000000
00000000
01000000
,
02030000
00001000
00001000
00000000
00001000
00001000
00000000
00002000
,
00000000
00000000
00000000
03003000
,
00001000
00000000
00010000
00000000
00001000
00000000
00000000
00000000
00001000
00000000
00000000
00100000
00000000
00000000
00001000
00000000
,
00000000
00001000
00000100
00000010
00000100
00000000
00000110
00000000
,
00000001
00000000
00000010
00000000
00000100
00000000
00000000
00000000
00000100
00000000
00000000
00010000
00000000
00000000
00001000
00000000
,
00000000
00100000
00001000
00010000
00001000
00000000
00011000
00000000
,
00010000
00000000
00001000
00000000
00010000
00000000
00000000
00000000
00010000
00000000
00000000
00000010
00000000
00000000
00010000
00000000
,
00000000
00010000
01000000
00100000
01000000
00000000
01100000
00000000
,
10000000
00100000
01000000
00000000
01000000
00000000
00001000
00010000
,
00000000
00000010
00010000
00001000
00010000
00000000
00011000
00000000
,
00020000
01030000
20000000
30100000
,
02000000
03010000
00200000
00301000
,
00010000
00001000
00000100
00000000
00000010
00001000
00000100
00000020
,
00000000
00000000
00000000
00000031
,
00000100
00000000
00001000
00000000
00010000
00001000
00100000
00020000
,
00000000
00000000
10030000
00000000
01000000
00100000
00000000
00010000
,
00100000
00001000
00010000
00000100
,
00000010
00000000
00000001
00000010
00000000
00000011
00000000
00000000
,
00000001
00000100
00001000
00000000
00000100
00001000
00010000
00000000
,
00001000
00010000
01000000
00000000
00010000
01000000
10000000
00000000
,
00100000
01000000
00010000
00000000
00100000
00001000
00010000
00002000
,
00000000
00000000
00000000
00000000
00000000
00023000
00000000
00000000
,
00031000
00010000
00000100
00000000
00000010
00000001
00001000
00000000
,
00000001
00000100
00000010
00000000
00001000
00000100
00010000
00001000
,
01000000
00100000
10000000
00010000
,
10000000
00010000
00100000
00002000
00000000
00013000
00000100
00001000
,
00000020
00000000
00000100
00000000
00000130
00000001
00000010
00000100
,
00001000
00000100
00010000
00001000
,
00011000
00000000
00000000
00110000
00000000
00000000
10100000
00000000
,
00000000
11000000
00000000
00000000
01100000
00000000
10010000
00000000
,
10000000
00100000
01000000
00000000
00010000
00000000
00100000
00000000
,
00001000
00010000
01000000
00000000
10000000
00000000
00010000
00000000
,
10010000
00000000
00000000
00110000
00000000
00000000
00011000
00000000
,
00000000
00001100
00000000
00000000
00000110
00000000
00001001
00000000
,
00000001
00000010
00000100
00000000
00000010
00000000
00000100
00000000
,
00001000
00000100
00010000
00000000
00001000
00000000
00100000
00000000
,
00010000
01000000
00100000
00000000
10000000
00000000
01000000
00000000
,
10000000
01000000
00010000
00000000
00001000
00000000
00010000
00000000
,
00001000
00000010
00000001
00000000
00000100
00000000
00000010
00000000
,
00001000
00000100
00010000
00000000
00001000
00000000
00100000
00000000
,
00010000
01000000
00100000
00000000
10000000
01000000
00100000
00010000
,
00000000
00110000
00011000
00001010
,
00000100
00000001
00000010
00000000
00000001
00000000
00000100
00000000
,
00000010
00001000
00000100
00000000
00010000
00000000
00000100
00000000
,
00001000
00011000
00110000
01100000
,
10000000
01000000
10000000
00000000
00010000
00100000
00001000
00000000
,
00020000
00000000
00000000
00001000
00031000
00000000
00001000
00000100
,
00000001
00000101
00001010
00000011
,
00000200
00001000
00000010
00001000
,
00020300
00000000
00000000
00000000
00031000
00100000
00010000
01000000
,
00100000
01000000
10010000
00100000
,
01000000
00001000
00010000
00000000
01010000
00000000
00001000
00000000
,
00010000
00011000
00001010
00000110
,
00000100
00000010
00001000
00000000
00000001
00000010
00000100
00000000
,
00001000
00000000
00000100
00000000
00020000
00000000
00000000
00031000
,
00000000
00100000
00010000
10000000
00000000
00000000
00100000
00000000
,
20000000
00000000
00000000
00000000
30020000
00000000
00000000
00200000
,
00000000
00000000
00000000
00000000
00330000
00010000
00100000
00001000
,
00010000
00000000
00011000
00000000
00002100
00000000
00000000
00003010
,
00000000
00000100
00000010
00001000
00000000
00000000
00000010
00000000
,
00000200
00000000
00000000
00000000
00000302
00000000
00000000
00002000
,
00000000
00000000
00000000
00003003
,
00010000
00000000
00001000
00000000
00010000
00000000
00000000
00000000
00010000
00000000
00000000
00000100
00000000
00000000
00010000
00000000
,
00000000
00010000
00100000
01000000
00100000
00000000
01100000
00000000
,
10000000
00000000
01000000
00000000
00100000
00000000
00000000
00000000
00100000
00000000
00000000
00001000
00000000
00000000
00010000
00000000
,
00000000
00000100
00010000
00001000
00010000
00000000
00011000
00000000
,
00001000
00000000
00010000
00000000
00001000
00000000
00000000
00000000
00001000
00000000
00000000
01000000
00000000
00000000
00001000
00000000
,
00000000
00001000
00000010
00000100
00000010
00000000
00000110
00000000
,
00000001
00000100
00000010
00000000
00000010
00000000
00010000
00001000
,
00000000
01000000
00001000
00010000
00001000
00000000
00010000
00000000
,
00022000
00000000
00000000
00000000
,
00000000
00000000
00000000
00000000
,
00000000
00000000
00000000
00000000
,
00000000
00000000
00000000
00000000
,
00000000
00000000
00000000
00000000
,
00033000
00000000
00000000
00000000
,
00000000
00000000
00000000
00000000
;
#NOTES:
     dance-double:
     :
     Hard:
     14:
     :
00000000
00000000
00000000
00000000
,
00000000
00000000
00000000
00000000
,
00000000
00000000
00000000
00000000
,
00000001
00000100
00000100
00000000
00000010
00000010
00000000
00000100
,
00000000
00001000
00001000
00000000
00010000
00010000
00000000
00100000
,
00000000
01000000
01000000
00000000
00100000
00100000
00000000
10000000
,
00000000
01000000
01000000
00000000
00010000
00010000
00000000
00001000
,
00020000
00001000
00001000
00000000
00000100
00000100
00000000
00030010
,
00000200
00000001
00000001
00000000
00000010
00000010
00000000
00000301
,
00002000
00000100
00000100
00000000
00003100
00010000
00000000
00022000
,
00000000
00000000
00000000
00033000
,
00001000
00000000
00010000
00000000
01000000
00000000
10000000
00000000
00100000
00000000
00000000
01000000
00000000
00000000
00010000
00000000
,
10000000
00000000
00100000
00000000
00010000
00000000
00001000
00000000
00010000
00000000
00000000
00001000
00000000
00000000
00000100
00000000
,
00000001
00000000
00000010
00000000
00001000
00000000
00000010
00000000
00000001
00000000
00000000
00001000
00000000
00000000
00000100
00000000
,
00000000
00001000
00001000
00001000
00000100
00010000
00001000
00001000
,
00010000
00000000
00001000
00000000
00000100
00000000
00000001
00000000
00000010
00000000
00000000
00000100
00000000
00000000
00001000
00000000
,
00000001
00000000
00000010
00000000
00001000
00000000
00010000
00000000
00001000
00000000
00000000
00010000
00000000
00000000
01000000
00000000
,
10000000
00100000
00010000
00100000
10000000
00000000
00010000
01000000
,
00000000
00100000
10000000
01000000
00010000
00000000
00011000
00000000
,
00002000
00000100
00023000
01000000
,
00032000
00000010
00023000
00100000
,
00031000
00000100
00000010
00000000
00001000
00000100
00000010
00000002
,
00001000
00000010
00001003
00001010
,
00011000
00000000
00001000
00000000
00010000
00001000
00000100
00000002
,
00000000
00000000
00000013
00000001
00000100
00001000
00000000
00011000
,
00000000
00001000
00100000
00000000
01000000
10000000
00000000
10000000
,
11000000
00000000
00100000
00010000
00000000
00110000
00000000
00000000
,
10000000
01000000
10000000
00000000
00100000
00000000
01000000
00000000
00010000
00100000
00010000
00000000
01000000
00000000
00001000
00000000
,
00010000
00001000
00010000
00000000
00001000
00000000
00000100
00000000
00000010
00000100
00000010
00000000
00001000
00000000
00000100
00000000
,
00000010
00000001
00000010
00000000
00000100
00000000
00010000
00000000
00001000
00010000
00001000
00000000
00100000
00000000
00010000
01000000
,
00010000
00100000
01000000
10000000
00010000
20020000
00000000
30030000
,
10000000
01000000
10000000
00000000
00100000
00000000
00010000
00000000
00001000
00010000
00001000
00000000
00000100
00000000
00000001
00000000
,
00000010
00000001
00000010
00000000
00000100
00000000
00001000
00000000
00000100
00010000
00000100
00000000
00010000
00000000
00001000
00000000
,
00100000
00100000
00000000
01000000
10000000
00100000
00000000
01000000
,
00100000
10000000
00010000
02000000
00000000
03010000
00100000
00001000
,
00020000
00000000
00001000
00000000
01030000
00010000
00001000
00000100
,
00000020
00000000
00002030
00000000
00003001
00000010
00000000
00000100
,
00001000
00001000
00000000
00000010
00000010
00000000
00010000
00010000
,
00000000
00100000
00100000
00000000
10000000
00100000
01000000
00010000
,
00200000
00000000
00001000
00000000
01300000
00100000
00010000
00100000
,
00001000
00000000
00011000
00000000
00001100
00001000
00000000
00000001
,
00000100
00000110
00000000
00000010
00010010
00000000
00001000
00011000
,
00000000
00100000
00110000
00000000
10100000
00000000
01010000
00000000
,
00010000
00100000
10000000
00100000
00010000
00001000
00000100
00010000
,
00001000
00000100
00000001
00000100
00001000
00010000
00100000
00010000
,
00001000
00100000
00010000
00001000
00010000
00100000
01000000
10000000
,
00100000
00010000
10000000
01000000
00010000
00100000
00001000
00000000
,
00000100
00000010
00000020
00000000
00001000
00002030
00000000
00003100
,
00010000
00001000
00002000
00000000
01003000
02000000
00000000
03100000
,
10000000
01000000
11000000
00000000
00100000
00110000
00000000
00022000
,
00000000
00000000
00000000
00033000
,
00001000
00010000
00001000
00000000
00100000
00000000
00010000
00000000
00100000
01000000
00100000
00000000
00010000
00000000
10000000
00000000
,
00010000
10000000
00010000
00000000
01000000
00000000
00100000
00000000
10000000
01000000
10000000
00000000
01000000
00000000
00010000
00000000
,
00001000
00010000
00001000
00000000
00010000
00000000
00000100
00000000
00001000
00000010
00001000
00000000
00000100
00000000
00000010
00000000
,
00000001
00001000
00000001
00000000
00000010
00000000
00000100
00000000
00001000
00000100
00001000
00000000
00000100
00000000
00010000
00000000
,
00002000
00000000
00103000
00010000
00010000
00000000
01000000
00100000
,
10100000
00000000
01010000
00000000
00100000
00001000
00000000
00101000
,
00001000
00010000
00001000
00000100
00000001
00001000
00000010
00000001
,
00000010
00000100
00000010
00000000
00001000
00000000
00000100
00000000
00010000
00001000
00010000
00000000
00001000
00000000
00100000
00000000
,
00010000
10000000
00100000
00000000
20200000
00000000
30300000
00100000
,
00000000
00000000
01000000
00000000
00010000
00000000
00000000
00000000
01010000
00000000
00000000
00001000
00000000
00000000
00010000
00000000
,
00011000
00000000
00001100
00000000
00000110
00000000
00000011
00000001
,
00000100
00001000
00000100
00001000
00010000
01000000
00010000
01000000
,
10000000
01000000
10000000
00000000
00100000
00000000
00000000
00000000
01100000
00000000
00000000
00000000
00000000
00000000
10100000
00000000
,
00000000
01000000
00001000
00020000
00000000
00000000
00031000
00000100
,
00000020
00000000
00000000
00000000
00002030
00000000
00000001
00000002
,
00000000
00000000
00000000
00000000
00003003
00000001
00000100
00001000
,
00010000
00001000
00010000
00000000
00000100
00000000
00000000
00000000
00010100
00000000
00000000
00000000
00000000
00000000
01001000
00000000
,
00000000
01000000
00010000
00200000
00000000
00000000
00310000
00100000
,
00002000
00000000
00000000
00000000
00023000
00000000
00001000
00002000
,
00000000
00000000
00000000
00033000
,
00010000
00000000
00001000
00000000
00000010
00000000
00000001
00000000
00000100
00000000
00000000
00000010
00000000
00000000
00001000
00000000
,
00000001
00000000
00000100
00000000
00001000
00000000
00010000
00000000
00001000
00000000
00000000
00010000
00000000
00000000
00100000
00000000
,
10000000
00000000
01000000
00000000
00010000
00000000
01000000
00000000
10000000
00000000
00000000
00010000
00000000
00000000
00100000
00000000
,
00000000
00010000
00010000
00010000
00100000
00001000
00010000
00010000
,
00001000
00000000
00010000
00000000
00100000
00000000
10000000
00000000
01000000
00000000
00000000
00100000
00000000
00000000
00010000
00000000
,
10000000
00000000
01000000
00000000
00010000
00000000
00001000
00000000
00010000
00000000
00000000
00001000
00000000
00000000
00000010
00000000
,
00000001
00000100
00001000
00000100
00000001
00000000
00001000
00000010
,
00000000
00000100
00000001
00000010
00001000
00000000
00000110
00000000
,
00002002
00000000
00000000
00000000
,
00000000
00000000
00000000
00000000
,
00000000
00000000
00000000
00000000
,
00000000
00000000
00000000
00000000
,
00000000
00000000
00000000
00000000
,
00003003
00000000
00000000
00000000
,
00000000
00000000
00000000
00000000
;
