
//----- song ID: feid -----//
#TITLE:Feidie;
#ARTIST:A-One feat.Napoleon;
#BANNER:Feidie.png;
#BACKGROUND:Feidie-bg.png;
#CDTITLE:./CDTitles/DDR A20 PLUS.png;
#MUSIC:Feidie.ogg;
#SAMPLESTART:65.574;
#SAMPLELENGTH:15;
#BPMS:0=150;
#NOTES:
     dance-single:
     :
     Beginner:
     2:
     :
0000
0000
0000
0000
,
0000
0000
0000
0000
,
0000
0000
0000
0000
,
0000
0000
0000
0000
,
0000
0000
0000
0000
,
0001
0000
0000
0000
,
1000
0000
0000
0000
,
0010
0000
0000
0000
,
0100
0000
0000
0000
,
0001
0000
0000
0000
,
1000
0000
0000
0000
,
0001
0000
0000
0000
,
1000
0000
0000
0000
,
0010
0000
0000
0000
,
0100
0000
0000
0000
,
0010
0000
0000
0000
,
1001
0000
0000
0000
,
0001
0000
0000
0000
,
1000
0000
0000
0000
,
0001
0000
0001
0000
,
1000
0000
1000
0000
,
0010
0000
0000
0000
,
0100
0000
0000
0000
,
0010
0000
0010
0000
,
2002
0000
3003
0000
,
0001
0000
0000
0000
,
1000
0000
0000
0000
,
0010
0000
0000
0000
,
0100
0000
0000
0000
,
0001
0000
0000
0000
,
1000
0000
0000
0000
,
0010
0000
0000
0000
,
0100
0000
0000
0000
,
0001
0000
0001
0000
,
1000
0000
0000
0000
,
1000
0000
1000
0000
,
0001
0000
0000
0000
,
0010
0000
0010
0000
,
0100
0000
0000
0000
,
0010
0000
0100
0000
,
1001
0000
0000
0000
,
0001
0000
0001
0000
,
1000
0000
1000
0000
,
0002
0000
0003
0000
,
2000
0000
3000
0000
,
0010
0000
0010
0000
,
0100
0000
0100
0000
,
0020
0000
0030
0000
,
0200
0000
0300
0000
,
0001
0000
0001
0000
,
1000
0000
1000
0000
,
0002
0000
0003
0000
,
2000
0000
3000
0000
,
0010
0000
0100
0000
,
0010
0000
0100
0000
,
0001
0000
1000
0000
,
2002
0000
3003
0000
,
0001
0000
0000
0000
,
1000
0000
0000
0000
,
0001
0000
0001
0000
,
1000
0000
1000
0000
,
0010
0000
0000
0000
,
0100
0000
0000
0000
,
0010
0000
0010
0000
,
2002
0000
0000
3003
,
0000
0000
0000
0000
;
#NOTES:
     dance-single:
     :
     Easy:
     6:
     :
0000
0000
0000
0000
,
0000
0000
0000
0000
,
0000
0000
0000
0000
,
0000
0000
0000
0000
,
0000
0000
0000
0000
,
0001
0001
1000
1000
,
0010
0010
0100
0100
,
0001
1000
0010
0100
,
0001
0010
0100
1000
,
0010
1001
0010
0010
,
0100
1001
0100
0100
,
0001
0110
0001
0001
,
1000
0110
1000
1000
,
0010
1001
0100
0010
,
0100
1001
0010
0100
,
1000
0110
0001
1000
,
2002
0000
0000
3003
,
0010
1000
0001
0100
,
0010
0100
0100
0000
,
0001
0010
0100
1000
,
0010
0100
0001
0000
,
0010
0001
1000
0100
,
0010
0100
0100
0000
,
1000
0010
0100
0001
,
0010
0200
0000
0300
,
1000
1000
0100
0010
,
0001
0100
0010
1000
,
1001
0000
0010
0100
,
0001
1000
0001
1000
,
0001
0001
0010
0100
,
1000
0010
0100
0001
,
1001
0000
0100
0010
,
1000
0000
0001
1000
0000
0000
0000
0000
,
0110
1000
0100
0010
,
0001
0110
1001
0110
,
0001
0001
1000
1000
,
0010
0100
0220
0330
,
0100
0010
1000
0001
,
0010
0100
1000
0001
,
0200
0000
0000
0300
,
1000
0001
0100
0000
,
1001
0100
0010
0100
,
1001
0010
0100
0010
,
1001
0001
0010
0100
,
1000
0010
0100
0001
,
0110
1000
0001
1000
,
0110
0001
1000
0001
,
0110
1000
0010
0100
,
0010
0100
1001
0000
,
0110
0001
0010
0100
,
0110
1000
0010
0100
,
1001
0100
0001
1000
,
0010
1000
0001
0100
,
0110
1000
0100
0010
,
0110
0001
0100
0010
,
1001
0010
1000
0001
,
0000
0100
0000
0010
0000
1001
0000
0000
,
0010
0001
1000
0100
,
0010
0100
0100
0000
,
1000
0010
0100
0001
,
0010
0100
1000
0000
,
0010
1000
0001
0100
,
0010
0100
0100
0000
,
0001
0010
0100
1000
,
0010
0200
0000
0300
,
0000
0000
0000
0000
;
#NOTES:
     dance-single:
     :
     Medium:
     8:
     :
0000
0000
0000
0000
,
0000
0000
0000
0000
,
0000
0000
0000
0000
,
0000
0000
0000
0000
,
0000
0000
0000
0000
,
0001
0010
0001
0001
,
1000
0000
0010
0000
1000
0000
1000
0100
,
0010
0100
0010
0010
,
0001
1000
0001
0001
,
1000
0000
0010
0000
1000
0010
1000
0000
,
0001
0000
0100
0000
0001
0100
0001
0000
,
0010
0000
0100
0000
0010
0100
0010
0000
,
0001
0000
1000
0000
0001
1000
0001
0000
,
1000
0000
0001
0000
1000
0100
1000
0000
,
0001
0000
0010
0000
0001
0010
0001
0000
,
1000
0000
0100
0000
1000
0100
1000
0000
,
0220
0000
0000
0330
,
0010
0000
0000
0000
1001
0000
0000
0000
0001
0000
0000
1000
0000
0000
0001
0000
,
0010
0000
0000
0100
0000
0000
0010
0000
0200
0000
0000
0000
0300
0000
0000
0000
,
1000
0010
0100
0000
0001
0000
0100
0000
,
0001
1000
0001
1000
,
0100
0000
0000
0000
1001
0000
0000
0000
1000
0000
0000
0001
0000
0000
1000
0000
,
0100
0000
0000
0010
0000
0000
0100
0000
0020
0000
0000
0000
0030
0000
0000
0000
,
0001
0100
0010
0000
1000
0000
0010
0000
,
1000
0010
0100
0002
0000
0000
0003
0000
,
1000
1000
0100
0010
,
0001
0000
0100
0000
0001
0100
0001
0000
,
0010
0100
1000
0010
,
1000
0001
1000
0000
0010
0100
0010
0000
,
0001
0001
0100
0010
,
1000
0000
0100
0000
1000
0100
1000
0000
,
0010
0100
0001
0010
,
0001
1000
0001
2000
0000
0000
3000
0000
,
0010
0000
0010
0000
0100
0001
0010
0000
,
0100
1001
0110
1001
,
0010
0100
0001
1000
,
0010
0100
0010
0200
0000
0000
0300
0000
,
0001
0010
1000
0010
,
0001
0000
1000
0000
0010
0000
0100
0020
,
0000
0000
0000
0130
,
0110
0000
1001
0000
0100
0100
0100
0000
,
1010
0010
0100
0010
,
0011
0100
0010
0100
,
1010
0100
0001
0010
,
0100
0010
0100
0000
1000
0001
1000
0000
,
0011
0100
0010
1000
,
0101
0001
1000
0100
,
0011
0000
1000
0000
0010
0000
0100
0010
,
0000
0110
0000
1001
0000
0110
0000
0000
,
0101
0100
0010
0100
,
1100
0010
0100
0010
,
0101
0010
1000
0100
,
0010
0100
0010
0000
0001
1000
0001
0000
,
1100
0010
0100
0001
,
1010
1000
0001
0010
,
1100
0000
0001
0000
0100
0000
0010
0100
,
0000
0110
0000
1001
0000
0110
0000
0000
,
0100
0000
0000
0000
1001
0000
0000
0000
1000
0000
0000
0001
0000
0000
1000
0000
,
0100
0000
0000
0010
0000
0000
0100
0000
0020
0000
0000
0000
0030
0000
0000
0000
,
0001
0100
0010
0000
1000
0000
0010
0000
,
1000
0001
1000
0001
,
0010
0000
0000
0000
1001
0000
0000
0000
0001
0000
0000
1000
0000
0000
0001
0000
,
0010
0000
0000
0100
0000
0000
0010
0000
0200
0000
0000
0000
0300
0000
0000
0000
,
1000
0010
0100
0000
0001
0000
0100
0000
,
0001
0100
0010
2000
0000
0000
3000
0000
,
0000
0000
0000
0000
;
#NOTES:
     dance-single:
     :
     Hard:
     10:
     :
0000
0000
0000
0000
,
0000
0000
0000
0000
,
0000
0000
0000
0000
,
0000
0000
0000
0000
,
0000
0000
0000
0000
,
1000
0001
0100
0010
,
1000
0000
0100
0000
0010
0000
0001
1000
,
0100
0010
0001
0100
,
0010
0000
1000
0000
0001
0100
0010
0000
,
1000
0000
1010
0000
0001
1000
0100
0000
,
0010
0000
1001
0000
1000
0001
0100
0000
,
0001
0000
0110
0000
1000
0010
0100
0000
,
0001
0100
0010
1000
0100
0000
0110
0000
,
0001
0000
0101
0000
1000
0001
0010
0000
,
0100
0000
1001
0000
0001
1000
0010
0000
,
1000
0000
0110
0000
0001
0100
0010
0000
,
2002
0000
0000
3003
,
0010
0000
0000
0000
0110
0000
0000
0000
0010
0000
0000
1000
0000
0000
0100
0000
,
0010
0000
0000
0001
0000
0000
0100
0000
0220
0000
0000
0000
0330
0000
0000
0000
,
1000
0100
0010
0000
0001
0100
0010
0000
,
1000
0001
0100
0001
1000
0010
0100
0000
,
0010
0000
0000
0000
1001
0000
0000
0000
0100
0000
0000
0001
0000
0000
0010
0000
,
0100
0000
0000
1000
0000
0000
0010
0000
0220
0000
0000
0000
0330
0000
0000
0000
,
0001
0010
0100
0000
1000
0010
0100
0000
,
0001
1000
0010
0200
0000
0000
0300
0000
,
0010
0000
1010
0000
1000
0001
1000
0000
,
0001
0100
0010
0000
1000
0100
0010
0000
,
0001
0000
1100
0000
0100
0010
0100
0000
,
1000
0010
0100
0001
0010
0100
1000
0000
,
0100
0000
0101
0000
0001
1000
0001
0000
,
1000
0010
0100
0000
0001
0010
0100
0000
,
1000
0000
0011
0000
0010
0100
0010
0000
,
0001
0100
0010
2000
0000
0001
0001
3001
,
0100
0000
0001
0010
0100
1000
0010
0100
,
0010
0110
1001
0110
,
0001
0010
0001
0001
1000
0100
1000
1000
,
0001
0100
0010
2000
0000
0001
3001
0000
,
0001
0100
1000
0100
0001
0010
1000
0010
,
0001
0100
0010
1000
0100
0010
0001
0200
,
0000
0000
0000
0000
0300
0010
0100
0010
,
1000
1010
0000
0101
0000
0100
0100
0000
,
0010
0000
1001
0000
0010
1000
0100
0000
,
0010
0000
1001
0000
0010
0001
0100
0000
,
0001
0100
0010
1000
0010
0100
0001
1000
,
0000
1000
0100
0010
0001
0100
0001
0010
,
0100
0000
1001
0000
0001
0100
1000
0000
,
0100
0000
1001
0000
1000
0100
0001
0000
,
0100
1000
0010
0100
0001
0010
0100
1000
,
0000
1010
0000
0101
0000
2002
3003
0000
,
0100
0000
1001
0000
0100
0001
0010
0000
,
0100
0000
1001
0000
0100
1000
0010
0000
,
1000
0010
0100
0001
0100
0010
1000
0001
,
0000
0001
0010
0100
1000
0010
1000
0100
,
0010
0000
1001
0000
1000
0010
0001
0000
,
0010
0000
1001
0000
0001
0010
1000
0000
,
0010
0001
0100
0001
0100
0010
1000
0100
,
0000
0101
0000
1010
0000
2002
3003
0000
,
0100
0000
0000
0000
0110
0000
0000
0000
0100
0000
0000
0001
0000
0000
0010
0000
,
0100
0000
0000
1000
0000
0000
0010
0000
0220
0000
0000
0000
0330
0000
0000
0000
,
0001
0010
0100
0000
1000
0010
0100
0000
,
0001
1000
0010
0000
1000
0001
0010
0100
,
0010
0000
0000
0000
1001
0000
0000
0000
0010
0000
0000
1000
0000
0000
0100
0000
,
0010
0000
0000
0001
0000
0000
0100
0000
0220
0000
0000
0000
0330
0000
0000
0000
,
1000
0100
0010
0000
0001
0100
0010
0000
,
1000
0001
0100
0020
0000
0000
0030
0000
,
0000
0000
0000
0000
;
#NOTES:
     dance-double:
     :
     Easy:
     6:
     :
00000000
00000000
00000000
00000000
,
00000000
00000000
00000000
00000000
,
00000000
00000000
00000000
00000000
,
00000000
00000000
00000000
00000000
,
00000000
00000000
00000000
00000000
,
00000001
00000001
00000100
00000100
,
00000010
00000010
00010000
00010000
,
00001000
00001000
01000000
01000000
,
00100000
00100000
10000000
10000000
,
00100000
01100000
10000000
00100000
,
01000000
01100000
00010000
00100000
,
00001000
00011000
00010000
00000100
,
00001000
00001001
00000010
00000100
,
00000001
00000110
00001000
00000100
,
00010000
00011000
00001000
01000000
,
00010000
01100000
10000000
01000000
,
20020000
00000000
00000000
30030000
,
10000000
01000000
00100000
00001000
,
00010000
00001000
00001000
00000000
,
00010000
00000100
00000010
00000001
,
00001000
00000100
00001001
00000000
,
00000001
00000010
00000100
00010000
,
00001000
00010000
00010000
00000000
,
00001000
00100000
01000000
10000000
,
00010000
00200000
00000000
00300000
,
01000000
01000000
10000000
00010000
,
00100000
00001000
00010000
00000100
,
00000110
00000000
00000100
00000010
,
00000001
00001000
00000001
00001000
,
00000100
00000010
00000001
00001000
,
00000100
00010000
00001000
00100000
,
01100000
00000000
01000000
00100000
,
00010000
00000000
10000000
00010000
00000000
00000000
00000000
00000000
,
10010000
01000000
00010000
00001000
,
00000100
00000110
00001001
00000110
,
00000001
00000010
00000100
00001000
,
00000010
00000100
00000220
00000330
,
00001000
00001000
00010000
00010000
,
01000000
10000000
00010000
00100000
,
02000000
00000000
00000000
03000000
,
00010000
10000000
00100000
00000000
,
01100000
01000000
00001000
00010000
,
00011000
00001000
00010000
00000100
,
00000110
00000001
00000100
00000010
,
00001000
00000100
00000110
00001001
,
00000110
00001000
00000100
00010000
,
00011000
00001000
01000000
00010000
,
10010000
10000000
00100000
01000000
,
00100000
01000000
10010000
00000000
,
01100000
10000000
01000000
00100000
,
01100000
00010000
00001000
00010000
,
00011000
00001000
00000100
00000010
,
00001000
00000001
00000110
00001001
,
00000110
00000001
00000100
00001000
,
00011000
00001000
00000100
00000001
,
00000110
00000001
00001000
00000010
,
00000000
00001000
00000000
00000001
00000000
00000110
00000000
00000000
,
00000001
00000100
00000010
00010000
,
00001000
00010000
00010000
00000000
,
00001000
01000000
00100000
10000000
,
00010000
01000000
10010000
00000000
,
10000000
00100000
01000000
00001000
,
00010000
00001000
00001000
00000000
,
00010000
00000010
00000100
00000001
,
00001000
00000020
00000000
00000030
,
00000000
00000000
00000000
00000000
;
#NOTES:
     dance-double:
     :
     Medium:
     8:
     :
00000000
00000000
00000000
00000000
,
00000000
00000000
00000000
00000000
,
00000000
00000000
00000000
00000000
,
00000000
00000000
00000000
00000000
,
00000000
00000000
00000000
00000000
,
00000001
00000100
00000010
00000010
,
00001000
00000000
00000100
00000000
00010000
00000000
00010000
00001000
,
00100000
01000000
10000000
10000000
,
00010000
01000000
00100000
00100000
,
10000000
00000000
01000000
00000000
00100000
00010000
00100000
00000000
,
00001000
00000000
00010000
00000000
00001000
00010000
00001000
00000000
,
00000100
00000000
00000010
00000000
00000100
00000010
00000100
00000000
,
00000001
00000000
00001000
00000000
00000010
00000100
00000010
00000000
,
00001000
00000000
00000100
00000000
00010000
00001000
00010000
00000000
,
00001000
00000000
01000000
00000000
00100000
01000000
00100000
00000000
,
10000000
00000000
00010000
00000000
00100000
01000000
00100000
00000000
,
20020000
00000000
00000000
30030000
,
10000000
00000000
00000000
00000000
01000000
00000000
00000000
00000000
00100000
00000000
00000000
00010000
00000000
00000000
00100000
00000000
,
00001000
00000000
00000000
00010000
00000000
00000000
00001000
00000000
00020000
00000000
00000000
00000000
00030000
00000000
00000000
00000000
,
00001000
00010000
00000100
00000000
00000010
00000000
00000001
00000000
,
00001000
00000010
00000100
00001001
,
00000001
00000000
00000000
00000000
00000100
00000000
00000000
00000000
00000010
00000000
00000000
00001000
00000000
00000000
00000010
00000000
,
00010000
00000000
00000000
00001000
00000000
00000000
00010000
00000000
00002000
00000000
00000000
00000000
00003000
00000000
00000000
00000000
,
00010000
00001000
01000000
00000000
00100000
00000000
10000000
00000000
,
00010000
00100000
01000000
20000000
00000000
00000000
30000000
00000000
,
00100000
00100000
01000000
00010000
,
00100000
00000000
00001000
00000000
00010000
00001000
00010000
00000000
,
00000100
00000010
00000001
00001000
,
00000001
00000100
00000001
00000000
00001000
00000100
00010000
00000000
,
00001000
00001000
01000000
00100000
,
10000000
00000000
01000000
00000000
00100000
00010000
00100000
00000000
,
00001000
00010000
00001000
00000100
,
00000010
00000100
00000010
00000200
00000000
00000000
00000300
00000000
,
00000001
00000000
00000001
00000000
00001000
00000010
00000100
00000000
,
00000010
00000110
00001010
00011000
,
00001000
00100000
00010000
01000000
,
00010000
10000000
00010000
20000000
00000000
00000000
30000000
00000000
,
10000000
00100000
00010000
00001000
,
00000100
00000000
00000001
00000000
00000010
00000000
00000100
00000020
,
00000000
00000000
00000000
00000130
,
00000110
00000000
00001001
00000000
00000010
00000010
00000010
00000000
,
00000011
00000100
00000010
00001000
,
00011000
00010000
01000000
00100000
,
01100000
00010000
01000000
00100000
,
10000000
00010000
00100000
00000000
00001000
00100000
00010000
00000000
,
00011000
00001000
00000100
00000001
,
00000110
00001000
00000100
00010000
,
00011000
00000000
00010000
00000000
01000000
00000000
10000000
00100000
,
00000000
01100000
00000000
10010000
00000000
01100000
00000000
00000000
,
11000000
00100000
01000000
00001000
,
00011000
00010000
00000100
00001000
,
00000110
00001000
00000001
00000100
,
00000010
00000100
00000010
00000000
00001000
00000100
00010000
00000000
,
00011000
00010000
01000000
10000000
,
01100000
00100000
00001000
00010000
,
00011000
00000000
00001000
00000000
00000100
00000000
00000001
00001000
,
00000000
00000110
00000000
00001010
00000000
00000011
00000000
00000000
,
00000001
00000000
00000000
00000000
00000010
00000000
00000000
00000000
00000100
00000000
00000000
00001000
00000000
00000000
00000100
00000000
,
00010000
00000000
00000000
00001000
00000000
00000000
00010000
00000000
00002000
00000000
00000000
00000000
00003000
00000000
00000000
00000000
,
00010000
00001000
00100000
00000000
01000000
00000000
10000000
00000000
,
00010000
01000000
00100000
10010000
,
10000000
00000000
00000000
00000000
00100000
00000000
00000000
00000000
01000000
00000000
00000000
00010000
00000000
00000000
01000000
00000000
,
00001000
00000000
00000000
00010000
00000000
00000000
00001000
00000000
00020000
00000000
00000000
00000000
00030000
00000000
00000000
00000000
,
00001000
00010000
00000010
00000000
00000100
00000000
00000001
00000000
,
00001000
00000100
00000010
00000002
00000000
00000000
00000003
00000000
,
00000000
00000000
00000000
00000000
;
#NOTES:
     dance-double:
     :
     Hard:
     10:
     :
00000000
00000000
00000000
00000000
,
00000000
00000000
00000000
00000000
,
00000000
00000000
00000000
00000000
,
00000000
00000000
00000000
00000000
,
00000000
00000000
00000000
00000000
,
00000001
00000100
00000010
00001000
,
00000100
00000000
00010000
00000000
00001000
00000000
00100000
00010000
,
01000000
00100000
10000000
00010000
,
01000000
00000000
00100000
00000000
10000000
01000000
00010000
00000000
,
00001000
00000000
00011000
00000000
00001000
00010000
00000100
00000000
,
00000010
00000000
00001001
00000000
00000001
00000100
00001000
00000000
,
00010000
00000000
00011000
00000000
00001000
00100000
00010000
00000000
,
01000000
00010000
00100000
00000000
01000000
00010000
00001000
00000000
,
00010000
00000000
00011000
00000000
00010000
00001000
01000000
00000000
,
00100000
00000000
10010000
00000000
10000000
01000000
00010000
00000000
,
00001000
00000000
00011000
00000000
00010000
00000010
00000100
00000001
,
00000020
00000000
00000000
00000030
,
00000001
00000000
00000000
00000000
00000011
00000000
00000000
00000000
00000001
00000000
00000000
00000100
00000000
00000000
00000010
00000000
,
00001000
00000000
00000000
00000100
00000000
00000000
00010000
00000000
00022000
00000000
00000000
00000000
00033000
00000000
00000000
00000000
,
00001000
00010000
00100000
00000000
10000000
00100000
01000000
00000000
,
00010000
00100000
01000000
00000000
00100000
01000000
10000000
00000000
,
00010000
00000000
00000000
00000000
10100000
00000000
00000000
00000000
10000000
00000000
00000000
01000000
00000000
00000000
00100000
00000000
,
00010000
00000000
00000000
01000000
00000000
00000000
00001000
00000000
00022000
00000000
00000000
00000000
00033000
00000000
00000000
00000000
,
00010000
00001000
00000010
00000000
00000001
00000010
00000100
00000000
,
00001000
00000010
00000001
00000020
00000000
00000000
00000030
00000000
,
00001000
00000000
00001010
00000000
00000010
00010000
00001000
00000000
,
00010000
00001000
00100000
00000000
00010000
01000000
00100000
00000000
,
00010000
00000000
00011000
00000000
00001000
00010000
00000100
00000000
,
00000010
00000001
00000100
00001000
00010000
01000000
10000000
00000000
,
00010000
00000000
00110000
00000000
00100000
00001000
00010000
00000000
,
00001000
00010000
00000010
00000000
00001000
00000100
00000010
00000000
,
00001000
00000000
00011000
00000000
00010000
00001000
01000000
00000000
,
00100000
10000000
01000000
00020000
00000000
00001000
00001000
00031000
,
00010000
00000000
00001000
00010000
00000100
00000010
00000001
00000010
,
00000100
00000110
00001100
00011000
,
00001000
00010000
00100000
00100000
10000000
00010000
00100000
00100000
,
00010000
00100000
00001000
00020000
00000000
00000000
00030000
00000000
,
00001000
00000100
00000010
00000001
00001000
00000100
00000001
00001000
,
00000100
00010000
00001000
01000000
00010000
00100000
00010000
02000000
,
00000000
00000000
00000000
00000000
03000000
00100000
01000000
00100000
,
01000000
01100000
00000000
01010000
00000000
00001000
00010000
00000000
,
00001000
00000000
00011000
00000000
00001000
00000100
00000001
00000000
,
00000010
00000000
00000110
00000000
00000001
00000100
00001000
00000000
,
00010000
00001000
00100000
00010000
01000000
00100000
10000000
00010000
,
00000000
00010000
01000000
00100000
10000000
01000000
00010000
00001000
,
00010000
00000000
00011000
00000000
00001000
00000100
00000001
00000000
,
00000010
00000000
00001001
00000000
00000001
00000100
00001000
00000000
,
00010000
00001000
00100000
01000000
10000000
01000000
00100000
00010000
,
00000000
01100000
00000000
00110000
00000000
02020000
03030000
00000000
,
00100000
00000000
10100000
00000000
01000000
00010000
00100000
00000000
,
00001000
00000000
00011000
00000000
00000100
00001000
00000010
00000000
,
00000001
00000100
00001000
00000100
00000001
00000010
00000100
00000010
,
00000000
00000010
00000001
00000100
00001000
00010000
00100000
10000000
,
01000000
00000000
10010000
00000000
01000000
00100000
10000000
00000000
,
01000000
00000000
10010000
00000000
01000000
00100000
00010000
00000000
,
00100000
00001000
00010000
00000000
00001000
00010000
01000000
00100000
,
00000000
00110000
00000000
11000000
00000000
20020000
30030000
00000000
,
10000000
00000000
00000000
00000000
11000000
00000000
00000000
00000000
10000000
00000000
00000000
00100000
00000000
00000000
01000000
00000000
,
00010000
00000000
00000000
00100000
00000000
00000000
00001000
00000000
00022000
00000000
00000000
00000000
00033000
00000000
00000000
00000000
,
00010000
00001000
00000100
00000000
00000001
00000100
00000010
00000000
,
00001000
00000100
00000010
00000000
00000100
00000010
00000001
00000000
,
00001000
00000000
00000000
00000000
00000101
00000000
00000000
00000000
00000001
00000000
00000000
00000010
00000000
00000000
00000100
00000000
,
00001000
00000000
00000000
00000010
00000000
00000000
00010000
00000000
00022000
00000000
00000000
00000000
00033000
00000000
00000000
00000000
,
00001000
00010000
01000000
00000000
10000000
01000000
00010000
00001000
,
00000100
00000001
00001000
00000002
00000000
00000000
00000003
00000000
,
00000000
00000000
00000000
00000000
;
