
//----- song ID: drsa -----//
#TITLE:Draw the Savage;
#ARTIST:Ryunosuke Kudo;
#BANNER:Draw the Savage.png;
#BACKGROUND:Draw the Savage-bg.png;
#CDTITLE:./CDTitles/DDR A20 PLUS.png;
#MUSIC:Draw the Savage.ogg;
#SAMPLESTART:60.901;
#SAMPLELENGTH:15;
#BPMS:0=134;
#STOPS:232=0.224,232.5=0.224,233=0.224,233.5=0.224;
#STAGE:15;
#NOTES:
     dance-single:
     :
     Beginner:
     2:
     :
0000
0000
0000
0000
,
0000
0000
0000
0000
,
0000
0000
0000
0000
,
0000
0000
0000
0000
,
0000
0000
0000
0000
,
0000
0000
0000
0000
,
0001
0000
0001
0000
,
0001
0000
0000
0000
,
1000
0000
1000
0000
,
1000
0000
0000
0000
,
1000
0000
0100
0000
,
1000
1000
1000
0000
,
0100
0000
0100
0000
,
0001
0000
0000
0000
,
0001
0000
0100
0000
,
0001
0001
0001
0000
,
0100
0000
0100
0000
,
1000
0000
0000
0000
,
1000
0000
0100
0000
,
0010
0000
0001
0000
,
0001
0000
0100
0000
,
0010
0000
1000
0000
,
1000
0000
0010
0000
,
0001
0000
0001
0000
,
0001
0000
0100
0000
,
1000
0000
0000
0000
,
1001
0000
0000
0000
,
0000
0000
0000
0000
,
0000
0000
0000
0000
,
0000
0000
0000
0000
,
1000
0000
0100
0000
,
1000
0000
0100
0000
,
0010
0000
0001
0000
,
0010
0000
0000
0000
,
0002
0000
0003
0000
,
0020
0000
0030
0000
,
2000
0000
3000
0000
,
0200
0000
0300
0000
,
0002
0000
0003
0000
,
0200
0000
0300
0000
,
2000
0000
3000
0000
,
0020
0000
0030
0000
,
1000
0000
0100
0000
,
1000
0000
0100
0000
,
0001
0000
0100
0000
,
0001
0000
0100
0000
,
0001
0000
0001
0000
,
0010
0000
0010
0000
,
0100
0100
0100
0000
,
0100
0000
0000
0000
,
1000
0000
0100
0000
,
1000
1000
1000
0000
,
0010
0000
0001
0000
,
0010
0000
0000
0000
,
0001
0000
0010
0000
,
0001
0001
0001
0000
,
0100
0000
1000
0000
,
0100
0000
0000
0000
,
1001
0000
0000
0000
,
1000
0000
0100
0100
,
0100
0000
0010
0000
,
0100
0000
0001
0001
,
0001
0000
0001
0000
,
0100
0000
0010
0010
,
0010
0000
0100
0000
,
1000
0000
0010
0000
,
0000
0000
1001
0000
,
0000
0000
0000
0000
;
#NOTES:
     dance-single:
     :
     Easy:
     6:
     :
0000
0000
0000
0000
,
0000
0000
0000
0000
,
0000
0000
0000
0000
,
0000
0000
0000
0000
,
0000
0000
0000
0000
,
0000
0000
0000
0000
,
1000
0000
0001
0000
,
1000
0000
0001
0000
,
1000
0001
1000
0001
,
2002
0000
0000
3003
,
1000
0100
1000
0100
,
0001
0100
0001
0100
,
1000
0100
1000
0100
,
0001
0000
0100
0000
1000
0001
1000
0000
,
0001
0100
0001
0100
,
1000
0100
1000
0100
,
0001
0100
0001
0001
,
2002
0000
0000
3003
,
0010
1000
0100
1000
,
0010
1000
0100
0100
,
0010
0001
0100
0001
,
0010
0100
0110
0000
,
1000
0100
0001
0100
,
1000
0100
0001
0100
,
1000
0001
0100
0010
,
1000
0000
0000
0000
,
2002
0000
0000
0000
,
0000
0000
0000
0000
,
0000
0000
0000
0000
,
0000
0000
0000
3003
,
0001
0010
0001
0010
,
0100
1000
0100
1000
,
0010
1000
0010
1000
,
0001
0100
0001
0100
,
0002
0000
0003
0110
,
2000
0000
3000
0110
,
0002
0003
2000
3000
,
0020
0030
0200
0300
,
0001
0001
0010
0010
,
0100
0200
0000
0300
,
1000
1000
1000
1000
,
0100
0010
0200
0300
,
2000
0000
3000
0000
,
0002
0000
0003
0000
,
2000
0000
3000
0000
,
0002
0000
0003
0000
,
0020
0030
0200
0300
,
0020
0030
0200
0300
,
0010
0100
0010
0100
,
0220
0000
0000
0330
,
1000
0001
0100
0001
,
0010
0000
0100
0000
0010
0100
0010
0000
,
0001
1000
0010
0100
,
0010
0000
1000
0000
0001
1000
0001
0000
,
0100
0001
0010
0100
,
1000
0000
0010
0000
1000
0100
1000
0000
,
0010
0100
0001
1000
,
0001
0000
0000
0000
,
0010
0010
0010
1000
,
0001
1000
0100
0010
,
0001
1000
0001
0000
0100
0000
0001
0000
,
1000
0010
0100
0010
,
1001
0000
1000
0100
,
0010
0001
0100
0010
,
1000
0001
1000
0000
0001
0000
0010
0000
,
1000
0010
0002
0000
,
0000
1003
1001
0000
,
0000
0000
0000
0000
;
#NOTES:
     dance-single:
     :
     Medium:
     10:
     :
0000
0000
0000
0000
,
0000
0000
0000
0000
,
0000
0000
0000
0000
,
0000
0000
0000
0000
,
0000
0000
0000
0000
,
0000
0000
0000
0000
,
1100
0000
0101
0000
,
1100
0000
0101
0000
,
1100
0101
1100
0101
,
0220
0000
0330
1001
,
1000
0000
0001
0000
0100
0001
0100
0000
,
0001
0010
0100
0000
1000
0001
1000
0000
,
0001
0000
1000
0000
0100
1000
0100
0000
,
0010
0001
0100
0000
0010
1000
0010
0000
,
0100
0000
0001
0000
0010
0100
0010
0000
,
0001
1000
0010
0000
0100
0001
0010
0000
,
0001
0000
1000
0000
0100
1000
0010
0000
,
0220
0000
0000
0330
,
0101
0000
0001
0100
0010
0100
0010
0100
,
0001
0100
0010
0100
0001
0100
0010
0000
,
1000
0100
1000
0100
0010
0100
0010
0100
,
1000
0100
0010
0100
1000
0100
0010
0000
,
0001
0100
0001
0100
1000
0100
1000
0100
,
0001
0100
1000
0100
0010
0100
0010
0000
,
1000
0100
1000
0100
0001
0100
0001
0100
,
0020
0000
0000
0030
,
2002
0000
0000
0000
,
0000
0000
0000
0000
,
0000
0000
0000
0000
,
0000
0000
0000
3003
,
0001
0000
0010
0000
1000
0010
1000
0000
,
0001
0000
0100
0000
1000
0100
1000
0000
,
1000
0000
0010
0000
0001
0010
0001
0000
,
1000
0000
0100
0000
0001
0100
0001
0000
,
2000
0100
0001
0100
,
3002
0100
1000
0100
,
0023
0100
0100
0130
,
2000
3100
0002
0103
,
0001
0100
0001
0000
0100
0010
0100
0000
,
0010
0000
0010
2002
0000
0000
3003
0000
,
0010
1000
0100
1000
,
0010
0100
0010
0200
0000
0000
0300
0000
,
0002
0000
0010
0013
,
2000
0000
0010
3010
,
0002
0000
0100
0103
,
2000
0000
0100
3100
,
0002
0013
2000
3010
,
0002
0103
2000
3100
,
0001
1000
0001
1000
0001
1000
0001
0000
,
2002
0000
0000
3003
,
2000
0001
0010
0100
,
3020
0001
0100
1000
,
0230
1000
0001
0010
,
0302
0010
0100
1000
,
0203
0010
1000
1000
,
0001
0010
0001
1000
,
0320
0100
0001
0100
,
1030
0000
0000
0000
,
0010
0010
0010
0010
1000
0100
1000
0100
,
0010
0001
0100
0001
1000
0010
0001
0010
,
1000
0001
1000
0000
0001
0100
0001
0100
,
0010
1000
0100
1000
0001
0100
1000
0100
,
0001
1000
0001
0000
0100
0010
1000
0001
,
0010
0100
1000
0100
0001
0100
0010
0001
,
0100
0010
1000
0010
0100
1000
0100
1000
,
0100
0001
0010
0100
2000
0000
0010
0000
,
0100
3001
1001
0000
,
0000
0000
0000
0000
;
#NOTES:
     dance-single:
     :
     Hard:
     14:
     :
0000
0000
0000
0000
,
0000
0000
0000
0000
,
0000
0000
0000
0000
,
0000
0000
0000
0000
,
0000
0000
0000
0000
,
0000
0000
0000
0000
,
0010
0000
0000
1000
0010
0000
0000
0001
,
0010
0000
0000
1000
0010
0000
0000
0001
,
0010
0000
0000
0100
0000
0000
0010
0000
0000
0100
0000
0000
0010
0000
0100
0010
0000
0100
0010
0000
0100
0010
0000
0100
,
0020
0100
0130
1001
,
2000
0000
0000
0000
0000
3001
0000
0000
0010
0000
0000
0001
0000
0000
1000
0001
0000
0000
0100
0000
0000
0010
0000
0000
,
0200
0000
0000
0301
0000
0000
0100
0000
0010
0000
0000
0100
0000
0000
0010
1000
0000
0000
0001
0000
0000
1000
0000
0000
,
0200
0000
0000
0000
0000
0310
0000
0000
0001
0000
0000
0100
0000
0000
0010
1000
0000
0000
0001
0000
0000
0100
0000
0000
,
0002
0000
0000
1003
0000
0100
0000
0000
0001
0000
0000
0100
0000
0000
1000
0010
0000
0000
1000
0000
0000
1000
0000
0000
,
0002
0000
0000
0000
0000
0103
0000
0000
0010
0000
0000
0100
0000
0000
0001
0010
0000
0000
0100
0000
0000
1000
0000
0000
,
0020
0000
0000
0130
0000
0000
0001
0000
1000
0000
0000
0100
0000
0000
1000
0010
0000
0000
0100
0000
0000
0001
0000
0000
,
0200
0000
0000
0000
0000
0310
0000
0000
0100
0000
0000
0001
0000
0000
0010
0100
0000
0000
1000
0000
0000
0001
0000
0000
,
2000
0000
0001
3001
,
0110
0000
0000
0000
0000
0000
1001
0000
0000
1000
0000
0000
0100
0000
0000
0001
0000
0000
0100
0000
1000
0100
0000
0000
,
1000
0000
0000
0010
0000
0000
0100
0000
0000
0001
0000
0000
0010
0000
0001
0010
0000
0000
0100
0000
0010
0100
0000
0000
,
1000
0000
0000
0010
0000
0000
0001
0000
0000
0010
0000
0000
1000
0000
0000
0001
0000
0000
0010
0000
0100
0010
0000
0000
,
0001
0000
0000
0100
0000
0000
0010
0000
0100
0010
0000
0000
1000
0000
0100
0010
0000
0000
0110
0000
0000
0000
0000
0000
,
1000
0000
0000
0100
0000
0000
0010
0000
0000
0001
0000
0000
0100
0000
0000
0010
0000
0000
1000
0000
0010
1000
0000
0000
,
0001
0000
0000
0010
0000
0000
0100
0000
0000
1000
0000
0000
0100
0000
0010
0100
0000
0000
1000
0000
0100
1000
0000
0000
,
0010
0000
0000
0100
0000
0000
1000
0000
0000
0100
0000
0000
0001
0000
0100
0010
0000
0000
1000
0000
0100
0010
0000
0000
,
0200
0000
0000
0310
,
2002
0000
0000
0000
,
0000
0000
0000
0000
,
0000
0000
0000
0000
,
0000
0000
0000
3003
,
0001
0000
0000
1000
0000
0000
0001
0000
0000
0000
0000
0010
0000
0000
0100
0010
0000
0000
0000
0000
0000
0100
0000
0000
,
1000
0000
0000
0001
0000
0000
1000
0000
0000
0000
0000
0010
0000
0000
0100
0010
0000
0000
0000
0000
0000
0100
0000
0000
,
0001
0000
0000
1000
0000
0000
0001
0000
0000
0000
0000
0100
0000
0000
0010
0100
0000
0000
0000
0000
0000
0010
0000
0000
,
1000
0000
0000
0001
0000
0000
1000
0000
0000
0000
0000
0100
0000
0000
0010
0100
0000
0000
0000
0000
0000
0010
0000
0000
,
0001
0000
0000
0101
0000
0000
0000
0000
0000
1010
0000
0000
0000
0000
0000
1001
0000
0000
0010
0000
0001
0000
0000
0002
,
0000
0000
0000
0013
0000
0000
0010
0000
0001
0000
0000
0002
0000
0000
0000
0013
0000
0000
0100
0000
0000
1000
0000
0002
,
0000
0000
0000
0000
0000
0000
0100
0000
0000
0000
0000
0000
0010
0000
0000
0000
0000
0000
0203
0000
0000
0000
0000
0310
,
0000
0000
0000
0000
0000
0000
0200
0000
0000
0000
0000
0310
0000
0000
0000
0000
0000
0000
1000
0000
0000
0100
0000
0000
,
0010
0000
0000
0001
0000
0000
0001
0000
0000
0010
0000
0010
0000
0000
0000
0100
0000
0000
1000
0000
0000
0200
0000
0000
,
0300
0100
0010
2002
0000
3003
0100
0001
,
0000
0001
0020
0000
0230
0000
1300
0010
,
0001
0010
2000
0002
0000
0000
3003
0000
,
1001
0000
0000
0000
0000
0100
0000
0000
0010
0000
0000
1000
0000
0000
0010
0100
0000
0000
0001
0000
0000
0010
0000
0000
,
1001
0000
0000
0000
0000
0100
0000
0000
0010
0000
0000
0001
0000
0000
0010
0100
0000
0000
1000
0000
0000
0010
0000
0000
,
1001
0000
0000
0000
0000
0001
0000
0000
0100
0000
0000
1000
0000
0000
0100
0001
0000
0000
1000
0000
0000
0010
0000
0000
,
1001
0000
0110
0000
1001
0000
0110
0010
,
0001
0000
0000
0000
0000
0011
0000
0000
0000
1100
0000
0000
1000
0000
0000
0000
0000
1010
0000
0000
0000
0101
0000
0000
,
0001
0000
0000
0000
0000
0101
0000
0000
0000
1010
0000
0000
1000
0000
0000
0000
0000
1100
0000
0000
0000
0011
0000
0000
,
1000
0000
0000
0001
0000
0000
1000
0000
0000
0001
0000
0000
1000
0000
0001
1000
0000
0001
1000
0000
0001
1000
0000
0001
,
2000
0001
3001
0110
,
1000
0000
0000
0010
0000
0100
0000
0000
0001
0000
0000
0010
0000
0000
0100
0010
0000
0000
0001
0000
0000
1000
0000
0000
,
0001
0000
0000
0100
0000
0000
0010
0000
1000
0010
0000
1000
0001
0000
0100
0001
0000
0100
0010
0000
0000
1000
0000
0000
,
0100
0000
0000
0001
0000
0100
0000
0000
1000
0000
0000
0100
0000
0000
0010
0001
0000
0000
1000
0000
0001
1000
0000
0000
,
0100
0000
0000
0010
0000
0001
0000
0000
0010
0000
0000
0100
1000
0000
0001
1000
0000
0001
0100
0000
0010
0100
0000
0010
,
1000
0000
0000
0100
0000
0010
0000
0000
0001
0000
0000
1000
0000
0000
0010
0100
0000
0000
0010
0000
0000
1000
0000
0000
,
0001
0000
0000
0100
0000
0000
0001
0000
0010
0001
0000
0010
0001
0000
1000
0100
0000
1000
0100
0000
0000
1000
0000
0000
,
0010
0000
0000
1000
0000
0010
0000
0000
0001
0000
0000
0010
0000
0000
1000
0010
0000
0000
0100
0000
0001
0100
0000
0000
,
0220
0000
0000
0330
,
1010
0000
0000
0101
0000
0000
0110
0000
0000
1001
0000
0000
0010
0000
0000
0100
0000
0001
0000
0000
1000
0000
0000
1001
,
0000
0000
0010
0100
0000
0000
0001
0000
0000
0010
0000
0000
0002
0000
0000
0103
0000
0000
0010
0000
1000
0010
0000
0100
,
0001
0000
0100
0010
0000
1000
0100
0000
0010
0001
0000
0000
0100
0000
0000
0001
0000
0010
0000
0000
0100
0000
0000
0110
,
0000
0000
0100
1000
0000
0000
0001
0000
0000
0100
0000
0000
0010
0000
0000
1000
0000
0001
0000
0000
0010
0000
0000
0011
,
0000
0000
0001
1000
0000
0001
0010
0000
0001
0010
0000
0001
1000
0000
0000
0010
0000
0100
0000
0000
0001
0000
0000
1001
,
0000
0000
1000
0001
0000
0000
0010
0000
0000
0100
0000
0000
2000
0000
0000
3100
0000
0000
0010
0000
0001
0010
0000
0100
,
1000
0000
0010
1000
0000
0001
0100
0000
0010
1000
0000
0010
0100
0000
0000
0010
0000
1000
0000
0000
0001
0000
0000
1001
,
0000
0000
0001
1000
0000
0000
0010
0000
0000
0010
0000
0000
0100
0000
0000
1000
0000
0100
0000
0000
0001
0000
0000
1000
,
0000
0000
1000
0100
0000
0000
0010
0000
0000
0010
0000
0000
1001
0000
0000
0000
0000
0000
0000
0000
0000
0000
0000
0000
,
0000
0000
0000
0000
;
#NOTES:
     dance-single:
     :
     Challenge:
     15:
     :
0000
0000
0000
0000
,
0000
0000
0000
0000
,
0000
0000
0000
0000
,
0000
0000
0000
0000
,
0000
0000
0000
0000
,
0000
0000
0000
0000
,
2020
0000
0000
3030
0202
0000
0000
0303
,
0022
0000
0000
0033
2200
0000
0000
3300
,
0202
0303
2200
3300
0202
0303
2200
3300
,
2002
0000
0000
3003
,
2000
0010
0100
0001
,
0010
0000
0001
0000
3100
0010
0001
0000
,
0002
0010
0100
1000
,
0010
0000
1000
0000
0103
0010
1000
0000
,
0200
0001
1000
0010
,
0001
0000
1000
0000
0301
0100
1000
0000
,
0020
0001
0100
1030
,
2002
0000
0000
0000
,
3003
0000
0020
0001
0130
0020
1000
0130
,
0020
0001
1030
0020
0100
0031
0020
0100
,
1030
0020
0100
0031
0020
0001
1030
0020
,
0100
0031
0020
0001
1030
0020
1000
1030
,
0200
1000
0310
0200
0001
0310
0200
1000
,
0301
0200
0010
1300
0200
0010
0301
0200
,
0010
1300
0200
1000
0301
0200
0010
1300
,
0200
0000
0000
0000
0000
0300
0110
0000
,
2002
0000
0000
0000
0000
0000
0000
3000
,
0200
0000
0000
0000
0000
0000
0000
0300
,
2000
0000
0000
0000
0000
0000
0000
0003
,
0200
0000
0000
0000
0000
0000
0000
3300
,
2000
0000
0200
3000
0002
0000
0000
0300
,
2000
0003
0020
3000
0002
0000
0000
0033
,
0002
0000
0200
0003
2000
0000
0000
0300
,
0002
3000
0020
0003
2000
0000
0000
3030
,
2000
0000
0010
0000
0100
0100
0200
3000
,
0001
0000
1000
0000
0010
0010
0020
0300
,
0001
0000
0000
0000
0000
0000
1000
0000
0000
0000
0000
0000
0100
0000
0000
0000
0000
0000
0001
0000
0000
0000
0000
0001
,
0000
0000
0000
0000
0000
0000
1000
0000
0000
0000
0000
1000
0000
0000
0000
0000
0000
0000
0001
0000
0000
0031
0000
0000
,
0022
0030
0200
0303
2020
0030
0200
3300
,
0201
0000
1000
2000
0000
3000
1300
0100
,
0000
0100
0120
0000
0032
0000
1003
0010
,
0100
0010
2000
0002
0000
0000
3003
0000
,
2002
0000
0000
0000
0000
0000
0000
3000
,
2000
0000
0000
0000
0000
0000
0000
0003
,
0002
0000
0000
0000
0000
0000
0000
3000
,
2000
0003
0002
3000
2000
0003
3001
0000
,
0020
0000
0000
0031
0000
0100
0000
0000
0001
0200
0000
0000
0320
0000
0000
1030
0000
0100
0000
0000
1000
0200
0000
0000
,
0320
0000
0000
0031
0000
0100
0000
0000
0001
0200
0000
0000
0320
0000
0000
1030
0000
0100
0000
0000
1000
0200
0000
0000
,
0010
0000
0000
0010
0000
0000
0010
0000
0000
0010
0000
0000
0310
0000
0100
0010
0000
0100
0010
0000
0100
0010
0000
0100
,
0020
0000
1000
0000
0001
0030
1001
0000
,
0020
0000
1000
0130
0000
0000
0020
0000
0001
0130
0000
0000
0020
0000
1000
0031
0000
0000
0020
0000
0001
1030
0000
0000
,
0020
0000
0100
0031
0000
0000
0020
0000
0100
1030
0000
0000
0020
0000
1000
0031
0000
0000
0020
0000
0001
1030
0000
0000
,
0200
0000
1000
0310
0000
0000
0200
0000
0001
0310
0000
0000
0200
0000
1000
0301
0000
0000
0200
0000
0001
1300
0000
0000
,
0200
0000
0010
0301
0000
0000
0200
0000
0010
1300
0000
0000
0200
0000
1000
0301
0000
0000
0200
0000
0001
1300
0000
0000
,
0002
0000
0010
0103
0000
0000
0002
0000
0100
1003
0000
0000
0002
0000
0100
0013
0000
0000
0002
0000
0010
1003
0000
0000
,
0002
0000
0010
0103
0000
0000
0002
0000
0100
0013
0000
0000
0002
0000
0100
0013
0000
0000
0002
0000
0010
1003
0000
0000
,
2000
0000
0010
3100
0000
0000
2000
0000
0100
3001
0000
0000
2000
0000
0100
3010
0000
0000
2000
0000
0010
3001
0000
0000
,
2000
0000
0010
3100
0000
0000
2000
0000
0100
3010
0000
0000
2000
0000
0100
3010
0000
0000
2000
0000
0010
3001
0000
0000
,
2020
0000
3030
0220
0000
0330
0202
0000
0303
0022
0000
0033
2000
0000
0010
3100
0000
0000
0002
0000
0100
0013
0000
0000
,
2000
0000
0100
3010
0000
0000
0002
0000
0100
0013
0000
0000
0200
0000
0001
0000
0000
0001
0000
0000
0010
0000
0000
0010
,
1000
0000
0000
0010
0000
0000
0010
0000
0000
1000
0000
0000
0302
0000
1000
0013
0000
0000
0200
0000
0010
1300
0000
0000
,
0200
0000
0010
0301
0000
0000
0020
0000
0100
1030
0000
0000
0020
0000
0100
0000
0000
0100
0000
0000
1000
0000
0000
1000
,
0001
0000
0000
0001
0000
0000
0100
0000
0000
0100
0000
0000
2030
0000
0100
3010
0000
0000
2000
0000
0010
3100
0000
0000
,
0002
0000
0100
0013
0000
0000
0002
0000
0100
0013
0000
0000
2000
0000
0010
0000
0000
0010
0000
0000
0100
0000
0000
0100
,
0010
0000
0000
0010
0000
0000
0010
0000
0100
0000
0000
0000
3002
0000
1000
0013
0000
0000
0002
0000
0010
0103
0000
0000
,
2000
0000
0100
3010
0000
0000
2000
0000
0100
3010
0000
0000
0002
0000
0010
0000
0000
0010
0000
0000
0100
0000
0000
0100
,
0010
0000
0000
0010
0000
0000
0010
0000
0100
0003
0000
0000
1001
0000
0000
0000
0000
0000
0000
0000
0000
0000
0000
0000
,
0000
0000
0000
0000
;
#NOTES:
     dance-double:
     :
     Easy:
     6:
     :
00000000
00000000
00000000
00000000
,
00000000
00000000
00000000
00000000
,
00000000
00000000
00000000
00000000
,
00000000
00000000
00000000
00000000
,
00000000
00000000
00000000
00000000
,
00000000
00000000
00000000
00000000
,
00001000
00000000
00010000
00000000
,
00001000
00000000
00010000
00000000
,
00001000
00010000
00001000
00010000
,
00022000
00000000
00000000
00033000
,
00000100
00001000
00000100
00001000
,
00000001
00000010
00000001
00000010
,
00000100
00010000
00000100
00010000
,
00001000
00000000
00010000
00000000
00001000
00010000
00001000
00000000
,
01000000
00010000
01000000
00010000
,
10000000
00100000
10000000
00100000
,
01000000
00001000
00010000
00001000
,
00022000
00000000
00000000
00033000
,
00000100
00001000
00000010
00000100
,
00000001
00000010
00000100
00010000
,
00001000
01000000
00001000
00100000
,
00010000
01000000
00100000
00000000
,
00100000
10000000
01000000
00100000
,
00010000
00100000
00001000
00010000
,
00000100
00001000
00000010
00000100
,
00000001
00000000
00000000
00000000
,
00002002
00000000
00000000
00000000
,
00000000
00000000
00000000
00000000
,
00000000
00000000
00000000
00000000
,
00000000
00000000
00000000
00003003
,
00000010
00000100
00000010
00000100
,
00010000
00001000
00010000
00001000
,
01000000
00010000
01000000
00010000
,
10000000
00100000
10000000
00100000
,
01000000
01000000
02000000
03000000
,
00001000
00001000
00002000
00003000
,
00020000
00030000
00002000
00003000
,
00020000
00030000
00000020
00000030
,
00001000
00001000
00000001
00000001
,
00000010
00000200
00000000
00000300
,
00010000
00001000
00010000
00001000
,
00010000
00001000
00020000
00030000
,
00001000
00000000
00100000
00000000
,
01000000
00000000
10000000
00000000
,
01000000
00000000
00100000
00000000
,
00001000
00010000
00001000
00000000
,
00000100
00000000
00000001
00000000
,
00000100
00000000
00000010
00000000
,
00001000
00000010
00010000
00001000
,
00020000
00000000
00000000
00030000
,
00001000
00100000
00010000
01000000
,
00100000
00000000
01000000
00000000
00010000
10000000
00010000
00000000
,
10000000
01000000
00100000
00001000
,
00010000
00000000
00000100
00000000
00001000
00000010
00001000
00000000
,
00000001
00000100
00000001
00000010
,
00000100
00000000
00010000
00000000
00001000
00010000
00001000
00000000
,
01000000
00010000
00100000
00010000
,
10000000
00000000
00000000
00000000
,
00100000
00100000
00100000
01000000
,
00010000
00100000
00001000
00010000
,
00001000
00010000
00001000
00000000
00010000
00000000
00000010
00000000
,
00000100
00000001
00000010
00000100
,
00001001
00000000
00000001
00000100
,
00000001
00000010
00000100
00010000
,
00001000
00010000
00001000
00000000
00100000
00000000
00010000
00000000
,
01000000
00100000
20000000
00000000
,
00000000
30010000
10010000
00000000
,
00000000
00000000
00000000
00000000
;
#NOTES:
     dance-double:
     :
     Medium:
     10:
     :
00000000
00000000
00000000
00000000
,
00000000
00000000
00000000
00000000
,
00000000
00000000
00000000
00000000
,
00000000
00000000
00000000
00000000
,
00000000
00000000
00000000
00000000
,
00000000
00000000
00000000
00000000
,
00110000
00000000
00011000
00000000
,
00001010
00000000
00011000
00000000
,
01010000
00011000
00001100
00011000
,
00022000
00000000
00033000
00011000
,
00010000
00000000
01000000
00000000
10000000
01000000
10000000
00000000
,
00100000
01000000
00010000
00000000
00100000
00001000
00010000
00000000
,
00001000
00000000
00000100
00000000
00000010
00001000
00000010
00000000
,
00000100
00000001
00000010
00000000
00000100
00001000
00000100
00000000
,
00010000
00000000
00001000
00000000
00100000
00010000
00100000
00000000
,
01000000
10000000
00010000
00000000
01000000
00100000
01000000
00000000
,
00010000
00000000
00100000
00000000
00001000
00010000
00001000
00000000
,
00022000
00000000
00000000
00033000
,
00011000
00000000
00000100
00001000
00000010
00000100
00000010
00000100
,
00000001
00000010
00000001
00000010
00000100
00010000
00001000
00000000
,
00100000
00010000
00100000
00010000
01000000
00100000
01000000
00100000
,
10000000
01000000
00100000
01000000
10000000
01000000
00100000
00000000
,
00001000
00010000
00001000
00010000
00000010
00001000
00000010
00001000
,
00000001
00000100
00001000
00000100
00000010
00001000
00000100
00000000
,
00010000
00001000
00010000
00001000
00100000
00010000
00100000
01000000
,
20000000
00000000
00000000
30000000
,
20020000
00000000
00000000
00000000
,
00000000
00000000
00000000
00000000
,
00000000
00000000
00000000
00000000
,
00000000
00000000
00000000
30030000
,
10000000
00000000
01000000
00000000
00010000
00001000
00010000
00000000
,
00001000
00000000
00100000
00000000
00001000
00010000
00001000
00000000
,
00010000
00000000
00000100
00000000
00001000
00000010
00001000
00000000
,
00000001
00000000
00000100
00000000
00000010
00000100
00000010
00000000
,
00002000
00000001
00000010
00003100
,
00000200
00010300
00020000
00031000
,
00002000
00010000
00010000
00013000
,
02000000
03010000
02000000
03100000
,
10000000
01000000
10000000
00000000
00010000
01000000
00010000
00000000
,
00100000
00001000
00020000
00002000
00000000
00000000
00033000
00000000
,
00000100
00001000
00000010
00000100
,
00000001
00000010
00000100
00000000
00000020
00000000
00000030
00000000
,
00000200
00000000
00001000
00001300
,
00020000
00000000
00001000
00031000
,
00002000
00000000
00100000
00103000
,
00200000
00000000
00010000
00310000
,
00020000
01030000
20000000
30100000
,
02000000
03100000
00020000
00031000
,
00010000
00001000
00010000
00001000
00010000
00000100
00001000
00000000
,
00002020
00000000
00000000
00003030
,
00000200
00000001
00000010
00001000
,
00002300
00000100
00010000
01000000
,
02003000
00001000
00100000
00001000
,
03200000
00010000
01000000
20300000
,
32000000
10000000
00100000
00010000
,
03020000
01000000
00001000
00000100
,
00030200
00010000
00000010
00010000
,
00000310
00000000
00000000
00000000
,
00000001
00000001
00000001
00000001
00000001
00000100
00000010
00000100
,
00000001
00000010
00000100
00010000
00001000
00100000
00010000
01000000
,
00010000
00100000
01000000
00000000
10000000
00100000
01000000
00100000
,
10000000
00100000
01000000
00001000
00010000
00000100
00001000
00000010
,
00001000
00000100
00000010
00000000
00000001
00000100
00000010
00000100
,
00001000
00010000
00001000
00100000
00010000
01000000
00010000
00100000
,
01000000
10000000
00100000
01000000
10000000
01000000
10000000
01000000
,
00010000
00100000
00001000
00010000
00002000
00000000
00010000
00000000
,
00000100
00013000
00011000
00000000
,
00000000
00000000
00000000
00000000
;
#NOTES:
     dance-double:
     :
     Hard:
     14:
     :
00000000
00000000
00000000
00000000
,
00000000
00000000
00000000
00000000
,
00000000
00000000
00000000
00000000
,
00000000
00000000
00000000
00000000
,
00000000
00000000
00000000
00000000
,
00000000
00000000
00000000
00000000
,
10000000
00000000
00000000
10000000
01000000
00000000
00000000
01000000
,
00100000
00000000
00000000
00100000
00001000
00000000
00000000
00001000
,
00010000
00000000
00000000
00001000
00000000
00000000
00010000
00000000
00000000
00001000
00000000
00000000
00000100
00000000
00000000
00000010
00000000
00000000
00000100
00000000
00000010
00000100
00000000
00000010
,
00000200
00000010
00000310
00001001
,
00002000
00000000
00000000
00000000
00000000
00003010
00000000
00000000
00000100
00000000
00000000
00000010
00000000
00000000
00001000
00000001
00000000
00000000
00000010
00000000
00000000
00001000
00000000
00000000
,
00020000
00000000
00000000
01030000
00000000
00000000
00100000
00000000
00010000
00000000
00000000
10000000
00000000
00000000
00010000
01000000
00000000
00000000
00100000
00000000
00000000
00000000
00000000
00000000
,
00200000
00000000
00000000
00000000
00000000
10300000
00000000
00000000
01000000
00000000
00000000
10000000
00000000
00000000
00100000
01000000
00000000
00000000
00010000
00000000
00000000
00100000
00000000
00000000
,
00002000
00000000
00000000
00013000
00000000
00000010
00000000
00000000
00001000
00000000
00000000
00000100
00000000
00000000
00000010
00000001
00000000
00000000
00001000
00000000
00000000
00000000
00000000
00000000
,
00000002
00000000
00000000
00000000
00000000
00001003
00000000
00000000
00000010
00000000
00000000
00001000
00000000
00000000
00000001
00000100
00000000
00000000
00001000
00000000
00000000
00010000
00000000
00000000
,
00200000
00000000
00000000
01300000
00000000
00000000
00010000
00000000
00100000
00000000
00000000
01000000
00000000
00000000
10000000
01000000
00000000
00000000
00100000
00000000
00000000
00000000
00000000
00000000
,
00200000
00000000
00000000
00000000
00000000
00310000
00000000
00000000
10000000
00000000
00000000
00010000
00000000
00000000
00100000
01000000
00000000
00000000
00010000
00000000
00000000
00001000
00000000
00000000
,
00020000
00000000
00001000
00031000
,
00011000
00000000
00000000
00000000
00000000
00000000
00001000
00000000
00000000
00000010
00000000
00000000
00000001
00000000
00000000
00000010
00000000
00000000
00000100
00000000
00001000
00000100
00000000
00000000
,
00001000
00000000
00000000
00000010
00000000
00000000
00010000
00000000
00000000
00001000
00000000
00000000
01000000
00000000
00010000
01000000
00000000
00000000
00100000
00000000
01000000
00100000
00000000
00000000
,
10000000
00000000
00000000
01000000
00000000
00000000
00010000
00000000
00000000
01000000
00000000
00000000
10000000
00000000
00000000
00100000
00000000
00000000
01000000
00000000
00100000
01000000
00000000
00000000
,
00010000
00000000
00000000
00100000
00000000
00000000
00001000
00000000
00010000
00001000
00000000
00000000
00010000
00000000
00000100
00001000
00000000
00000000
00001100
00000000
00000000
00000000
00000000
00000000
,
00000010
00000000
00000000
00000100
00000000
00000000
00000001
00000000
00000000
00000100
00000000
00000000
00000010
00000000
00000000
00001000
00000000
00000000
00000100
00000000
00000010
00000001
00000000
00000000
,
00000010
00000000
00000000
00000100
00000000
00000000
00010000
00000000
00000000
00001000
00000000
00000000
00100000
00000000
00010000
00100000
00000000
00000000
01000000
00000000
10000000
01000000
00000000
00000000
,
10000000
00000000
00000000
00100000
00000000
00000000
00010000
00000000
00000000
00001000
00000000
00000000
00010000
00000000
00001000
00010000
00000000
00000000
00001000
00000000
00010000
00001000
00000000
00000000
,
00020000
00000000
00000000
00031000
,
00022000
00000000
00000000
00000000
,
00000000
00000000
00000000
00000000
,
00000000
00000000
00000000
00000000
,
00000000
00000000
00000000
00033000
,
00001000
00000000
00000000
00000010
00000000
00000000
00000100
00000000
00000000
00000000
00000000
00000001
00000000
00000000
00000000
00000001
00000000
00000000
00000000
00000000
00000000
00000001
00000000
00000000
,
00000100
00000000
00000000
00001000
00000000
00000000
00000100
00000000
00000000
00000000
00000000
00010000
00000000
00000000
00000000
00010000
00000000
00000000
00000000
00000000
00000000
00010000
00000000
00000000
,
00001000
00000000
00000000
01000000
00000000
00000000
00100000
00000000
00000000
00000000
00000000
00010000
00000000
00000000
00000000
00010000
00000000
00000000
00000000
00000000
00000000
00010000
00000000
00000000
,
00100000
00000000
00000000
10000000
00000000
00000000
01000000
00000000
00000000
00000000
00000000
00010000
00000000
00000000
00000000
00010000
00000000
00000000
00000000
00000000
00000000
00010000
00000000
00000000
,
00001000
00000000
00000000
00011000
00000000
00000000
00000000
00000000
00000000
00001010
00000000
00000000
00000000
00000000
00000000
00000011
00000000
00000000
00000001
00000000
00000100
00000000
00000000
00000200
,
00000000
00000000
00000000
00000300
00000000
00000000
00000010
00000000
00001000
00000000
00000000
00002000
00000000
00000000
00000000
00003000
00000000
00000000
00000100
00000000
00000000
00010000
00000000
00002000
,
00000000
00000000
00000000
00000000
00000000
00000000
00100000
00000000
00000000
00000000
00000000
00000000
00010000
00000000
00000000
00000000
00000000
00000000
02003000
00000000
00000000
00000000
00000000
03100000
,
00000000
00000000
00000000
00000000
00000000
00000000
02000000
00000000
00000000
00000000
00000000
03100000
00000000
00000000
00000000
00000000
00000000
00000000
00100000
00000000
00000000
10000000
00000000
00000000
,
01000000
00000000
00000000
00100000
00000000
00000000
00001000
00000000
00000000
00010000
00000000
00010000
00000000
00000000
00000000
00000100
00000000
00000000
00001000
00000000
00000000
00000020
00000000
00000000
,
00000030
00000010
00000100
00002002
00000000
00003003
00000001
00000100
,
00000000
00000100
00002000
00000000
00023000
00000000
00031000
00000010
,
00001000
00010000
01000000
20000000
00000000
00000000
00000000
30000000
,
10010000
00000000
00000000
00000000
00000000
10000000
00000000
00000000
01000000
00000000
00000000
00010000
00000000
00000000
00001000
00010000
00000000
00000000
00001000
00000000
00000000
00000000
00000000
00000000
,
00011000
00000000
00000000
00000000
00000000
00001000
00000000
00000000
00000010
00000000
00000000
00000001
00000000
00000000
00001000
00000001
00000000
00000000
00000010
00000000
00000000
00000000
00000000
00000000
,
00001001
00000000
00000000
00000000
00000000
00000001
00000000
00000000
00000010
00000000
00000000
00001000
00000000
00000000
00010000
00001000
00000000
00000000
00010000
00000000
00000000
00000000
00000000
00000000
,
00011000
00011000
00011000
00020000
,
00031000
00000000
00000000
00000000
00000000
00000100
00000000
00000000
00000000
00001000
00000000
00000000
00010000
00000000
00000000
00000000
00000000
01000000
00000000
00000000
00000000
00010000
00000000
00000000
,
00001000
00000000
00000000
00000000
00000000
00000010
00000000
00000000
00000000
00001000
00000000
00000000
00010000
00000000
00000000
00000000
00000000
00100000
00000000
00000000
00000000
00010000
00000000
00000000
,
00001000
00000000
00000000
00010000
00000000
00000000
00001000
00000000
00000000
00010000
00000000
00000000
00001000
00000000
00010000
00001000
00000000
00010000
00001000
00000000
00010000
00001000
00000000
00010000
,
00002000
00010000
00013000
00011000
,
00000010
00000000
00000000
00001000
00000000
00000001
00000000
00000000
00000010
00000000
00000000
00000100
00000000
00000000
00001000
00000100
00000000
00000000
00000010
00000000
00000000
00000100
00000000
00000000
,
00010000
00000000
00000000
00001000
00000000
00000000
00100000
00000000
00010000
00100000
00000000
00010000
00100000
00000000
01000000
00100000
00000000
01000000
10000000
00000000
00000000
00100000
00000000
00000000
,
01000000
00000000
00000000
00010000
00000000
10000000
00000000
00000000
00100000
00000000
00000000
01000000
00000000
00000000
00010000
00100000
00000000
00000000
00001000
00000000
00010000
00001000
00000000
00000000
,
00000010
00000000
00000000
00000100
00000000
00001000
00000000
00000000
00000100
00000000
00000000
00000010
00000001
00000000
00001000
00000001
00000000
00001000
00000100
00000000
00001000
00000100
00000000
00001000
,
00000010
00000000
00000000
00001000
00000000
00000100
00000000
00000000
00000001
00000000
00000000
00000100
00000000
00000000
00010000
00001000
00000000
00000000
01000000
00000000
00000000
00010000
00000000
00000000
,
00100000
00000000
00000000
00010000
00000000
00000000
01000000
00000000
00100000
01000000
00000000
00100000
10000000
00000000
01000000
10000000
00000000
01000000
10000000
00000000
00000000
01000000
00000000
00000000
,
00010000
00000000
00000000
00001000
00000000
00010000
00000000
00000000
00000100
00000000
00000000
00001000
00000000
00000000
00000010
00000100
00000000
00000000
00000010
00000000
00000100
00000010
00000000
00000000
,
00000220
00000000
00000000
00000330
,
00000110
00000000
00000000
00001000
00000000
00000000
00010000
00000000
00000000
01100000
00000000
00000000
00100000
00000000
00000000
10000000
00000000
01000000
00000000
00000000
00100000
00000000
00000000
01100000
,
00000000
00000000
00010000
00100000
00000000
00000000
01000000
00000000
00000000
00010000
00000000
00000000
00002000
00000000
00000000
00013000
00000000
00000000
00000010
00000000
00001000
00000010
00000000
00000100
,
00000001
00000000
00000100
00000010
00000000
00001000
00000100
00000000
00000010
00000100
00000000
00000000
00001000
00000000
00000000
00000010
00000000
00000100
00000000
00000000
00001000
00000000
00000000
00011000
,
00000000
00000000
00100000
00010000
00000000
00000000
01000000
00000000
00000000
00100000
00000000
00000000
10000000
00000000
00000000
01000000
00000000
00010000
00000000
00000000
01000000
00000000
00000000
01100000
,
00000000
00000000
00010000
01000000
00000000
00100000
01000000
00000000
00100000
01000000
00000000
00010000
01000000
00000000
00000000
00001000
00000000
00010000
00000000
00000000
00000010
00000000
00000000
00000110
,
00000000
00000000
00000001
00000010
00000000
00000000
00000100
00000000
00000000
00001000
00000000
00000000
00000002
00000000
00000000
00000103
00000000
00000000
00001000
00000000
00010000
00001000
00000000
00010000
,
00001000
00000000
00100000
00010000
00000000
00100000
00010000
00000000
00100000
01000000
00000000
10000000
00010000
00000000
00000000
01000000
00000000
10000000
00000000
00000000
01000000
00000000
00000000
01100000
,
00000000
00000000
00010000
00001000
00000000
00000000
00000100
00000000
00000000
00000100
00000000
00000000
00000020
00000000
00000000
00000000
00000000
00000000
00000001
00000000
00000000
00000000
00000000
00000000
,
00000100
00010030
00011000
00000000
,
00000000
00000000
00000000
00000000
;
#NOTES:
     dance-double:
     :
     Challenge:
     14:
     :
00000000
00000000
00000000
00000000
,
00000000
00000000
00000000
00000000
,
00000000
00000000
00000000
00000000
,
00000000
00000000
00000000
00000000
,
00000000
00000000
00000000
00000000
,
00000000
00000000
00000000
00000000
,
00000001
00000100
00010000
00000000
00001000
00100000
10000000
00000000
,
10000000
01000000
00001000
00000000
00010000
00000010
00000001
00000000
,
00000001
00000100
00010000
01000000
00001000
00000010
00010000
00100000
,
02200000
00000000
00000000
03300000
,
10000000
01000000
00010000
00000100
00010000
01000000
00010000
00001000
,
00010000
00000010
00001000
00100000
00010000
00000010
00001000
00000000
,
00000001
00000100
00001000
01000000
00001000
00000100
00001000
00010000
,
00001000
00100000
00010000
00000010
00001000
00100000
00010000
00000000
,
01000000
00100000
00010000
00000100
00001000
01000000
10000000
00100000
,
00010000
00000010
00001000
00000001
00000100
00010000
01000000
00000000
,
00100000
00010000
00001000
00000010
00001000
00010000
00100000
00010000
,
00022000
00000000
00000000
00000000
,
00033000
00000000
00001000
00000010
00000100
00000010
00001000
00010000
,
00100000
01000000
00100000
00010000
00001000
00000100
00000010
00000100
,
00010000
01000000
00100000
01000000
00001000
00000010
00000100
00000010
,
00010000
00100000
01000000
00100000
00001000
00010000
00000010
00000100
,
00000010
00001000
00010000
00000010
00001000
00010000
00100000
00010000
,
00001000
00100000
00010000
00001000
00000100
00000001
00000100
00010000
,
01000000
10000000
00100000
00001000
00000010
00010000
00000100
00000010
,
00000001
00001000
00001000
00010000
00010000
10000000
00010000
00000000
,
20020000
00000000
00000000
00000000
,
00000000
00000000
00000000
00000000
,
00000000
00000000
00000000
00000000
,
00000000
00000000
00000000
30030000
,
00020000
00000000
00000100
00000000
,
01000000
00000000
00100000
00000000
,
00032000
00000000
01000000
00000000
,
00000100
00000000
00000010
00000000
,
00103000
00000000
01000000
00000000
00100000
01000000
00100000
00000000
,
00010000
00000000
00001000
00000000
00010000
00001000
00010000
00000000
,
00000100
00000000
00000010
00000000
00000100
00000010
00000100
00000000
,
00010000
00000000
00001000
00000000
00010000
00001000
00010000
00000000
,
00000100
00000001
00000100
00000000
00010000
00000000
00001000
00000000
,
01000000
10000000
01000000
00000000
00001000
00000000
00010000
00000000
,
00000010
00000001
00000010
00000000
00010000
00000000
00001000
00000000
,
00100000
10000000
00100000
00000000
00001000
00000000
00010000
00000000
,
00000001
00000000
00000000
00000000
,
10000000
00000000
00000000
00000000
,
00000001
00000000
00000000
00000000
,
10000000
10000000
10000000
00000000
,
00000001
00000000
10000000
00000000
,
00000001
00000000
10000000
00000000
,
00000001
00001000
00010000
00000000
10000000
00010000
00001000
00000000
,
00000001
00000001
00000001
00001001
,
00000001
00000100
00001000
00000010
00001000
00010000
01000000
00010000
,
00100000
10000000
01000000
00010000
00100000
00010000
00001000
00000100
,
00000010
00010000
00001000
00000010
00001000
00000100
00001000
00010000
,
00100000
00010000
01000000
10000000
00100000
00010000
00001000
00000000
,
00000100
00001000
00000010
00000001
00000100
00010000
01000000
00001000
,
00010000
01000000
00010000
00100000
10000000
01000000
00001000
00000010
,
00000001
00001000
00010000
00001000
00000010
00001000
00000100
00010000
,
00200000
00000000
00000000
00300000
,
10100000
01010000
00001010
00000101
00000001
00000100
00010000
00100000
,
00001000
00000010
00000100
00001000
00010000
00000100
00001000
00010000
,
00100000
00010000
01000000
10000000
00100000
00010000
00001000
00100000
,
00010000
00001000
00000100
00000001
00001000
00000010
00001000
00000100
,
00010000
01000000
10000000
00000000
10000000
01000000
00001000
00000010
,
00010000
00100000
01000000
00010000
00001000
01000000
00010000
00001000
,
00000010
00001000
00000100
00000001
00000010
00001000
00010000
00000010
,
00001000
00010000
01000000
10000000
00010000
00100000
00010000
01000000
,
00001000
00000100
00000001
00000000
00000110
00000000
00000000
00000000
,
00000000
00000000
00000000
00000000
;
