
//----- song ID: dest -----//
#TITLE:DeStRuCtIvE FoRcE;
#ARTIST:BADMYTH;
#BANNER:DeStRuCtIvE FoRcE.png;
#BACKGROUND:DeStRuCtIvE FoRcE-bg.png;
#CDTITLE:./CDTitles/DDR A20 PLUS.png;
#MUSIC:DeStRuCtIvE FoRcE.ogg;
#SAMPLESTART:89.488;
#SAMPLELENGTH:15;
#BPMS:0=88.5,68=177,132=88.5,164=177;
#NOTES:
     dance-single:
     :
     Beginner:
     2:
     :
0000
0000
0000
0000
,
0000
0000
0000
0000
,
0000
0000
0000
0000
,
0000
0000
0000
0000
,
0000
0000
0000
0000
,
0001
0000
0001
0000
,
0100
0000
0000
0000
,
1000
0000
1000
0000
,
0100
0000
0000
0000
,
0001
0000
0001
0000
,
0010
0000
0000
0000
,
1000
0000
1000
0000
,
0010
0000
0000
0000
,
0010
0000
0010
0000
,
0010
0000
0000
0000
,
0100
0000
0100
0000
,
0100
0000
0000
0000
,
0001
0000
0001
0000
,
0001
0000
0000
0000
,
0100
0000
0100
0000
,
0100
0000
0000
0000
,
0010
0000
0010
0000
,
0010
0000
0000
0000
,
1000
0000
1000
0000
,
1000
0000
0000
0000
,
1000
0000
1000
0000
,
0100
0000
0000
0000
,
0100
0000
0100
0000
,
0010
0000
0000
0000
,
0010
0000
0010
0000
,
0001
0000
0000
0000
,
0001
0000
0001
0000
,
0100
0000
0000
0000
,
0001
0000
0000
0000
,
1000
0000
0000
0000
,
0001
0000
0000
0000
,
1000
0000
0000
0000
,
1001
0000
0000
0000
,
1001
0000
0000
0000
,
0010
0010
0010
0000
,
0100
0100
0100
0000
,
1000
0000
0100
0000
,
0010
0000
0000
0000
,
1000
0000
0100
0000
,
0001
0000
0000
0000
,
0001
0000
0100
0000
,
0010
0000
0000
0000
,
0001
0000
0100
0000
,
1000
0000
0000
0000
,
1000
0000
0010
0000
,
0100
0000
0000
0000
,
1000
0000
0010
0000
,
0001
0000
0000
0000
,
0001
0000
0010
0000
,
0100
0000
0000
0000
,
0001
0000
0010
0000
,
1000
0000
0000
0000
,
1001
0000
0000
0000
,
0000
0000
0000
0000
;
#NOTES:
     dance-single:
     :
     Easy:
     6:
     :
0000
0000
0000
0000
,
0000
0000
0000
0000
,
0000
0000
0000
0000
,
0000
0000
0000
0000
,
0000
0000
0000
0000
,
0001
0001
0100
0000
,
1000
1000
0100
0000
,
0001
0001
0010
0000
,
1000
1000
0010
0000
,
0010
0010
1001
0000
,
0100
0100
1001
0000
,
0001
0001
0110
0000
,
1000
1000
0110
0000
,
2002
0000
3003
0000
,
0220
0000
0330
0000
,
0001
0010
0001
0000
1000
0010
1000
0000
,
0001
1000
0001
1000
0001
0000
0000
0000
,
0001
1000
0100
1000
,
0010
0100
0010
1001
,
1000
0001
0100
0001
,
0010
0100
0010
1001
,
0001
0100
0010
1000
,
0100
0010
0001
1001
,
1000
0100
0010
0001
,
0100
0010
1000
1001
,
0100
0010
0001
0100
,
0010
1000
0001
0110
,
0100
0010
1000
0100
,
0010
0001
1000
0110
,
0001
0100
1000
0100
,
0001
1000
0001
1001
,
1000
0100
0001
0100
,
1000
0001
1001
0000
,
0002
0000
0003
0000
,
0200
0000
0300
0000
,
0020
0000
0030
0000
,
2000
0000
3000
0000
,
0001
0001
1000
1000
,
0001
0001
1000
1000
,
0010
1000
0010
0000
0100
0001
0100
0000
,
0011
1010
1001
0000
,
1000
0100
0010
0001
,
0011
0000
1010
0000
,
0001
0100
0010
1000
,
1010
0000
0011
0000
,
0001
0010
0100
1000
,
1100
0000
0101
0000
,
1000
0010
0100
0001
,
0101
0000
1001
0000
,
0001
0100
1000
0100
,
0001
0000
1001
0000
,
1000
0100
0001
0100
,
1000
0000
1001
0000
,
0001
0010
1000
0010
,
0001
0000
1001
0000
,
1000
0010
0001
0010
,
1000
0000
0001
0000
,
2002
0000
0000
0000
,
0000
0000
0000
0000
,
3003
0000
0000
0000
,
0000
0000
0000
0000
;
#NOTES:
     dance-single:
     :
     Medium:
     9:
     :
0000
0000
0000
0000
,
0000
0000
0000
0000
,
0000
0000
0000
0000
,
0000
0000
0000
0000
,
0000
0000
0000
0000
,
0001
0000
1000
0000
0001
0000
0000
0110
0000
0000
0100
0000
0010
0000
0000
0000
,
1000
0000
0001
0000
1000
0000
0000
0110
0000
0000
0010
0000
0200
0000
0300
0000
,
0001
0000
0010
0000
0100
0000
0000
1001
0000
0000
0100
0000
0010
0000
0000
0000
,
1000
0000
0010
0000
0100
0000
0000
1001
0000
0000
0100
0000
0020
0000
0030
0000
,
1000
0000
0100
0000
0010
0000
0000
0011
0000
0000
1000
0000
0100
0000
0000
0000
,
0001
0000
0100
0000
0010
0000
0000
1010
0000
0000
0001
0000
0200
0000
0300
0000
,
0010
0000
0100
0000
1000
0000
0000
0011
0000
0000
0100
0000
1000
0000
0000
0000
,
0010
0000
0100
0000
0001
0000
0000
1010
0000
0000
0100
0000
0002
0000
0003
0000
,
1001
0000
0110
0000
,
1010
0000
0101
0000
,
0010
0001
0100
0000
0010
1000
0100
0000
,
1000
0001
1000
0000
0001
1000
0001
0000
1001
0000
0000
0000
0000
0000
0000
0000
,
0110
0000
1001
0000
0010
1000
0100
0000
,
0010
0001
0100
0000
0010
0000
0000
0000
,
0110
0000
1001
0000
0010
0001
0100
0000
,
0010
1000
0100
0000
0010
0000
0000
0000
,
0110
0000
1001
0000
0100
0001
0010
0000
,
0100
1000
0010
0000
0100
0000
0000
0000
,
0110
0000
1001
0000
0100
1000
0010
0000
,
0100
0001
0010
0000
0100
0000
0000
0000
,
0011
0000
1100
0000
0010
0001
1000
0000
,
0001
1000
0100
0000
0010
0000
0000
0000
,
1010
0000
0101
0000
0010
1000
0001
0000
,
1000
0001
0100
0000
0010
0000
0000
0000
,
1100
0000
0011
0000
0100
1000
0001
0000
,
1000
0001
0010
0000
0100
0000
0000
0000
,
0101
0000
1010
0000
0100
0001
1000
0000
,
0001
1000
0010
0000
0100
0000
0000
0000
,
0021
0000
0130
0000
,
1020
0000
0130
0000
,
0010
0000
0100
0000
0010
0000
0000
1001
0000
0000
0001
0000
1000
0000
0000
0000
,
0100
0000
0010
0000
0100
0000
0000
1001
0000
0000
1000
0000
0002
0000
0003
0000
,
2000
3100
0200
0301
,
0002
0013
0020
1030
,
1000
0010
1000
0100
0010
0001
0100
0001
,
0010
0100
0010
0000
0001
1000
0001
0000
1001
0000
0000
0000
0000
0000
0000
0000
,
0010
0000
1001
0000
0100
0001
0010
0000
,
0100
1000
0010
0000
0100
0001
0100
0000
,
0010
0000
1001
0000
0010
1000
0100
0000
,
0010
0001
0100
0000
0001
1000
0001
0000
,
0100
0000
1001
0000
0010
1000
0100
0000
,
0010
0001
0100
0000
0010
1000
0010
0000
,
0100
0000
1001
0000
0100
0001
0010
0000
,
0100
1000
0010
0000
1000
0001
1000
0000
,
0010
0000
1001
0000
0010
1000
0001
0000
,
0010
0001
0100
0000
0001
1000
0001
0000
,
0010
0000
1001
0000
0100
0010
1000
0000
,
0001
1000
0010
0000
0100
0010
0100
0000
,
0010
0000
1001
0000
0100
0001
1000
0000
,
0100
1000
0010
0000
1000
0001
1000
0000
,
0010
0000
1001
0000
0010
0100
0001
0000
,
1000
0001
0100
0000
0010
0100
0010
0000
,
0220
0000
0000
0000
,
0000
0000
0000
0000
,
0330
0000
0000
0000
,
0000
0000
0000
0000
;
#NOTES:
     dance-single:
     :
     Hard:
     13:
     :
0000
0000
0000
0000
,
0000
0000
0000
0000
,
0000
0000
0000
0000
,
0000
0000
0000
0000
,
0000
0000
0000
0000
,
0001
0000
1000
0100
0010
0000
0000
0110
0000
0000
0001
1000
0001
0000
0001
0100
,
0010
0000
0000
0000
1000
0000
0001
0000
0100
0000
0000
0000
0000
0000
0110
0000
0000
0000
0000
0000
0010
0000
1000
0000
0100
0000
0010
0100
0000
0010
0100
0000
,
0010
0000
0010
0001
1000
0000
0000
1001
0000
0000
0100
0010
1000
0000
0100
0010
,
0001
0000
0100
0001
1000
0000
0000
1001
0000
0000
1000
0010
0200
0000
0300
0000
,
0100
0000
0010
1000
0100
0000
0000
1001
0000
0000
0001
1000
0010
0000
1000
0001
,
0010
0000
0000
0000
0001
0000
0100
0000
0010
0000
0000
0000
0000
0000
1001
0000
0000
0000
0000
0000
0001
0000
0100
0000
0010
0000
0100
0010
0000
0100
0010
0000
,
1000
0000
0100
0010
0001
0000
0000
1001
0000
0000
0001
0100
0010
0000
1000
0100
,
1000
0000
0010
0100
0010
0000
0000
1001
0000
0000
1000
0001
2000
0000
3000
0000
,
0002
0003
0200
0300
,
2000
3000
0020
0030
,
0002
0003
0200
0300
2000
3000
0020
0030
,
0001
0100
0010
1000
0100
0010
0001
0000
1001
0000
0000
0000
0000
0000
0000
0000
,
1001
0000
0001
0010
0100
0010
0001
0100
,
0010
0000
1000
0000
0100
0000
1000
0000
0001
0100
0001
0000
0010
0000
0000
0000
,
1001
0000
1000
0010
0100
0010
1000
0001
,
0010
0000
0100
0000
1000
0000
0001
0000
0100
0001
0100
0000
0010
0000
0000
0000
,
1001
0000
0100
1000
0001
0100
0010
0100
,
0001
0000
1000
0000
0100
0000
0010
0000
0001
1000
0001
0000
0010
0000
0000
0000
,
1001
0000
0010
0001
0100
0010
1000
0010
,
0100
0000
0001
0000
1000
0000
0010
0000
1000
0100
1000
0000
0010
0000
0000
0000
,
1001
0000
0001
0010
0001
0010
1000
0010
,
0001
0000
0100
0000
0010
0000
1000
0000
0010
0100
0001
0000
1000
0000
0000
0000
,
1001
0000
1000
0010
0001
0010
0001
0010
,
1000
0000
0100
0000
0010
0000
0001
0000
0100
0010
1000
0000
0001
0000
0000
0000
,
1001
0000
0010
1000
0100
1000
0100
1000
,
0010
0000
0100
0000
0001
0000
0010
0000
0001
0100
0010
0000
1000
0000
0000
0000
,
1001
0000
0010
0001
0100
0001
0100
0001
,
0010
0000
0100
0000
1000
0000
0001
0000
0100
0010
1000
0000
0001
0000
0000
0000
,
1002
0000
0103
0000
,
2001
0000
3100
0000
,
0001
0000
1000
0001
0100
0000
0000
1001
0000
0000
0010
1000
0100
0000
0000
0100
,
1000
0000
0000
0000
0001
0000
1000
0000
0100
0000
0000
0000
0000
0000
1001
0000
0000
0000
0000
0000
0010
0000
1000
0000
0100
0000
0010
0100
0010
0000
0010
0000
,
0002
0000
0000
0010
0000
0000
0013
0000
0002
0000
0000
0100
0000
0000
0103
0000
,
0020
0000
0000
1000
0000
0000
1030
0000
0200
0000
0000
1000
0000
0000
1300
0000
,
0010
1000
0010
1000
0100
0010
0001
1000
0001
0010
0001
0010
0001
0010
0100
1000
,
0001
0010
0001
0100
0010
1000
0010
0000
1001
0000
0000
0000
0000
0000
0000
0000
,
1001
0000
0100
0001
0010
0100
1000
0010
,
0100
0001
0100
0000
0010
0000
1000
0100
0010
0000
0001
0000
0100
0000
0001
0000
,
1001
0000
0010
1000
0100
1000
0010
0100
,
0001
0010
0001
0000
0100
0000
0001
0010
0100
0000
1000
0000
0010
0000
0100
0000
,
0110
0000
1000
0010
0001
0010
1000
0100
,
0010
0001
0010
0000
0100
0000
1000
0001
0100
0000
0010
0000
1000
0000
0001
0000
,
1001
0000
0001
0010
1000
0010
0001
1000
,
0010
0100
0010
0000
1000
0000
0001
0010
0100
0000
1000
0000
0100
0000
1000
0000
,
1001
0000
0010
1000
0100
0010
0001
0100
,
0010
1000
0010
0000
0100
0000
0001
0010
0100
0000
1000
0000
0010
0000
1000
0000
,
1001
0000
0100
0001
0010
0001
0100
0010
,
1000
0100
1000
0000
0010
0000
1000
0100
0010
0000
0001
0000
0100
0000
0010
0000
,
0110
0000
0001
0100
1000
0100
0001
0010
,
0100
1000
0100
0000
0010
0000
0001
1000
0010
0000
0100
0000
0001
0000
1000
0000
,
1001
0000
1000
0100
0001
0100
1000
0001
,
0100
0010
0100
0000
0001
0000
1000
0100
0010
0000
0001
0000
1000
0001
1000
0001
,
2000
0000
0000
0000
,
0000
0000
0000
0000
,
3000
0000
0000
0000
,
0000
0000
0000
0000
;
#NOTES:
     dance-double:
     :
     Easy:
     6:
     :
00000000
00000000
00000000
00000000
,
00000000
00000000
00000000
00000000
,
00000000
00000000
00000000
00000000
,
00000000
00000000
00000000
00000000
,
00000000
00000000
00000000
00000000
,
10000000
10000000
01000000
00000000
,
00100000
00100000
00001000
00000000
,
00010000
00010000
00001000
00000000
,
00000100
00000100
00000001
00000000
,
00000010
00000001
00000100
00000000
,
00000010
00001000
00000100
00000000
,
00010000
00001000
01000000
00000000
,
00100000
10000000
01000000
00000000
,
00200000
00000000
00300000
00000000
,
00002000
00000000
00003000
00000000
,
00010000
00000100
00010000
00000000
00000100
00000010
00000100
00000000
,
00001000
00000001
00001000
00000000
00001001
00000000
00000000
00000000
,
00000001
00000010
00000100
00001000
,
00000010
00000100
00001000
00011000
,
00001000
00100000
00010000
01000000
,
00100000
10000000
00010000
10010000
,
10000000
01000000
00100000
00010000
,
01000000
00001000
00010000
00011000
,
00010000
00000100
00001000
00000010
,
00000100
00000001
00001000
00001001
,
00000001
00000100
00001000
00010000
,
00000100
00010000
00001000
00011000
,
00001000
00100000
00010000
01000000
,
00100000
10000000
01000000
01100000
,
10000000
01000000
00010000
00001000
,
01000000
00001000
00010000
00011000
,
00010000
00000010
00001000
00000100
,
00000010
00000001
00000100
00000110
,
00000002
00000000
00000003
00000000
,
00000020
00000000
00000030
00000000
,
00002000
00000000
00003000
00000000
,
00020000
00000000
00030000
00000000
,
00200000
00000000
00300000
00000000
,
20000000
00000000
30000000
00000000
,
10000000
01000000
10000000
00000000
00010000
00100000
00001000
00000000
,
00010000
00000100
00001000
00000000
00001001
00000000
00000000
00000000
,
00000001
00000010
00000100
00010000
,
00001000
00100000
00010000
00000000
,
10000000
00100000
01000000
00001000
,
00010000
00000010
00001000
00000000
,
00000001
00000100
00000010
00010000
,
00001000
01000000
00100000
00000000
,
10000000
01000000
00100000
00001000
,
00010000
00000100
00000010
00000000
,
00000001
00000010
00001000
00010000
,
01000000
00000000
01100000
00000000
,
10000000
00100000
00010000
00001000
,
00000100
00000000
00000110
00000000
,
00000001
00000100
00001000
00010000
,
00100000
00000000
10010000
00000000
,
10000000
01000000
00010000
00001000
,
00000010
00000000
00000110
00000000
,
00002002
00000000
00000000
00000000
,
00000000
00000000
00000000
00000000
,
00003003
00000000
00000000
00000000
,
00000000
00000000
00000000
00000000
;
#NOTES:
     dance-double:
     :
     Medium:
     9:
     :
00000000
00000000
00000000
00000000
,
00000000
00000000
00000000
00000000
,
00000000
00000000
00000000
00000000
,
00000000
00000000
00000000
00000000
,
00000000
00000000
00000000
00000000
,
10000000
00000000
01000000
00000000
00100000
00000000
00000000
01100000
00000000
00000000
00100000
00000000
01000000
00000000
00000000
00000000
,
00010000
00000000
00001000
00000000
00010000
00000000
00000000
00011000
00000000
00000000
00001000
00000000
00000020
00000000
00000030
00000000
,
00000001
00000000
00000010
00000000
00000100
00000000
00000000
00000110
00000000
00000000
00000100
00000000
00001000
00000000
00000000
00000000
,
00000100
00000000
00010000
00000000
00001000
00000000
00000000
00011000
00000000
00000000
00010000
00000000
00200000
00000000
00300000
00000000
,
10000000
00000000
00100000
00000000
01000000
00000000
00000000
01010000
00000000
00000000
00100000
00000000
00001000
00000000
00000000
00000000
,
00010000
00000000
00000100
00000000
00001000
00000000
00000000
00001010
00000000
00000000
00000001
00000000
00002000
00000000
00003000
00000000
,
00000001
00000000
00000010
00000000
00000100
00000000
00000000
00001100
00000000
00000000
00000010
00000000
00010000
00000000
00000000
00000000
,
00001000
00000000
01000000
00000000
00010000
00000000
00000000
00110000
00000000
00000000
10000000
00000000
00020000
00000000
00030000
00000000
,
10010000
00000000
01100000
00000000
,
00011000
00000000
00000110
00000000
,
00000001
00000010
00000100
00001000
00010000
00100000
01000000
10000000
,
00010000
10000000
00010000
00000000
10000000
00010000
10000000
00000000
10010000
00000000
00000000
00000000
00000000
00000000
00000000
00000000
,
01100000
00000000
10010000
00000000
00100000
01000000
00010000
00000000
,
00100000
01000000
00010000
00000000
00001000
00000000
00010000
00000000
,
00001000
00000000
00011000
00000000
00001000
00010000
00000100
00000000
,
00001000
00000010
00000100
00000000
00000001
00000000
00001000
00000000
,
00000110
00000000
00001001
00000000
00000010
00000100
00001000
00000000
,
00000010
00000100
00001000
00000000
00010000
00000000
00001000
00000000
,
00010000
00000000
00011000
00000000
00010000
00001000
01000000
00000000
,
00010000
00100000
01000000
00000000
10000000
00000000
00010000
00000000
,
10100000
00000000
01010000
00000000
01000000
00100000
10000000
00000000
,
01000000
00100000
00001000
00000000
00010000
00000000
00000100
00000000
,
00001100
00000000
00000011
00000000
00000100
00001000
00000001
00000000
,
00000100
00001000
00010000
00000000
00001000
00000000
00000010
00000000
,
00000011
00000000
00001100
00000000
00000100
00000010
00000001
00000000
,
00000100
00000010
00010000
00000000
00001000
00000000
01000000
00000000
,
01010000
00000000
10100000
00000000
01000000
00010000
10000000
00000000
,
01000000
00010000
00001000
00000000
00010000
00000000
00100000
00000000
,
20100000
00000000
31000000
00000000
,
01020000
00000000
00031000
00000000
,
00001000
00000000
00000100
00000000
00000010
00000000
00000000
00001001
00000000
00000000
00000001
00000000
00001000
00000000
00000000
00000000
,
00001000
00000000
00010000
00000000
00001000
00000000
00000000
00011000
00000000
00000000
00010000
00000000
20000000
00000000
30000000
00000000
,
00200000
01300000
00002000
00013000
,
00000200
00000310
00000002
00001003
,
00000001
00000010
00000001
00000100
00001000
00010000
00100000
01000000
,
00010000
00100000
00010000
00000000
10000000
01000000
10000000
00000000
10010000
00000000
00000000
00000000
00000000
00000000
00000000
00000000
,
01000000
00000000
10010000
00000000
10000000
01000000
00010000
00000000
,
00001000
00010000
00001000
00000000
00010000
00100000
00010000
00000000
,
00001000
00000000
00011000
00000000
00001000
00000100
00001000
00000000
,
00000100
00000001
00001000
00000000
00000010
00000100
00000010
00000000
,
00000100
00000000
00001001
00000000
00000001
00000100
00001000
00000000
,
00010000
00001000
00010000
00000000
00001000
00000010
00001000
00000000
,
00010000
00000000
00011000
00000000
00010000
01000000
00010000
00000000
,
01000000
10000000
00010000
00000000
01000000
00100000
01000000
00000000
,
00100000
00000000
10010000
00000000
00010000
10000000
00100000
00000000
,
00010000
00001000
00000100
00000000
00000001
00001000
00000001
00000000
,
00000010
00000000
00001001
00000000
00001000
00000001
00000010
00000000
,
00001000
00010000
01000000
00000000
10000000
00010000
10000000
00000000
,
00100000
00000000
11000000
00000000
00100000
00001000
00010000
00000000
,
00001000
00010000
00000010
00000000
00001000
00000100
00000010
00000000
,
00000001
00000000
00001100
00000000
00000010
00000001
00000100
00000000
,
00000001
00000100
00001000
00000000
00010000
01000000
10000000
00000000
,
02200000
00000000
00000000
00000000
,
00000000
00000000
00000000
00000000
,
03300000
00000000
00000000
00000000
,
00000000
00000000
00000000
00000000
;
#NOTES:
     dance-double:
     :
     Hard:
     13:
     :
00000000
00000000
00000000
00000000
,
00000000
00000000
00000000
00000000
,
00000000
00000000
00000000
00000000
,
00000000
00000000
00000000
00000000
,
00000000
00000000
00000000
00000000
,
10000000
00000000
01000000
00100000
01000000
00000000
00000000
01100000
00000000
00000000
00010000
00000000
00001000
00000000
00000010
00000000
,
00000100
00000000
00000000
00000000
00001000
00000000
00000001
00000000
00001000
00000000
00000000
00000000
00000000
00000000
00001001
00000000
00000000
00000000
00000000
00000000
00000010
00000000
00000000
00000000
00000100
00000000
00001000
00010000
00000000
00001000
00010000
00000000
,
00001000
00000000
00100000
00010000
01000000
00000000
00000000
01100000
00000000
00000000
00100000
00000000
10000000
00000000
01000000
00000000
,
00010000
00000000
00001000
00010000
00001000
00000000
00000000
00001010
00000000
00000000
00000100
00000000
00000020
00000000
00000030
00000000
,
00000001
00000000
00000010
00000100
00000010
00000000
00000000
00000110
00000000
00000000
00001000
00000000
00010000
00000000
01000000
00000000
,
00100000
00000000
00000000
00000000
00010000
00000000
10000000
00000000
00010000
00000000
00000000
00000000
00000000
00000000
10010000
00000000
00000000
00000000
00000000
00000000
01000000
00000000
00000000
00000000
00100000
00000000
00010000
00001000
00000000
00010000
00001000
00000000
,
00010000
00000000
00000100
00001000
00000010
00000000
00000000
00000110
00000000
00000000
00000100
00000000
00000001
00000000
00000010
00000000
,
00001000
00000000
00010000
00001000
00010000
00000000
00000000
01010000
00000000
00000000
00100000
00000000
02000000
00000000
03000000
00000000
,
20000000
30000000
00200000
00300000
,
00002000
00003000
00000200
00000300
,
00000002
00000003
00000020
00000030
00020000
00030000
02000000
03000000
,
10000000
00000000
00010000
00000000
00001000
00010000
00001000
00000000
00011000
00000000
00000000
00000000
00000000
00000000
00000000
00000000
,
00001001
00000000
00000001
00000010
00000001
00000100
00000010
00001000
,
00000100
00000010
00000100
00001000
00000010
00010000
00001000
00100000
,
00010000
01000000
00100000
00010000
00001000
00010000
00100000
01000000
,
00010000
00100000
01000000
10000000
00100000
01000000
00100000
00000000
,
10010000
00000000
10000000
00100000
10000000
01000000
00100000
00010000
,
01000000
00100000
01000000
00010000
00100000
00001000
00010000
00000010
,
00001000
00000100
00000010
00001000
00010000
00001000
00000010
00000100
,
00001000
00000010
00000100
00000001
00000010
00000100
00000010
00000000
,
00001001
00000000
00000001
00000100
00000001
00000100
00001000
00010000
,
00001000
00010000
00001000
00000010
00001000
00000010
00001000
00010000
,
01000000
00100000
00010000
00100000
01000000
10000000
01000000
00010000
,
00001000
00010000
00001000
00000100
00000010
00001000
00000001
00000000
,
00001001
00000000
00000001
00000010
00000001
00000010
00001000
00010000
,
00001000
00010000
00001000
00000100
00001000
00000100
00001000
00010000
,
00100000
01000000
10000000
01000000
00100000
10000000
00100000
00010000
,
00001000
00010000
00001000
00000010
00000100
00001000
00000001
00000000
,
00000002
00000000
00001003
00000000
,
00002000
00000000
00013000
00000000
,
00010000
00000000
01000000
00100000
01000000
00000000
00000000
10010000
00000000
00000000
10000000
01000000
00100000
00000000
00000000
00100000
,
00010000
00000000
00000000
00000000
00100000
00000000
00001000
00000000
00010000
00000000
00000000
00000000
00000000
00000000
00011000
00000000
00000000
00000000
00000000
00000000
00001000
00000000
00010000
00000000
00000100
00000000
00001000
00000010
00001000
00000000
00001000
00000000
,
00000002
00000000
00000000
00000010
00000000
00000000
00000013
00000000
00000200
00000000
00000000
00001000
00000000
00000000
00001300
00000000
,
00020000
00000000
00000000
00100000
00000000
00000000
00130000
00000000
02000000
00000000
00000000
10000000
00000000
00000000
13000000
00000000
,
00100000
10000000
00100000
10000000
01000000
00100000
00010000
00100000
00001000
00010000
00001000
00000100
00000010
00001000
00000001
00000000
,
00000001
00000100
00001000
00010000
00100000
10000000
00010000
00000000
10010000
00000000
00000000
00000000
00000000
00000000
00000000
00000000
,
10010000
00000000
01000000
00100000
10000000
00010000
00100000
01000000
,
10000000
01000000
10000000
00000000
01000000
00000000
00100000
00001000
00100000
00000000
00001000
00000000
00010000
00000000
00000100
00000000
,
00000110
00000000
00000001
00000100
00000010
00001000
00000001
00000010
,
00001000
00000010
00001000
00000000
00010000
00000000
01000000
00010000
01000000
00000000
10000000
00000000
00010000
00000000
10000000
00000000
,
10010000
00000000
10000000
00010000
00100000
01000000
00010000
00001000
,
00000010
00000100
00000010
00000000
00000001
00000000
00000100
00000010
00000100
00000000
00000001
00000000
00000100
00000000
00000010
00000000
,
00000110
00000000
00000001
00000100
00000010
00001000
00000100
00010000
,
00001000
00100000
00001000
00000000
00010000
00000000
00001000
01000000
00001000
00000000
01000000
00000000
00100000
00000000
01000000
00000000
,
01100000
00000000
00100000
10000000
00010000
00100000
01000000
00010000
,
00001000
00010000
00000100
00000000
00001000
00000000
00000010
00001000
00000001
00000000
00000100
00000000
00000010
00000000
00000100
00000000
,
00001001
00000000
00000100
00000001
00000010
00000100
00010000
00001000
,
00100000
00001000
00010000
00000000
00001000
00000000
01000000
00010000
10000000
00000000
00100000
00000000
01000000
00000000
00100000
00000000
,
10010000
00000000
01000000
00010000
00100000
01000000
00010000
00001000
,
00000010
00000001
00001000
00000000
00000100
00000000
00001000
00000001
00000010
00000000
00001000
00000000
00000010
00000000
00000001
00000000
,
00001001
00000000
00000100
00001000
00000010
00000100
00001000
00010000
,
00100000
01000000
00100000
00000000
10000000
00000000
01000000
00100000
01000000
00000000
00010000
00000000
00001000
00010000
00001000
00010000
,
00002000
00000000
00000000
00000000
,
00000000
00000000
00000000
00000000
,
00003000
00000000
00000000
00000000
,
00000000
00000000
00000000
00000000
;
