
//----- song ID: digr -----//
#TITLE:DIGITALIZER;
#ARTIST:BEMANI Sound Team "Sota F.";
#BANNER:DIGITALIZER.png;
#BACKGROUND:DIGITALIZER-bg.png;
#CDTITLE:./CDTitles/DDR A20 PLUS.png;
#MUSIC:DIGITALIZER.ogg;
#SAMPLESTART:82.635;
#SAMPLELENGTH:15;
#BPMS:0=180;
#STAGE:29;
#NOTES:
     dance-single:
     :
     Beginner:
     4:
     :
0000
0000
0000
0000
,
0000
0000
0000
0000
,
0000
0000
0000
0000
,
0000
0000
0000
0000
,
0000
0000
0000
0000
,
1000
0000
0001
0000
,
1000
1000
1000
0000
,
0010
0000
0100
0000
,
0010
0010
0010
0000
,
1000
0000
0100
0000
,
0010
0010
0010
0000
,
0001
0000
0100
0000
,
0010
0010
0010
0000
,
1000
0000
0001
0000
,
1000
0000
0001
0000
,
0010
0000
0100
0000
,
0010
0000
0100
0000
,
0001
0000
1000
0000
,
0001
0000
1000
0000
,
0010
0000
0100
0000
,
0010
0000
0100
0000
,
0020
0000
0000
0030
,
2000
0000
0000
3000
,
0002
0000
0000
0003
,
0200
0000
0000
0300
,
0001
0000
0001
0000
,
1000
0000
1000
0000
,
0010
0000
0010
0000
,
0100
0000
0100
0000
,
1001
0000
0000
0000
,
1001
0000
0000
0000
,
1001
0000
0000
0000
,
1001
0000
1001
0000
,
0010
0000
0010
0000
,
0100
0100
0100
0000
,
0001
0000
0001
0000
,
1000
1000
1000
0000
,
0100
0000
0100
0000
,
0010
0010
0010
0000
,
0100
0000
0100
0000
,
0010
0010
0010
0000
,
0001
0000
0001
0000
,
1000
0000
1000
0000
,
0010
0000
0010
0000
,
0200
0000
0000
0300
,
0010
0000
0010
0000
,
1000
1000
0001
0000
,
0010
0000
0010
0000
,
0001
0001
1000
0000
,
0002
0000
0000
0003
,
2000
0000
0000
3000
,
0002
0000
0000
0003
,
2000
0000
0000
3000
,
0020
0000
0000
0030
,
1001
0000
0000
0000
,
0001
1000
0001
0000
,
1001
0000
0000
0000
,
1000
0001
1000
0000
,
1001
0000
0000
0000
,
0010
0100
0010
0000
,
1001
0000
0000
0000
,
0010
0100
0010
0000
,
0001
0001
0001
0000
,
1000
1000
1000
0000
,
0010
0010
0010
0000
,
0100
0100
0100
0000
,
0001
0000
0100
0000
,
1000
0000
0100
0000
,
0010
0000
0100
0000
,
0010
0000
0100
0000
,
0020
0000
0000
0030
,
0200
0000
0000
0300
,
0001
0000
1000
0000
,
1001
0000
0000
0000
,
0000
0000
0000
0000
;
#NOTES:
     dance-single:
     :
     Easy:
     8:
     :
0000
0000
0000
0000
,
0000
0000
0000
0000
,
0000
0000
0000
0000
,
0000
0000
0000
0000
,
0000
0000
0000
0000
,
0010
0100
0001
0010
,
0100
0100
0010
0010
,
0001
1000
0010
0100
,
0001
0001
1000
1000
,
0010
1000
0001
0100
,
0001
0001
0010
0010
,
0100
1000
0010
0100
,
0010
0010
1000
1000
,
0000
0110
0000
1001
,
0001
0100
0010
1000
,
0100
0000
0100
0000
0010
0100
0000
0100
,
0010
0001
1000
0001
,
0000
0110
0000
1001
,
0220
0000
0000
0330
,
0001
0010
0100
1000
,
0010
0100
0001
1000
,
0002
0000
0003
0110
,
0200
0000
0300
1001
,
2000
0000
3000
0110
,
0001
1000
0110
1001
,
0010
0100
0001
1001
,
0010
0100
1000
1001
,
0000
0110
0000
1001
,
0002
2003
3020
0030
,
0110
0000
0000
0000
,
1001
0000
0000
0000
,
0110
0000
0000
0000
,
0010
0000
0100
0010
0100
0000
1001
0000
,
0001
0100
0010
0010
,
1000
0000
0100
0000
1000
0100
1000
0000
,
0001
0010
0100
0100
,
1000
0000
0001
0000
1000
0001
1000
0000
,
0010
0100
0010
0010
,
0100
0000
0001
0000
0010
0100
0010
0000
,
0100
1000
0001
0100
,
0010
0010
0200
0300
,
0010
0010
1000
1000
,
0001
0001
0110
0110
,
0001
0001
0010
0010
,
0100
0010
0200
0320
,
0130
1000
0001
0100
,
0010
1000
0001
0100
,
0001
0001
1000
1000
,
0020
0000
0130
0100
0010
0000
0010
0000
,
2000
0000
0000
0000
,
3002
0000
0000
0000
,
0013
0010
0100
0010
,
2002
0000
0000
3003
,
0002
2003
3002
1003
,
0010
1000
0010
0110
,
0100
0000
0100
0000
0001
0100
0001
0000
,
0010
0100
0010
1001
,
0001
0000
1000
0000
0001
1000
0001
0000
,
0010
0100
1000
1001
,
0010
0000
0100
0000
0001
1000
0001
0000
,
0010
0100
0010
0110
,
1000
0001
1000
1001
,
0010
0010
0100
0010
,
1000
0000
0001
0000
1000
0001
1000
0000
,
0010
0010
0100
0001
,
1000
0000
0001
0000
1000
0001
1000
0000
,
0020
0130
0001
1001
,
0010
0100
1000
0001
,
0200
0000
0310
1000
,
0001
0010
0100
1000
,
0001
0100
0001
0000
0100
0000
0100
0000
,
0010
1000
0010
0000
0100
0000
0100
0000
,
0020
0000
0230
0000
,
0301
1000
0000
0000
0000
0000
0000
0000
,
0000
0000
0000
0000
;
#NOTES:
     dance-single:
     :
     Medium:
     12:
     :
0000
0000
0000
0000
,
0000
0000
0000
0000
,
0000
0000
0000
0000
,
0000
0000
0000
0000
,
0000
0000
0000
0000
,
1000
0100
0010
0000
0001
0100
0010
2000
,
0000
3001
0100
0010
1000
0000
0010
0000
,
0100
0001
1000
0000
0100
1000
0010
0200
,
0000
0301
0010
0100
1000
0000
0001
0000
,
0010
0100
0010
0000
0100
1000
0001
0020
,
0000
0130
1000
0001
0100
0000
0010
0000
,
1000
0010
1000
0001
0010
0001
1000
0020
,
0000
0130
0001
1000
0100
0000
1001
0000
,
1000
1100
0001
0101
,
0001
0010
1000
0000
1000
0010
0001
0000
,
1000
0010
0001
0010
0100
0000
0010
0000
,
0100
0100
0100
0100
0020
0000
0230
0000
,
0310
1000
0100
0000
0010
0001
0100
0000
,
1010
0000
0011
0000
1000
0100
0010
0001
,
1000
0100
0001
0100
1000
0000
0010
0000
,
1000
0010
0001
0010
1000
0100
0010
0000
,
0001
0010
0100
0110
,
1000
0010
0100
0110
,
1000
0001
0100
0110
,
0001
0000
0000
1000
0000
0000
0001
1000
0001
1000
0000
0000
,
0010
0100
0001
0101
,
0010
0100
1000
1100
,
0010
1010
0100
0101
,
0010
0000
0000
0010
0000
0000
0010
0000
0000
0000
0000
0000
0100
0000
0010
0000
0100
0000
0010
0000
0000
0000
0000
0000
,
0001
1000
0000
0000
0000
0000
0000
0000
,
1100
0000
0000
0000
,
0001
0100
0000
0000
0000
0000
0000
0000
,
0010
0000
1000
0100
0010
0000
0110
0000
,
0001
0010
0001
0000
1000
0010
0100
0000
,
0010
0100
0010
1000
0001
0100
0010
0000
,
1000
0100
1000
0000
0001
0100
0010
0000
,
0100
0010
0100
0001
1000
0100
0010
0000
,
0001
0010
1000
0000
0010
0001
0100
0000
,
1000
0100
0001
0010
0100
0100
0100
0000
,
1000
0100
0001
0000
0100
1000
0010
0000
,
0001
0010
1000
0100
0010
0010
0010
0000
,
0110
1100
0101
1001
,
0001
0010
1000
0010
0001
1000
0010
0000
,
0110
0011
1100
0110
,
0001
0100
1000
0100
0002
0000
2003
0000
,
3010
0010
0100
0100
0001
0010
0100
0000
,
1000
1000
0001
0001
0100
0010
1000
0000
,
0001
0100
0010
1000
0100
0010
0001
0000
,
1001
0000
0000
0000
0001
1000
0001
0000
0200
0000
0000
0000
0320
0000
0000
0000
,
1030
0010
0100
0002
0000
0013
0100
2000
,
0000
3010
0100
0010
0100
0000
0110
0000
,
0001
0100
1000
0100
0001
0000
1000
0100
,
0020
0000
0000
0030
,
0001
0001
1000
1000
0001
1000
1001
0000
,
0001
0000
0010
0000
1000
0000
0010
0000
0001
0000
0000
1000
0000
0000
0001
0000
,
0100
0010
1000
0000
0100
0010
0001
0000
,
1000
0000
0010
0000
0001
0000
0010
0000
1000
0000
0000
0001
0000
0000
1000
0000
,
0001
0010
0001
0010
0100
1000
0100
0000
,
1000
0000
0100
0000
0001
0000
0100
0000
1000
0000
0000
0010
0000
0000
0100
0000
,
0010
0100
0001
0000
0010
0100
1000
0000
,
0001
0000
0100
0000
1000
0000
0100
0000
0001
0000
0000
0010
0000
0000
0100
0000
,
0010
0010
0100
0100
1000
0001
1000
0000
,
0001
0000
0100
0000
0010
0000
1000
0000
0100
0000
0000
0010
0000
0000
0001
0000
,
1000
0100
0001
0100
1000
0010
0100
0000
,
0001
0000
0010
0000
1000
0000
0010
0000
0001
0000
0000
0010
0000
0000
0100
0000
,
0010
0010
0100
0100
1000
0001
1000
0001
,
2000
0000
0000
0000
3001
0000
0000
0000
0010
0000
0000
0100
0000
0000
1000
0000
,
0010
0100
0010
0100
0001
1000
0001
0000
,
0020
0000
0000
0000
0000
0000
0000
0000
0130
0000
0000
0100
0000
0000
0100
0000
,
1000
0010
1000
0010
0100
0001
0100
0000
,
0100
0001
0100
0001
1000
0100
1000
0000
,
0100
1000
0100
1000
0001
0100
0001
0000
,
0020
0000
0130
1000
0020
0000
0130
0001
,
1000
1000
0000
0000
0000
0000
0000
0000
,
0000
0000
0000
0000
;
#NOTES:
     dance-single:
     :
     Hard:
     17:
     :
0000
0000
0000
0000
,
0000
0000
0000
0000
,
0000
0000
0000
0000
,
0000
0000
0000
0000
,
0000
0000
0000
1001
,
0001
0010
0100
0000
0010
0000
0001
0000
1000
0010
0100
0000
0010
0000
2000
0000
,
0000
3100
0010
0001
0011
0100
1100
1000
,
0001
0100
0010
0000
1000
0000
0001
0000
0100
0010
1000
0000
0001
0000
0020
0000
,
0000
0130
1000
0100
1100
0010
0011
0001
,
1000
0001
0100
0000
0010
0000
0100
0000
0010
1000
0001
0000
0010
0000
0200
0000
,
0000
0310
0001
1000
1010
0100
0101
0001
,
0010
0000
0001
0010
0001
0000
0010
0000
0100
1000
0100
0000
0010
0000
0200
0000
,
0000
0000
1300
0000
0100
0000
0001
0000
0100
0000
1000
0001
1000
0000
0000
0000
,
0010
0100
0110
0000
1000
0001
1001
0000
,
0001
0100
1000
0000
0100
0000
0001
0000
1000
0010
0001
0000
0010
0000
1000
0000
,
0001
0000
0010
0000
0100
0010
0001
0000
1000
0010
0100
0000
0010
0000
0200
0000
,
0010
0000
0010
0000
0010
0000
0310
0000
1000
0001
1000
0001
0010
0000
0100
0000
,
1000
0001
1001
0000
0010
0100
0110
0000
,
0001
0000
0010
0001
0000
1000
0100
0000
0010
0000
0010
0000
0100
0000
0100
0000
,
1000
0010
0001
0000
0010
0000
1000
0000
0001
0100
1000
0000
0100
0000
0001
0000
,
1000
0001
1000
0001
1000
0000
0010
0000
1000
0001
0100
0010
0100
0000
0010
0000
,
0100
0010
1000
0001
0010
0100
0010
0001
1000
0020
0000
0000
,
0130
0001
1000
0010
0100
0001
0010
0100
0010
0200
0000
0000
,
0301
0100
1000
0100
0010
0001
1000
0001
0010
0200
0000
0000
,
0310
0001
1000
0010
0100
1000
0100
0010
0100
0020
0000
0000
,
1030
0010
0100
0001
0010
0100
0010
0100
1000
0002
0000
0000
,
1003
0010
0100
0001
0010
1000
0010
0001
0100
2000
0000
0000
,
3100
0001
0100
0101
0000
0000
1000
0100
1000
1100
0000
0000
,
1100
0000
0000
0101
0000
0000
1100
0000
0000
0000
0000
0000
0010
0000
0100
0000
0010
0000
0110
0000
0000
0000
0000
0000
,
1001
1001
0000
0000
0000
0000
0000
0000
,
0110
0000
0000
0000
,
1001
1001
0000
0000
0000
0000
0000
0000
,
0110
0000
0000
0000
0001
0100
0010
1000
0001
0000
0000
0000
1001
0000
0000
0000
,
0010
0001
0100
0000
0010
0000
0100
0000
0010
1000
0100
0000
0010
0000
0100
0000
,
0010
0001
0010
0000
0100
1000
0100
0000
0010
0000
0100
0000
0100
0000
1000
0001
,
0010
0001
0100
0000
0010
0000
1000
0000
0001
1000
0010
0000
0100
0000
0001
0000
,
1000
0000
0001
1000
0001
0000
0010
0000
0100
0000
0010
0100
0010
0000
0100
0000
,
1000
0100
0001
0000
0100
0000
1000
0000
0001
0100
1000
0000
0100
0000
0010
0000
,
0100
0001
0100
0000
0010
1000
0010
0000
0200
0000
0010
0000
0010
0000
0310
0000
,
1000
0001
0010
0000
0100
0000
1000
0000
0001
1000
0010
0000
0100
0000
0001
0000
,
1000
0000
0001
0010
0100
0000
0010
0000
0100
0000
0100
0000
0100
0000
0100
0000
,
0010
0001
0010
0000
0100
0010
0100
0000
1000
0100
1000
0000
0010
0100
0010
0000
,
0100
0001
0100
0000
0001
1000
0001
0000
0100
0000
0010
0000
0010
0000
0100
0010
,
0100
0010
1000
0000
0001
0010
0001
0000
1000
0010
1000
0000
0001
0100
0001
0000
,
1000
0100
1000
0100
1000
0001
0100
0001
0200
0000
0000
0000
0320
0000
0000
0000
,
0130
0001
0100
0000
0010
0100
0010
0000
1000
0010
1000
0000
0100
0010
0100
0000
,
1000
1000
0001
0001
0100
0010
0110
0000
,
0001
0100
0001
0000
1000
0100
1000
0000
0001
0010
0001
0000
1000
0010
1000
0000
,
2001
0000
0000
0000
3001
1000
0001
0000
0010
0000
0010
0000
0100
0000
0100
0000
,
1000
0010
0100
0002
0000
0013
0001
0200
,
0000
0301
0100
0010
1000
0001
0010
0100
,
1000
0100
1000
0000
0001
0000
0100
0000
0101
0000
0000
0000
1100
0000
0100
0000
,
0020
0000
0000
0030
,
0001
0100
0010
1000
0001
0100
0010
1000
0001
0100
0010
1000
0001
0000
0000
0000
,
1000
0100
0001
0000
0100
0000
0010
0000
0110
0000
0000
0011
0000
0000
0110
0000
,
0100
1000
0001
0000
0100
0000
0010
0000
0100
0001
1000
0000
1001
0000
0000
0000
,
0001
0010
1000
0000
0010
0000
0100
0000
0110
0000
0000
1100
0000
0000
0110
0000
,
0010
0001
1000
0000
0010
0000
0100
0000
0010
1000
0010
1000
0001
0100
0001
0100
,
0010
1000
0010
0000
0100
0000
0001
0000
0011
0000
0000
0110
0000
0000
1100
0000
,
1000
0100
0001
0000
0100
0000
1000
0000
0001
0100
1000
0000
0100
0000
0001
0000
,
0010
0000
0100
0000
1000
0000
0001
0100
0010
0000
0000
0010
0000
0000
0100
0000
,
0001
0100
0001
0100
0010
1000
0010
1000
0001
1000
0001
1000
0100
0000
0000
0000
,
1000
0000
0010
0000
1000
0010
0100
0000
0110
0000
0000
1010
0000
0000
0110
0000
,
0010
1000
0010
0000
0100
0000
0001
0000
0010
0001
0010
0000
0100
0000
1000
0000
,
0001
0000
0010
0000
0100
1000
0100
1000
0001
0000
0000
1001
0000
0000
0110
0000
,
0010
0000
1000
0000
0001
0000
0100
0000
0010
1000
0001
0100
0010
1000
0001
0100
,
0020
0000
0000
0000
0130
0000
0000
0000
1010
0000
0000
0110
0000
0000
0101
0000
,
0001
1000
0010
0000
1000
0000
0001
0000
1000
0001
0010
0000
0100
0000
0010
0000
,
0220
0000
0000
0000
0330
0000
0000
0000
0011
0000
0000
0110
0000
0000
1100
0000
,
0001
0100
1000
0000
0100
0000
0001
0000
1000
0010
0001
0000
0010
0000
1000
0000
,
0001
0100
0010
1000
0001
0100
0010
1000
0001
0100
0010
1000
0001
1000
0000
0000
,
0010
0100
0001
1000
0010
0100
0001
1000
0100
0010
0001
1000
0001
0000
0000
0000
,
1001
0000
0000
0000
0001
0100
0010
1000
0001
0000
0000
0000
1000
0100
0010
0001
,
1000
0001
0000
0000
0000
0000
0000
0000
,
0000
0000
0000
0000
;
#NOTES:
     dance-single:
     :
     Challenge:
     18:
     :
0000
0000
0000
0000
,
0000
0000
0000
0000
,
0000
0000
0000
0000
,
0000
0000
0000
0000
,
0000
0000
0000
0000
,
1000
0100
1000
0100
0010
0000
0001
0000
0100
0010
0100
0010
1000
0000
0100
0000
,
0010
0000
0001
1000
0100
0000
1000
0000
0010
0000
0010
0000
0110
0000
0000
0000
,
0001
0100
0001
0100
0010
0000
1000
0000
0100
0010
0100
0010
0001
0000
0100
0000
,
0010
0000
1000
0001
0100
0000
0001
0000
0010
0000
0010
0000
0110
0000
0000
0000
,
1000
0001
1000
0001
0010
0000
0100
0000
1000
0001
1000
0001
0100
0000
0010
0000
,
1000
0010
0100
0000
0100
0010
1000
0000
0001
0000
0001
0000
1001
0000
0000
0000
,
0001
1000
0001
1000
0010
0000
0100
0000
0001
1000
0001
1000
0100
0000
0010
0000
,
0001
0010
0100
0000
0100
0010
0001
0000
1000
0000
1000
0000
1001
0000
0000
0000
,
0001
0000
0001
0100
0010
0000
0100
0000
0001
0000
0001
0100
0010
0000
0100
0000
,
0001
0000
0001
0100
1000
0100
0001
0100
0010
0000
0010
0000
0010
0000
0010
0000
,
1000
0000
1000
0100
0010
0000
0100
0000
1000
0000
1000
0100
0010
0000
0100
0000
,
1100
0000
MMMM
0000
0101
0000
MMMM
0000
0010
0100
0001
1000
0010
0100
0001
1000
,
0010
0000
0010
1000
0100
0000
0100
0000
0010
0000
0010
0001
0100
0000
0100
0000
,
0010
0000
MMMM
0000
1010
1000
0101
0001
,
1000
0000
0010
0100
0001
0010
0100
1000
0010
0000
0110
0000
0000
0000
1001
0000
,
0010
0000
0011
0000
0100
0000
1100
0000
1000
0100
0010
0001
0100
0010
1000
0100
,
0010
0000
0001
0000
0001
0000
1000
0000
0100
0000
0100
0000
1000
0000
0010
0000
0100
0000
0001
0000
0000
MMMM
0000
0000
,
0001
0000
1000
0000
1000
0000
0010
0000
0100
0000
0100
0000
0001
0000
0010
0000
0100
0000
1000
0000
0000
MMMM
0000
0000
,
0010
0000
0001
0000
0001
0000
0100
0000
0010
0000
0010
0000
1000
0000
0100
0000
1000
0000
0010
0000
0000
MMMM
0000
0000
,
0001
0000
1000
0000
1000
0000
0010
0000
0100
0000
0100
0000
0001
0000
0010
0000
0100
0000
0010
0000
0000
MMMM
0000
0000
,
0001
0000
0001
0000
0001
0000
1000
0000
1000
0000
1000
0000
0010
0000
0100
0000
0010
0000
1001
0000
0000
MMMM
0000
0000
,
1000
0000
1000
0000
1000
0000
0001
0000
0001
0000
0001
0000
0010
0000
0100
0000
0010
0000
1001
0000
0000
MMMM
0000
0000
,
0010
0000
1000
0000
0100
0000
0011
0000
0000
MMMM
0000
0000
0010
0000
0001
0000
0100
0000
1010
0000
0000
MMMM
0000
0000
,
0110
0000
0000
0110
0000
0000
1001
0000
0000
MMMM
0000
0000
0010
0000
0100
0000
0010
0000
1001
0000
0000
MMMM
0000
0000
,
1001
1001
0000
0000
MMMM
0000
0000
0000
,
1001
0000
MMMM
0000
,
1001
1001
0000
0000
MMMM
0000
0000
0000
,
0110
0000
0000
0000
1000
0010
0100
0001
2000
0000
0000
0000
3001
0000
MMMM
0000
,
1000
0100
1000
0000
0010
0000
0100
0000
0001
1000
0001
0000
0010
0000
0100
0001
,
0100
0000
0100
1000
0100
0000
0010
0000
0001
0100
1000
0000
0100
0000
0010
1000
,
0100
0010
0001
0000
0100
0000
1000
0100
0001
0010
0100
0000
0001
0000
0100
1000
,
0010
0100
0010
0100
0001
0010
0100
1000
0010
0100
1000
0100
0001
1000
0010
0000
,
0100
0001
0010
0000
0100
0000
1000
0000
0010
1000
0100
0000
0010
0000
0100
0001
,
0100
0000
0100
1000
0100
0000
0001
0000
0100
0000
0100
0000
0100
0000
0100
0000
,
0001
1000
0100
0000
0001
0000
0100
0000
1000
0001
0010
0000
1000
0000
0010
0001
,
0010
0100
1000
0000
0010
0001
1000
0000
0100
0000
0100
0001
1000
0000
1000
0000
,
0010
1000
0100
0010
0001
0000
0001
0000
0100
1000
0100
0010
1000
0100
0010
0000
,
0001
1000
0010
0100
0001
0000
0001
0000
0100
0010
0001
0010
1000
0001
0100
0000
,
0100
0010
1000
0100
0010
0001
0100
0000
0010
0001
0010
1000
0001
0100
0010
0000
,
1000
0010
1000
0010
0100
0001
0100
0001
0020
0000
0000
0000
0130
0000
0000
0000
,
0001
0100
0010
1000
0100
0010
0001
0010
0100
0001
0100
1000
0001
0100
0010
0000
,
0001
0010
0100
0010
1000
0001
0100
0010
1000
0100
0010
0001
0010
1000
0010
0000
,
0001
0100
0010
0100
1000
0100
0001
1000
0100
0010
0100
0001
0100
1000
0001
0010
,
0100
0000
MMMM
0000
1000
0001
1000
0000
1010
0000
0011
0000
1100
0000
0101
0000
,
1000
0010
1000
0010
1000
0100
1000
0100
,
0010
0001
0010
0001
0100
0001
0100
0001
,
1000
0010
1000
0000
1000
0000
1000
0100
2000
0000
0000
0000
0001
0000
3100
0000
,
1000
0100
0010
0001
1000
0100
0010
0001
1000
0010
0100
0001
1000
0010
0100
0001
,
1000
0100
0010
0100
1000
0001
0010
0001
1000
0100
0010
0001
1000
0000
0000
0000
,
0001
0100
0001
0010
0100
1000
0010
1000
0100
0000
0000
0110
0000
0000
0011
0000
,
1000
0010
0100
0000
0100
0010
1000
0000
0001
0010
0100
0000
0100
0010
0001
0000
,
1000
0100
1000
0010
0100
0001
0010
0001
0100
0000
0010
1000
0000
1000
0001
0000
,
1000
0010
0001
0000
0001
0010
1000
0000
0001
1000
0001
0100
0010
1000
0010
0100
,
0001
0010
0100
1000
0001
1000
0100
0010
0001
0000
1001
0000
0000
1100
0000
0000
,
1000
0100
0001
0000
0001
0100
1000
0000
0001
0100
1000
0000
1000
0100
0001
0000
,
1000
0010
0100
0001
0010
0100
1000
0001
0100
0000
0001
0100
0000
0100
1000
0000
,
0010
1000
0010
0100
0010
0100
0001
0100
0001
1000
0001
1000
0001
0000
0000
0000
,
1000
0010
0100
0001
1000
0100
0010
0001
0100
0000
0010
1000
0000
1000
0001
0000
,
1000
0010
0100
0000
0101
0000
0001
0000
0011
0000
0110
0000
1100
0000
1001
0000
,
0010
0100
0010
1000
0100
0010
0001
1000
0001
0000
0010
0100
0000
0100
1000
0000
,
1100
0000
1010
0000
0110
0000
0100
0001
0010
0100
1000
0001
0010
0100
1000
0001
,
0020
0030
0000
0000
1001
0000
0000
0000
0110
0000
0001
1000
0000
1000
0001
0000
,
0010
0100
0010
0100
1000
0010
1000
0010
0100
0001
0010
0001
1000
0100
1000
0010
,
0100
0001
0010
1000
0000
0000
0000
0000
1010
0000
0000
0011
0000
0000
1001
0000
,
0100
1000
0010
0100
0001
0010
0100
1000
0010
0100
0001
0010
0100
0000
0000
0000
,
1000
0100
0010
1000
0010
0100
1000
0010
0100
1000
0100
0010
1000
0100
0000
0000
,
0001
0100
0010
0001
0100
0010
0001
0010
0100
0001
0010
0100
0001
0000
0000
0000
,
1001
0000
0000
0000
1000
0010
0001
0100
1000
0000
0000
0000
0001
0010
1000
0100
,
0001
1001
0000
0000
0000
0000
0000
0000
,
0000
0000
0000
0000
;
#NOTES:
     dance-double:
     :
     Easy:
     8:
     :
00000000
00000000
00000000
00000000
,
00000000
00000000
00000000
00000000
,
00000000
00000000
00000000
00000000
,
00000000
00000000
00000000
00000000
,
00000000
00000000
00000000
00000000
,
10000000
00100000
01000000
00010000
,
00100000
00100000
00001000
00001000
,
00010000
00000100
00000010
00000001
,
00001000
00001000
00000010
00000010
,
00000100
00001000
00010000
01000000
,
10000000
10000000
00100000
00100000
,
01000000
00010000
00100000
00001000
,
00010000
00010000
00000100
00000100
,
00000000
00000110
00000000
00001001
,
00000001
00000100
00001000
00010000
,
00001000
00000000
00001000
00000000
00010000
00001000
00000000
00001000
,
00010000
01000000
10000000
00010000
,
00000000
01100000
00000000
10010000
,
02200000
00000000
00000000
03300000
,
00001000
00010000
00001000
00000100
,
00000001
00000010
00000100
00000010
,
00000200
00000000
00000300
00000110
,
00020000
00000000
00030000
00011000
,
02000000
00000000
03000000
01100000
,
10000000
00100000
01100000
10010000
,
00100000
00001000
00010000
00011000
,
00001000
00010000
00000100
00000110
,
00000000
00001001
00000000
00000110
,
00000002
00000023
00000230
00000300
,
00001001
00000000
00000000
00000000
,
00011000
00000000
00000000
00000000
,
10010000
00000000
00000000
00000000
,
10000000
00000000
01000000
00100000
01000000
00000000
10010000
00000000
,
00100000
10000000
01000000
01000000
,
00100000
00000000
00001000
00000000
00010000
00001000
00010000
00000000
,
00001000
00000100
00000001
00000001
,
00000010
00000000
00000100
00000000
00000010
00000100
00000010
00000000
,
00000001
00000100
00001000
00001000
,
00010000
00000000
00001000
00000000
00010000
00001000
00010000
00000000
,
00001000
01000000
00100000
10000000
,
01000000
01000000
00200000
00300000
,
00010000
00010000
00100000
00100000
,
00001000
00001000
00011000
00011000
,
00010000
00010000
00000100
00000100
,
00000010
00000100
00000020
00000032
,
00000103
00001000
00010000
01000000
,
10000000
00100000
01000000
00010000
,
10000000
10000000
00010000
00010000
,
00200000
00000000
00301000
00001000
00010000
00000000
00001000
00000000
,
00020000
00000000
00000000
00000000
,
00030020
00000000
00000000
00000000
,
00000130
00000010
00001000
00000100
,
00022000
00000000
00000000
00033000
,
00002000
00023000
00032000
00013000
,
00001000
00010000
01000000
01100000
,
00100000
00000000
00100000
00000000
00001000
00010000
00001000
00000000
,
00000100
00000010
00001000
00001001
,
00000001
00000000
00000010
00000000
00000100
00000010
00000100
00000000
,
00001000
00000100
00010000
00011000
,
00001000
00000000
01000000
00000000
00100000
01000000
00100000
00000000
,
10000000
00010000
00100000
01100000
,
10000000
01000000
00010000
00011000
,
00001000
00001000
00010000
00000100
,
00000010
00000000
00000001
00000000
00000010
00000001
00000010
00000000
,
00000100
00001000
00000010
00000100
,
00001000
00000000
00010000
00000000
00001000
00010000
00001000
00000000
,
00020000
00031000
00100000
01100000
,
01000000
10000000
00010000
01000000
,
00200000
00000000
01300000
00010000
,
00100000
00001000
00010000
00000100
,
00001000
00000100
00001000
00000000
00000010
00000000
00000010
00000000
,
00000100
00000001
00000100
00000000
00000010
00000000
00000010
00000000
,
00000200
00000000
00000320
00000000
,
00001030
00000100
00000000
00000000
00000000
00000000
00000000
00000000
,
00000000
00000000
00000000
00000000
;
#NOTES:
     dance-double:
     :
     Medium:
     12:
     :
00000000
00000000
00000000
00000000
,
00000000
00000000
00000000
00000000
,
00000000
00000000
00000000
00000000
,
00000000
00000000
00000000
00000000
,
00000000
00000000
00000000
00000000
,
10000000
01000000
00100000
00000000
00100000
00001000
00010000
00000200
,
00000000
00000310
00000001
00000100
00000010
00000000
00000100
00000000
,
00000001
00000100
00000010
00000000
00000010
00010000
00001000
02000000
,
00000000
03100000
10000000
01000000
00100000
00000000
01000000
00000000
,
10000000
01000000
00010000
00000000
00010000
00001000
00000100
00000002
,
00000000
00000013
00000100
00001000
00000001
00000000
00000010
00000000
,
00000001
00000100
00000010
00001000
00000100
00010000
00001000
00002000
,
00000000
00013000
01000000
10000000
00100000
00000000
10010000
00000000
,
00100000
00110000
00001000
00011000
,
00001000
00000100
00000001
00000000
00000001
00000010
00001000
00000000
,
00000010
00000001
00000100
00001000
00010000
00000000
00001000
00000000
,
00010000
00010000
00010000
00010000
00002000
00000000
00023000
00000000
,
00031000
00010000
01000000
00000000
01000000
10000000
00100000
00000000
,
11000000
00000000
01010000
00000000
10000000
01000000
00010000
00001000
,
00000100
00000010
00001000
00000100
00000010
00000000
00000100
00000000
,
00001000
00000001
00000100
00001000
00010000
01000000
00100000
00000000
,
00010000
10000000
01000000
01100000
,
00001000
00010000
00001000
00011000
,
00000100
00000010
00000100
00000110
,
00000001
00000000
00000000
00000010
00000000
00000000
00000100
00001000
00000100
00001000
00000000
00000000
,
00000010
00010000
00001000
00011000
,
00100000
00010000
01000000
01100000
,
10000000
01100000
00001000
00011000
,
00010000
00000000
00000000
00001000
00000000
00000000
00010000
00000000
00000000
00000000
00000000
00000000
00001000
00000000
00010000
00000000
00001000
00000000
00010000
00000000
00000000
00000000
00000000
00000000
,
00001000
00010000
00000000
00000000
00000000
00000000
00000000
00000000
,
00001001
00000000
00000000
00000000
,
00000010
00000100
00000000
00000000
00000000
00000000
00000000
00000000
,
00000010
00000000
00000001
00000100
00001000
00000000
00011000
00000000
,
00001000
00010000
01000000
00000000
00100000
00010000
10000000
00000000
,
00100000
10000000
01000000
00010000
00001000
00000100
00000001
00000000
,
00001000
00000100
00000010
00000000
00000001
00000010
00001000
00000000
,
00000010
00000001
00000100
00001000
00010000
01000000
10000000
00000000
,
00100000
00010000
01000000
00000000
00010000
00100000
10000000
00000000
,
00100000
00001000
00010000
00000100
00000010
00000010
00000010
00000000
,
00000001
00000010
00001000
00000000
00000010
00000001
00000100
00000000
,
00000100
00001000
00010000
00001000
00100000
00100000
00100000
00000000
,
00110000
10100000
01100000
01010000
,
00001000
00010000
00001000
00010000
00001000
00000100
00000001
00000000
,
00000011
00000110
00001100
00001001
,
00000001
00000001
00000010
00000010
00000200
00000000
00020300
00000000
,
00031000
00010000
01000000
00010000
00001000
00000100
00001000
00000000
,
00010000
00010000
00000100
00000100
00000010
00000001
00001000
00000000
,
00000001
00000100
00001000
00010000
00001000
00010000
00100000
00000000
,
01100000
00000000
00000000
00000000
01000000
00100000
01000000
00000000
00200000
00000000
00000000
00000000
02300000
00000000
00000000
00000000
,
03100000
10000000
00100000
02000000
00000000
03010000
00100000
00002000
,
00000000
00013000
00001000
00010000
00000100
00000000
00000110
00000000
,
00000010
00000100
00000010
00000100
00000010
00000000
00001001
00000000
,
00000220
00000000
00000000
00000330
,
00000001
00000100
00001000
00010000
00100000
10000000
10010000
00000000
,
10000000
00000000
00100000
00000000
00010000
00000000
00001000
00000000
00010000
00000000
00000000
00001000
00000000
00000000
00010000
00000000
,
00001000
00000010
00000001
00000000
00000100
00000010
00000100
00000000
,
00000001
00000000
00000010
00000000
00001000
00000000
00010000
00000000
00001000
00000000
00000000
00010000
00000000
00000000
00001000
00000000
,
00010000
00100000
10000000
00000000
01000000
00100000
01000000
00000000
,
10000000
00000000
01000000
00000000
00100000
00000000
00001000
00000000
00010000
00000000
00000000
00001000
00000000
00000000
00010000
00000000
,
00001000
00000100
00000001
00000000
00000001
00000100
00000010
00000000
,
00000100
00000000
00001000
00000000
00010000
00000000
00001000
00000000
00010000
00000000
00000000
00100000
00000000
00000000
10000000
00000000
,
01000000
01000000
00100000
00100000
00010000
10000000
00010000
00000000
,
10000000
00000000
00100000
00000000
10100000
00000000
00000000
00000000
01000000
00000000
00000000
00100000
00000000
00000000
00001000
00000000
,
00010000
00001000
00000100
00000001
00000010
00001000
00000010
00000000
,
00000001
00000000
00000010
00000000
00000011
00000000
00000000
00000000
00000100
00000000
00000000
00000010
00000000
00000000
00010000
00000000
,
00001000
00010000
01000000
10000000
00100000
00100000
01000000
01000000
,
00200000
00000000
00000000
00000000
01300000
00000000
00000000
00000000
00100000
00000000
00000000
01000000
00000000
00000000
00001000
00000000
,
00010000
00001000
00000010
00000001
00001000
00000010
00000100
00000000
,
00000020
00000000
00000000
00000000
00000000
00000000
00000000
00000000
00000130
00000000
00000000
00000001
00000000
00000000
00000010
00000000
,
00000100
00000010
00000100
00010000
00001000
00010000
00001000
00000000
,
00001000
00010000
01000000
10000000
00100000
00010000
00001000
00000000
,
00010000
00001000
00000010
00000001
00000100
00001000
00010000
00000000
,
00002000
00000000
00013000
01000000
20000000
00000000
31000000
00010000
,
00001000
00001000
00000000
00000000
00000000
00000000
00000000
00000000
,
00000000
00000000
00000000
00000000
;
#NOTES:
     dance-double:
     :
     Hard:
     16:
     :
00000000
00000000
00000000
00000000
,
00000000
00000000
00000000
00000000
,
00000000
00000000
00000000
00000000
,
00000000
00000000
00000000
00000000
,
00000000
00000000
00000000
00001001
,
00000001
00000100
00000010
00000000
00001000
00000000
00000100
00000000
00001000
00000100
00010000
00000000
00001000
00000000
02000000
00000000
,
00000000
03010000
00100000
01000000
01100000
00100000
00110000
00010000
,
10000000
00100000
01000000
00000000
00010000
00000000
10000000
00000000
00010000
01000000
00100000
00000000
10000000
00000000
00200000
00000000
,
00000000
01300000
00010000
00100000
01100000
10000000
11000000
01000000
,
00100000
00001000
00010000
00000000
00001000
00000000
00010000
00000000
00001000
00010000
00000100
00000000
00001000
00000000
00000200
00000000
,
00000000
00010300
00001000
00010000
00011000
00001000
00101000
00010000
,
00001000
00000000
00010000
00001000
00010000
00000000
00100000
00000000
01000000
00100000
01000000
00000000
00100000
00000000
02000000
00000000
,
00000000
03100000
00010000
00001000
00010000
00001000
00011000
00000000
,
00001000
00010000
00011000
00000000
00010000
00001000
00011000
00000000
,
00001000
00010000
01000000
00000000
10000000
00000000
00100000
00000000
00010000
00001000
00000100
00000000
00001000
00000000
00010000
00000000
,
00000100
00000000
00000010
00000000
00000001
00000100
00000010
00000000
00001000
00000010
00000100
00000000
00000010
00000000
00000200
00000000
,
00000010
00000000
00000010
00000000
00000010
00000000
00000310
00000000
00001000
00000001
00001000
00000001
00000010
00000000
00000100
00000000
,
00001000
00000100
00001100
00000000
00010000
00001000
00011000
00000000
,
00010000
00000000
00001000
00000100
00000000
00000001
00000010
00000000
00000100
00000000
00000100
00000000
00000010
00000000
00000010
00000000
,
00000001
00000000
00000100
00000000
00001000
00010000
00001000
00000000
00010000
00001000
00100000
00000000
01000000
00000000
00100000
00000000
,
01000000
00100000
01000000
00100000
01000000
00000000
10000000
00000000
00010000
10000000
00010000
10000000
00010000
00000000
01000000
00000000
,
00010000
01000000
00100000
10000000
00010000
01000000
00100000
10000000
01000000
00200000
00000000
00000000
,
00310000
01000000
00100000
10000000
00010000
01000000
00100000
10000000
01000000
00020000
00000000
00000000
,
00031000
00010000
00001000
00100000
00001000
00010000
00000100
00010000
00001000
00000200
00000000
00000000
,
00000310
00001000
00000010
00000001
00000010
00001000
00000100
00000001
00000100
00002000
00000000
00000000
,
00003010
00001000
00000100
00000010
00000001
00000100
00000010
00001000
00010000
00002000
00000000
00000000
,
00003010
00001000
00000100
00000001
00000100
00010000
00001000
00100000
00010000
02000000
00000000
00000000
,
03010000
00100000
00010000
00100000
00000000
00000000
00001000
00010000
00001000
00000100
00000000
00000000
,
00000110
00000000
00000000
00001010
00000000
00000000
00000110
00000000
00000000
00000000
00000000
00000000
00000001
00000000
00001000
00000000
00000001
00000000
00001001
00000000
00000000
00000000
00000000
00000000
,
00000110
00000110
00000000
00000000
00000000
00000000
00000000
00000000
,
00001100
00000000
00000000
00000000
,
00011000
00011000
00000000
00000000
00000000
00000000
00000000
00000000
,
00110000
00000000
00000000
00000000
10000000
01000000
00100000
00010000
10000000
00000000
00000000
00000000
11000000
00000000
00000000
00000000
,
10000000
00100000
10000000
00000000
01000000
00000000
00100000
00000000
00010000
00100000
00010000
00000000
01000000
00000000
00001000
00000000
,
00010000
00001000
00010000
00000000
00001000
00010000
00001000
00000000
00000100
00000000
00000010
00000000
00000010
00000000
00000100
00000010
,
00000100
00000001
00000100
00000000
00000010
00000000
00001000
00000000
00000001
00000010
00000100
00000000
00000010
00000000
00000001
00000000
,
00001000
00000000
00000001
00001000
00000001
00000000
00000100
00000000
00000010
00000000
00000100
00000010
00000100
00000000
00000001
00000000
,
00000010
00000100
00010000
00000000
00001000
00000000
00000100
00000000
00001000
00010000
01000000
00000000
00100000
00000000
00010000
00000000
,
10000000
00010000
10000000
00000000
00100000
01000000
00100000
00000000
02000000
00000000
00100000
00000000
00100000
00000000
03100000
00000000
,
10000000
01000000
00100000
00000000
00001000
00000000
00010000
00000000
00001000
00010000
00000100
00000000
00001000
00000000
00000010
00000000
,
00000100
00000000
00000001
00000100
00001000
00000000
00000100
00000000
00000010
00000000
00000010
00000000
00000100
00000000
00000100
00000000
,
00000001
00000010
00000001
00000000
00000010
00000100
00000010
00000000
00000100
00001000
00000100
00000000
00010000
00001000
00010000
00000000
,
00001000
00100000
00001000
00000000
00100000
00010000
00100000
00000000
01000000
00000000
10000000
00000000
10000000
00000000
00010000
01000000
,
00010000
01000000
00100000
00000000
10000000
00100000
10000000
00000000
01000000
00100000
01000000
00000000
00100000
00010000
00100000
00000000
,
00010000
00100000
00010000
00100000
00001000
00010000
00001000
00010000
00002000
00000000
00000000
00000000
00023000
00000000
00000000
00000000
,
00031000
00010000
00001000
00000000
00010000
00000100
00001000
00000000
00000100
00001000
00000100
00000000
00001000
00000010
00001000
00000000
,
00000001
00000001
00001000
00001000
00000010
00000100
00000101
00000000
,
00001000
00000010
00000100
00000000
00000001
00000010
00000100
00000000
00001000
00000100
00000010
00000000
00000001
00000100
00001000
00000000
,
00020000
00000000
00000000
00000000
00031000
00010000
00001000
00000000
00010000
00000000
00010000
00000000
00001000
00000000
00001000
00000000
,
00010000
01000000
00100000
00020000
00000000
00130000
00010000
02000000
,
00000000
03100000
10000000
01000000
00010000
00001000
00000100
00000001
,
00000010
00000001
00000010
00000000
00000100
00000000
00001000
00000000
00001100
00000000
00000000
00000000
00011000
00000000
00001000
00000000
,
00020000
00000000
00000000
00030000
,
00001000
00010000
00001000
00010000
00000100
00001000
00000100
00001000
00000001
00000100
00000001
00000100
00000010
00000000
00000000
00000000
,
00000010
00000100
00000010
00000000
00001000
00000000
00000100
00000000
00001100
00000000
00000000
00011000
00000000
00000000
00001100
00000000
,
00001000
00000100
00010000
00000000
00001000
00000000
00100000
00000000
00010000
00100000
00010000
00000000
01010000
00000000
00000000
00000000
,
01000000
00100000
01000000
00000000
00010000
00000000
00100000
00000000
00110000
00000000
00000000
00011000
00000000
00000000
00110000
00000000
,
00010000
00100000
00001000
00000000
00010000
00000000
00000100
00000000
00001000
00000100
00001000
00000100
00000010
00000001
00000010
00000001
,
00001000
00000010
00001000
00000000
00000010
00000000
00000100
00000000
00000110
00000000
00000000
00001010
00000000
00000000
00001100
00000000
,
00000100
00010000
00001000
00000000
00010000
00000000
00001000
00000000
00100000
00010000
00100000
00000000
01000000
00000000
10000000
00000000
,
00010000
00000000
01000000
00000000
00100000
00000000
10000000
00100000
01000000
00000000
00000000
01000000
00000000
00000000
00100000
00000000
,
10000000
00100000
10000000
00100000
01000000
00010000
01000000
00010000
00100000
00001000
00100000
00001000
00010000
00000000
00000000
00000000
,
00001000
00000000
00010000
00000000
00000100
00010000
00001000
00000000
00011000
00000000
00000000
00101000
00000000
00000000
00011000
00000000
,
00100000
00001000
00010000
00000000
00001000
00000000
00000100
00000000
00000001
00000100
00000001
00000000
00000100
00000000
00001000
00000000
,
00010000
00000000
00001000
00000000
00100000
00010000
00100000
00010000
10000000
00000000
00000000
10010000
00000000
00000000
01100000
00000000
,
01000000
00000000
00010000
00000000
00100000
00000000
00001000
00000000
00010000
00001000
00010000
00001000
00100000
00010000
00100000
00010000
,
20000000
00000000
00000000
00000000
30010000
00000000
00000000
00000000
00110000
00000000
00000000
00011000
00000000
00000000
00001100
00000000
,
00000100
00010000
00001000
00000000
00010000
00000000
00001000
00000000
00000100
00000010
00000100
00000000
00000001
00000000
00001000
00000000
,
00002002
00000000
00000000
00000000
00003003
00000000
00000000
00000000
00000011
00000000
00000000
00000110
00000000
00000000
00001100
00000000
,
00000001
00000100
00001000
00000000
00000100
00000000
00000001
00000000
00001000
00000100
00000001
00000000
00000100
00000000
00001000
00000000
,
00000100
00001000
00000100
00001000
00000001
00000100
00000001
00000100
00000010
00001000
00000010
00001000
00000100
00010000
00000000
00000000
,
00001000
00010000
00001000
00010000
00001000
00100000
00001000
00100000
00010000
01000000
00010000
01000000
00001000
00000000
00000000
00000000
,
00011000
00000000
00000000
00000000
00000010
00001000
00000010
00001000
00000010
00000000
00000000
00000000
00000100
00000001
00000100
00000001
,
00000100
00000010
00000000
00000000
00000000
00000000
00000000
00000000
,
00000000
00000000
00000000
00000000
;
#NOTES:
     dance-double:
     :
     Challenge:
     18:
     :
00000000
00000000
00000000
00000000
,
00000000
00000000
00000000
00000000
,
00000000
00000000
00000000
00000000
,
00000000
00000000
00000000
00000000
,
00000000
00000000
00000000
00000000
,
00000001
00000010
00000001
00000010
00000100
00000000
00001000
00000000
00000010
00000100
00001000
00000000
00010000
00000000
00100000
00000000
,
01000000
00001000
00010000
01000000
00100000
00100000
01100000
00000000
,
10000000
00100000
10000000
00100000
01000000
00000000
00010000
00000000
00100000
01000000
00010000
00000000
00001000
00000000
00000010
00000000
,
00000100
00010000
00001000
00000100
00000010
00000010
00000110
00000000
,
00000001
00000100
00000001
00000100
00001000
00000000
00010000
00000000
00001000
00000010
00001000
00000000
00010000
00000000
01000000
00000000
,
10000000
00000000
10000000
00100000
01000000
00000000
01000000
00010000
10000000
00000000
10000000
00000000
10010000
00000000
00000000
00000000
,
10000000
01000000
10000000
01000000
00010000
00000000
00001000
00000000
00010000
00100000
00010000
00000000
00001000
00000000
00000100
00000000
,
00000001
00000000
00000001
00000010
00000100
00000000
00000100
00001000
00000001
00000000
00000001
00000000
00001001
00000000
00000000
00000000
,
00000010
00000000
00000010
00001000
00000100
00000000
00000010
00000000
00000100
00000000
00000100
00010000
00001000
00000000
00100000
00000000
,
00010000
00000000
00010000
01000000
00100000
10000000
00100000
00000000
01000000
00000000
01000000
00000000
01000000
00000000
01000000
00000000
,
10000000
00000000
10000000
01000000
00010000
00000000
00010000
00000000
10000000
00000000
10000000
01000000
00010000
00000000
00010000
00000000
,
MMMM1000
00000000
0001MMMM
00000000
MMMM1000
00000000
0001MMMM
00000000
00000100
00001000
00000001
00000010
00000100
00001000
00000001
00000010
,
00000100
00000000
00000100
00010000
00001000
00000000
01000000
00000000
00100000
00000000
00100000
10000000
01000000
00000000
00010000
00000000
,
00001000
00000000
MMMMMMMM
00000000
00011000
00000100
00000010
00000001
,
00000100
00000000
00000010
00000100
00001000
00010000
00001000
00000000
01000000
00000000
01100000
00000000
00000000
00000000
10010000
00000000
,
01000000
00000000
00010000
00000000
01000000
00000000
10000000
00000000
00100000
01000000
00010000
00100000
00000100
00001000
00000010
00000100
,
00000001
00000000
00000010
00000000
00001000
00000000
00010000
00000000
01000000
00000000
10000000
00000000
00100000
00000000
01000000
00000000
00100000
00000000
01000000
00000000
00000000
MMMMMMMM
00000000
00000000
,
10000000
00000000
00100000
00000000
00010000
00000000
00001000
00000000
00000100
00000000
00000001
00000000
00000010
00000000
00000100
00000000
00000010
00000000
00000100
00000000
00000000
MMMMMMMM
00000000
00000000
,
00001000
00000000
00000010
00000000
00000001
00000000
00000100
00000000
00001000
00000000
00010000
00000000
00100000
00000000
10000000
00000000
01000000
00000000
00010000
00000000
00000000
MMMMMMMM
00000000
00000000
,
00010000
00000000
01000000
00000000
10000000
00000000
00100000
00000000
00010000
00000000
00001000
00000000
00000100
00000000
00000001
00000000
00001000
00000000
00000001
00000000
00000000
MMMMMMMM
00000000
00000000
,
00000010
00000000
00000010
00000000
00000010
00000000
00000100
00000000
00000100
00000000
00000100
00000000
00001000
00000000
00010000
00000000
00001000
00000000
00010000
00000000
00000000
MMMMMMMM
00000000
00000000
,
00100000
00000000
00100000
00000000
00100000
00000000
01000000
00000000
01000000
00000000
01000000
00000000
00010000
00000000
00001000
00000000
00010000
00000000
00001000
00000000
00000000
MMMMMMMM
00000000
00000000
,
00000100
00000000
00000010
00000000
00000100
00000000
00000010
00000000
00000000
MMMMMMMM
00000000
00000000
01000000
00000000
00100000
00000000
01000000
00000000
00100000
00000000
00000000
MMMMMMMM
00000000
00000000
,
00011000
00000000
00000000
00011000
00000000
00000000
00011000
00000000
00000000
MMMMMMMM
00000000
00000000
00010000
00000000
00001000
00000000
00010000
00000000
00011000
00000000
00000000
MMMMMMMM
00000000
00000000
,
00011000
00011000
00000000
00000000
MMMMMMMM
00000000
00000000
00000000
,
00011000
00000000
MMMMMMMM
00000000
,
00011000
00011000
00000000
00000000
MMMMMMMM
00000000
00000000
00000000
,
00011000
00000000
00000000
00000000
00100000
00010000
01000000
00100000
20000000
00000000
00000000
00000000
30010000
00000000
00000000
00000000
,
10000000
00100000
10000000
00000000
01000000
00000000
00100000
00000000
00001000
00010000
00001000
00000000
00010000
00000000
00000100
00001000
,
00000100
00000000
00000100
00000001
00000100
00000000
00000010
00000000
00000001
00000000
00000100
00000000
00010000
00000000
01000000
00000000
,
00100000
10000000
00100000
00000000
01000000
00000000
00001000
00000000
00010000
00000010
00010000
00000000
00000100
00000000
00001000
00000010
,
00000100
00000001
00000010
00000100
00010000
00001000
01000000
00010000
00100000
01000000
10000000
01000000
00010000
10000000
00100000
00000000
,
00001000
00010000
00000010
00000000
00000100
00000000
00001000
00000000
00010000
00001000
01000000
00000000
00010000
00000000
00100000
10000000
,
00100000
00000000
00100000
00010000
00100000
00000000
01000000
00000000
00010000
00000000
00010000
00000000
00001000
00000000
00001000
00000000
,
00000010
00000001
00000100
00000000
00001000
00000000
00000001
00000000
00000010
00001000
00000100
00000000
00010000
00000000
00001000
01000000
,
00010000
00100000
00010000
00000000
10000000
01000000
00010000
00000000
00001000
00000000
00001000
00000100
00000010
00000000
00000010
00000000
,
00000001
00000100
00001000
00000000
00010000
00001000
00000010
00000000
00000100
00010000
01000000
00000000
00100000
00001000
00010000
00000000
,
00100000
10000000
01000000
00000000
00010000
00001000
00000010
00000000
00000100
00010000
00000010
00000000
00000100
00001000
00010000
00000000
,
00100000
01000000
00001000
00000000
00010000
00000100
00000010
00000000
00000001
00000010
00001000
00000000
00010000
00000010
00000100
00000000
,
00001000
00010000
00001000
00010000
00100000
01000000
00100000
01000000
00020000
00000000
00000000
00000000
10030000
00000000
00000000
00000000
,
00100000
10000000
00100000
01000000
00010000
00100000
01000000
00010000
01000000
00100000
00001000
00010000
00001000
00010000
00000100
00000000
,
00001000
00000001
00000100
00000010
00001000
00000001
00000010
00000100
00001000
00000010
00010000
00001000
01000000
00001000
00010000
00000000
,
01000000
10000000
00100000
01000000
00100000
00010000
00100000
01000000
00010000
00100000
00001000
00000010
00000100
00001000
00000001
00000100
,
00000010
00000000
MMMMMMMM
00000000
00000010
00000100
00000010
00000000
00000001
00000000
00000010
00000000
00011000
00000000
00000000
00000000
,
00100000
10000000
01000000
00010000
00100000
01000000
00010000
00001000
,
00010000
00000100
00001000
00000010
00000001
00000100
00001000
00000010
,
00000100
00000001
00000100
00000000
00000100
00000000
00000100
00000010
00000200
00000000
00000000
00000000
00001300
00000000
00000000
00000000
,
00001000
00100000
00001000
00010000
00001000
00100000
00001000
00010000
00000100
00010000
00001000
00010000
00000100
00010000
00001000
00010000
,
00000010
00001000
00000100
00010000
00000010
00001000
00000100
00010000
00001000
00100000
00010000
01000000
00001000
00000000
00000000
00000000
,
00100000
00010000
00100000
01000000
10000000
01000000
00100000
00010000
00100000
00000000
00000000
01100000
00000000
00000000
11000000
00000000
,
01000000
00100000
00010000
00000000
00010000
00100000
00001000
00000000
00001000
00010000
00000100
00000000
00000100
00001000
00000001
00000000
,
00000100
00000001
00000100
00000010
00001000
00000010
00000100
00000001
00000100
00000000
00000101
00000000
00000000
00000110
00000000
00000000
,
00000100
00000010
00001000
00000000
00001000
00000100
00010000
00000000
00010000
00001000
00010000
00001000
01000000
00010000
01000000
00010000
,
00100000
01000000
10000000
01000000
00010000
01000000
10000000
00100000
01000000
00000000
01001000
00000000
00000000
00011000
00000000
00000000
,
00100000
00001000
00010000
00000000
00010000
00000010
00001000
00000000
00000100
00010000
00001000
00000000
00001000
01000000
00010000
00000000
,
01000000
00100000
00010000
00001000
00000100
00000010
00001000
00000001
00000010
00000000
00000100
00001000
00000000
00001000
00000010
00000000
,
00000100
00000001
00000100
00000001
00001000
00000100
00001000
00000100
00010000
00001000
00010000
00001000
00010000
00000000
00000000
00000000
,
00001000
01000000
00010000
01000000
00100000
10000000
01000000
10000000
00100000
00000000
10000000
01000000
00000000
01000000
00100000
00000000
,
00010000
00100000
01000000
00000000
01010000
00000000
00010000
00000000
00011000
00000000
00000010
00000000
00001010
00000000
00000100
00000000
,
00000001
00001000
00000100
00000010
00000100
00010000
00001000
01000000
00010000
00000000
00100000
01000000
00000000
01000000
10000000
00000000
,
10100000
00000000
00010000
00000000
00110000
00000000
01000000
00000000
00001000
00010000
00001000
00010000
00000010
00001000
00000010
00001000
,
00000200
00000300
00000000
00000000
00001001
00000000
00000000
00000000
00000110
00000000
00000001
00000100
00000000
00000100
00000010
00000000
,
00001000
00000100
00001000
00000100
00010000
00001000
01000000
00010000
00100000
01000000
10000000
00010000
00100000
01000000
00010000
01000000
,
10000000
00100000
00010000
00001000
00000000
00000000
00000000
00000000
00000101
00000000
00000000
00000011
00000000
00000000
00001001
00000000
,
00000010
00000100
00000001
00000010
00000100
00001000
00000010
00000100
00001000
00010000
00100000
01000000
00010000
00000000
00000000
00000000
,
00100000
01000000
10000000
00100000
01000000
10000000
01000000
00100000
10000000
01000000
00010000
00001000
00000010
00000001
00000000
00000000
,
00000010
00000100
00000001
00000100
00000010
00000001
00000100
00000010
00000001
00000010
00001000
00010000
01000000
00000000
00000000
00000000
,
01100000
00000000
00000000
00000000
00010000
00100000
10000000
01000000
00010000
00000000
00000000
00000000
00001000
00000010
00000001
00000100
,
00001000
00011000
00000000
00000000
00000000
00000000
00000000
00000000
,
00000000
00000000
00000000
00000000
;
