
//----- song ID: delo2 -----//
#TITLE:DEADLOCK -Out Of Reach-;
#ARTIST:U1 undefined behavior;
#BANNER:DEADLOCK -Out Of Reach-.png;
#BACKGROUND:DEADLOCK -Out Of Reach--bg.png;
#CDTITLE:./CDTitles/REFLEC BEAT groovin'!! Upper.png;
#MUSIC:DEADLOCK -Out Of Reach-.ogg;
#SAMPLESTART:78.437;
#SAMPLELENGTH:15;
#BPMS:0=205;
#NOTES:
     dance-single:
     :
     Beginner:
     5:
     :
0000
0000
0000
0000
,
0000
0000
0000
0000
,
0000
0000
0000
0000
,
0000
0000
0000
0000
,
0000
0000
0000
0000
,
1000
0000
0000
0000
,
1000
0000
0000
0000
,
0100
0000
0000
0000
,
0100
0000
0000
0000
,
1001
0000
0000
0000
,
0000
0000
0000
0000
,
0001
0000
0001
0000
,
0001
0000
0000
0000
,
0010
0000
0000
0000
,
0001
0000
0000
0000
,
0100
0000
0100
0000
,
0001
0000
0000
0000
,
0010
0000
0000
0000
,
0100
0000
0000
0000
,
1000
0000
1000
0000
,
0100
0000
0000
0000
,
0010
0000
0000
0000
,
1000
0000
0000
0000
,
1001
0000
0000
0000
,
0010
0010
0010
0000
,
0001
0000
0100
0000
,
0010
0000
0100
0100
,
0100
0000
0001
0000
,
0010
0010
0010
0000
,
0001
0000
0100
0000
,
0010
0000
1000
1000
,
1000
0000
0100
0000
,
0001
0000
0000
0000
,
1000
0000
0010
0000
,
0100
0100
0100
0000
,
1000
0000
0100
0000
,
0001
0000
0000
0000
,
1000
0000
0100
0000
,
0010
0010
0010
0000
,
1000
0000
0010
0000
,
0001
0000
0000
0000
,
2000
0000
0000
0000
,
3000
0000
0000
0000
,
0020
0000
0000
0000
,
0030
0000
0000
0000
,
0200
0000
0000
0000
,
0300
0000
0000
0000
,
0002
0000
0000
0000
,
0003
0000
0000
0000
,
0001
0000
0010
0000
,
0001
0001
0100
0000
,
0010
0000
0100
0000
,
0100
0100
0001
0000
,
0100
0000
0010
0000
,
1000
1000
0010
0000
,
1000
0000
0100
0000
,
0100
0100
1000
0000
,
1001
0000
0010
0000
,
0100
0000
0001
0000
,
1001
0000
0010
0000
,
0100
0000
1000
0000
,
1001
0000
0010
0000
,
0100
0000
0001
0000
,
1001
0000
0000
0000
,
0000
0000
0000
0000
,
2002
0000
0000
0000
,
3003
0000
0000
0000
,
1000
0000
0100
0000
,
0001
0001
0001
0000
,
1000
0000
0010
0000
,
0001
0001
0001
0000
,
0001
0000
0100
0000
,
1000
1000
1000
0000
,
0001
0000
0010
0000
,
1000
1000
1000
0000
,
0110
0000
0000
0000
,
0110
0000
0000
0000
,
1000
0100
1000
0000
,
0001
0010
0001
0000
,
0110
0000
0000
0000
,
0110
0000
0000
0000
,
0001
0100
0001
0000
,
1000
0010
1000
0000
,
1001
0000
0000
0000
,
1001
0000
0000
0000
,
0001
0100
0010
0000
,
1000
0100
0010
0000
,
1001
0000
0000
0000
,
1001
0000
0000
0000
,
0010
0010
0010
0000
,
0100
0100
0100
0000
,
1001
0000
0000
0000
,
0000
0000
0000
0000
,
1001
0000
0000
0000
,
0000
0000
0000
0000
,
1000
1000
0010
0000
,
0100
0000
0010
0000
,
0001
0001
0010
0000
,
0100
0000
0010
0000
,
1001
0000
0000
0000
,
0000
0000
0000
0000
;
#NOTES:
     dance-single:
     :
     Easy:
     9:
     :
0000
0000
0000
0000
,
0000
0000
0000
0000
,
0000
0000
0000
0000
,
0000
0000
0000
0000
,
0000
0000
0000
0000
,
0001
0001
0010
0000
,
0200
0000
0300
0000
,
1000
1000
0010
0000
,
0200
0000
0300
0000
,
2002
0000
3003
0000
,
1001
0000
0000
0000
,
1000
0100
0001
0100
,
2000
0000
3000
0000
,
0001
0100
0010
1000
,
0001
0000
0101
0000
,
0001
0010
0100
1000
,
0010
0000
1010
0000
,
0100
0010
1000
0001
,
0100
0000
0011
0000
,
0001
0010
0001
1000
,
0100
0000
1100
0000
,
1000
0010
0001
0010
,
1000
0000
0110
0000
,
2002
0000
3003
0000
,
1000
0000
0001
0000
0100
0010
0100
0000
,
0001
0010
0001
0100
,
0001
0010
0100
0100
,
1000
0010
1000
0100
,
1000
1000
0010
0010
,
0100
0001
0100
1000
,
0100
0001
0010
0010
,
0001
0001
1000
1000
,
0010
0100
0010
0100
,
0001
1000
0010
0100
,
0001
0010
0001
0000
1000
0100
1000
0000
,
0010
0100
0001
0100
,
0010
0000
1001
0000
,
1000
0010
0001
0010
,
1000
0000
0001
1000
0001
0000
0000
0000
,
0100
1000
0100
1000
,
0010
0010
0010
0000
,
2000
0000
0010
0000
,
0002
0000
3003
0000
,
0002
0000
0100
0000
,
2000
0000
3003
0000
,
2000
0000
0100
0000
,
0020
0000
3030
0000
,
0002
0000
0100
0000
,
0020
0000
0033
0000
,
1000
0010
1000
0010
,
1000
0001
0010
0001
,
0100
0010
0100
0010
,
0100
0001
1000
0010
,
1000
0100
1000
0100
,
0010
0001
0100
0001
,
1000
0001
0100
1000
,
0100
0001
1000
0010
,
0100
0000
0100
0100
,
0100
0000
1001
0000
,
0010
0000
0010
0010
,
0010
0000
1001
0000
,
0100
0000
0100
0100
,
0100
0000
1001
0000
,
0220
0000
0000
0000
,
0330
0000
0000
0000
,
2002
0000
0000
0000
,
3003
0000
0000
0000
,
1000
1000
0100
0100
,
0010
0001
0100
0000
,
0001
0001
0100
0100
,
0010
1000
0100
0000
,
0001
0100
1000
0100
,
1000
0010
0001
0010
,
0100
0001
0010
0001
,
0010
1000
0010
0001
,
1000
1000
0100
0100
,
0010
0010
0001
0001
,
1000
0010
1000
0000
0100
0000
0100
0000
,
0001
0010
0001
0000
0100
0000
0100
0000
,
0001
0001
0010
0010
,
0100
0100
1000
1000
,
0001
0100
0001
0000
1000
0010
1000
0000
,
0100
1000
0100
0000
0010
0001
0010
0000
,
0001
0001
1000
1000
,
0010
0010
0100
0100
,
0010
1000
0001
0000
0100
0000
0100
0000
,
0001
0010
0100
0000
1000
0000
1000
0000
,
0010
0010
0100
0100
,
0001
0001
1000
1000
,
0100
0010
0001
0000
0100
0010
1000
0000
,
0100
1000
0010
0000
0100
0001
0010
0000
,
0011
0100
1000
0001
,
1000
0000
1001
0000
,
1010
0100
0001
1000
,
0001
0000
1001
0000
,
0001
0010
1000
0010
,
0001
0000
0100
0000
0010
1000
0001
0000
,
1000
0010
0001
0010
,
1000
0000
0100
0000
1000
0001
1000
0001
,
1000
0000
0000
0000
,
0000
0000
0000
0000
;
#NOTES:
     dance-single:
     :
     Medium:
     13:
     :
0000
0000
0000
0000
,
0000
0000
0000
0000
,
0000
0000
0000
0000
,
0000
0000
0000
0000
,
0000
0000
0000
0000
,
1000
0100
1000
0100
,
0010
0001
0010
0001
,
0100
0010
0100
0010
0100
0000
0010
0000
,
1000
0001
1000
0000
,
2002
0000
0000
3003
,
1000
0001
0000
0000
0000
0000
0000
0000
,
1000
0000
1000
0000
0100
0000
1000
0010
,
2000
0000
3100
0010
0002
0000
0103
0010
,
1000
0010
0100
0010
,
1001
0000
0000
0000
0000
0000
0001
0000
1000
0000
0001
0000
1000
0000
0000
0000
0000
0000
0100
0000
0000
0010
0000
0000
,
0001
0000
0100
0000
0010
0100
0010
0000
,
1000
1001
0000
0000
0220
0000
0330
0000
,
0100
0001
0100
0000
0010
1000
0010
0000
,
1001
0000
0000
0000
0000
0000
0001
0000
0010
0000
0001
0000
0010
0000
0000
0000
0000
0000
0100
0000
0000
1000
0000
0000
,
0010
0001
0010
0000
1000
0100
0001
0000
,
0100
0010
0000
0000
0001
1000
0001
1000
,
0001
0100
0001
0000
1000
0100
1000
0000
,
0110
0000
0000
0000
0000
0000
1000
0000
0010
0000
1000
0000
0010
0000
0000
0000
0000
0000
0100
0000
0000
0001
0000
0000
,
2002
0000
0000
3003
,
0001
0100
0001
0100
0000
0000
0010
1000
0010
1000
0000
0000
,
0010
0100
0010
0000
0100
0001
0100
0000
,
0010
1000
0010
0000
1010
0000
1100
0000
,
0010
0001
0010
0000
0001
0100
0010
0000
,
1010
1100
1010
0011
,
1000
0100
1000
0000
0001
0010
0100
0000
,
0010
0001
0100
0000
0110
0000
1010
0000
,
0110
0000
0011
0000
1000
0100
0001
0000
,
0001
0010
0100
1000
0010
0100
0001
0000
,
1000
0001
0100
0010
1000
0001
0010
0100
,
1000
0100
1000
0100
0000
0000
0010
0001
0010
0001
0000
0000
,
0100
0010
1000
0010
0100
0001
1000
0001
,
0010
0110
0100
0110
,
1000
0100
1000
0010
0100
0010
1000
0001
,
0020
0000
0130
0010
,
0001
0100
0001
0100
0010
1000
0010
1000
,
0100
0010
0100
0010
0001
1000
0001
1000
,
0002
0023
0032
2003
,
3020
0000
2030
0000
3002
0000
0103
0010
,
0200
0302
0023
0230
,
0302
0000
0203
0000
2300
0000
3010
0100
,
0002
0023
2030
3020
,
0032
0000
2003
0000
3200
0000
0310
0001
,
0200
0320
2030
3002
,
0203
0000
0320
0000
2030
0000
3100
0010
,
0001
0010
0001
0100
0001
0010
0100
1000
,
0001
0100
0010
1000
0001
0000
0100
0000
,
0010
1000
0100
1000
0100
1000
0010
1000
,
0001
0100
0001
0010
0100
0000
1000
0000
,
0100
0010
0001
1000
0001
0010
0100
1000
,
0001
0100
0010
0100
0001
0000
1000
0000
,
0001
0010
0100
0010
1000
0010
0100
0010
,
0002
0000
0000
0003
,
1000
0001
0000
1000
0000
0001
0100
0000
,
0010
1000
0000
0010
0000
1000
0001
0000
,
0100
0001
0000
0100
0000
0001
0010
0000
,
0100
0010
0000
0100
0000
0010
0001
0000
,
1000
0010
0000
1000
0000
0010
0100
0000
,
0010
1000
0000
0001
0000
1000
0100
0000
,
0110
0000
0000
0000
,
0000
0000
0000
0000
,
2002
0000
0000
0000
,
0000
0000
0000
3003
,
0010
1000
0100
0001
,
1001
0000
0000
0000
0000
0000
0010
0000
0100
0000
0001
0000
1000
0000
0000
0000
0000
0000
0100
0000
0000
0010
0000
0000
,
0001
0100
1000
0100
,
0010
0100
0000
0000
1000
0100
0010
0000
,
0100
0010
1000
0000
0100
0001
0100
0000
,
0110
0000
0000
0000
0000
0000
0001
0000
0010
0000
0100
0000
1000
0000
0000
0000
0000
0000
0010
0000
0000
0010
0000
0000
,
1000
0100
0001
0100
2000
0000
3010
0100
,
0001
0100
0010
0100
0010
1000
0001
0000
,
1000
0010
0100
0001
0100
0010
,
1000
0100
0010
0001
0010
0100
,
1000
0100
1000
0100
0001
0100
0001
0100
,
1000
0010
1000
0010
0001
0010
0001
0010
,
1000
0001
0100
0001
1000
0100
,
1000
0001
0010
0001
1000
0010
,
0001
0100
0001
0100
1000
0100
1000
0100
,
0001
0010
0001
0010
1000
0010
1000
0010
,
0001
1000
0100
1000
0001
0100
,
0001
1000
0010
1000
0001
0100
,
0001
0100
1000
0100
0001
0010
1000
0010
,
0001
0100
1000
1000
0010
0001
,
0001
0010
0100
1000
0010
0100
,
0001
0010
0100
1000
0010
0100
,
0001
0010
0100
1000
0010
0100
0001
1000
,
0100
0010
0001
0100
1000
0100
0001
1000
,
0200
0000
0001
0000
,
1000
0000
0001
0000
,
0320
0000
1000
0000
,
0001
0000
1000
0000
,
0031
0100
0001
0100
0000
0000
0001
0000
0000
0100
0000
0000
,
0010
1000
0010
1000
0000
0000
0010
0000
0000
1000
0000
0000
,
0100
0010
0100
0010
0000
0000
0100
0000
0000
0010
0000
0000
,
0001
1000
0001
1000
0001
1000
0010
0100
0010
0100
0000
0000
,
1001
0000
0000
0000
,
0000
0000
0000
0000
;
#NOTES:
     dance-single:
     :
     Hard:
     17:
     :
0000
0000
0000
0000
,
0000
0000
0000
0000
,
0000
0000
0000
0000
,
0000
0000
0000
0000
,
0000
0000
0000
0000
,
1000
1000
1000
1000
,
0002
0000
0000
0003
,
0100
0100
0100
0100
0100
0000
0100
0000
,
0020
0000
0000
0030
,
2002
0000
0000
3003
,
1001
1001
0000
0000
0000
0000
0000
0000
,
0110
0000
0000
0000
0110
0000
0000
0000
1000
0000
0000
1000
0010
0000
0100
0000
,
0001
0000
0000
0000
0000
0000
0000
0000
0000
0000
0000
0000
0010
0000
0000
0000
0100
0000
0000
0000
1000
0000
0000
0000
0001
0000
0000
0000
0000
0000
0000
0000
0000
0000
0000
0000
0100
0000
0000
0001
0000
0000
0100
0000
0000
0001
0000
0000
,
0100
0010
1000
0000
0100
1000
0010
0000
,
1100
0000
0000
0000
0000
0000
0000
0000
0000
0000
0000
0000
1000
0000
0000
0000
0100
0000
0000
0000
0010
0000
0000
0000
0001
0000
0000
0000
0000
0000
0000
0000
0000
0000
0000
0000
1000
0000
0000
0010
0000
0000
1000
0000
0000
0010
0000
0000
,
1000
0001
0100
0000
0020
0000
0130
0100
,
0110
0000
0110
0000
0000
0000
0000
0000
1010
0000
0000
1000
0001
0100
0001
0100
,
0001
0010
0001
0000
1000
0100
1000
0000
,
0010
0000
0000
0000
0000
0000
0100
0000
0000
0000
0000
0000
0010
0000
0000
0000
1000
0000
0000
0000
0100
0000
0000
0000
0010
0000
0000
0000
0000
0000
0000
0000
0000
0000
0000
0000
0001
0000
0000
1000
0000
0000
0001
0000
0000
1000
0000
0000
,
0001
1000
0100
0000
0020
0000
0031
0100
,
0001
0000
1001
0000
0000
0000
0000
0000
0000
0000
0100
0010
0001
0010
0001
0010
,
0001
0100
1000
0000
1000
0100
0001
0000
,
1001
0000
0000
0000
0000
0000
0000
0000
0000
0000
0000
0000
0100
0000
0000
0000
1000
0000
0000
0000
0010
0000
0000
0000
0100
0000
0000
0000
0000
0000
0000
0000
0000
0000
0000
0000
0001
0000
0000
1000
0000
0000
0001
0000
0000
1000
0000
0000
,
0002
0000
0000
0003
,
0100
0000
0000
0000
0010
0000
0000
0000
1000
0000
0000
0000
0100
0000
0000
0000
0010
0000
0000
0000
0001
0000
0000
0000
1000
0000
0000
0010
0000
0000
1000
0000
0000
0010
0000
0000
0100
0000
0000
0001
0000
0000
0100
0000
0000
0001
0000
0000
,
0200
0310
2000
3001
,
0002
0000
0000
0000
0103
0000
0000
0000
0010
1000
0100
0000
1000
0001
0100
0000
,
0002
1003
0020
1030
,
0001
0010
0100
0000
1000
0001
0100
0000
0010
1000
0100
1000
0001
0000
0000
0000
,
0200
1300
0200
0301
,
2000
0000
0000
0000
3010
0000
0000
0000
0100
0001
1000
0000
0001
0010
0100
0000
,
1000
0010
0100
0000
1000
0100
0010
0000
1000
0000
0001
0000
1000
0000
0000
0000
,
0010
0001
0100
0000
0010
0001
0100
0000
,
1000
0001
0010
0001
0100
0010
1000
0100
0010
0100
1000
0001
,
0100
0010
0100
0010
0000
0000
1000
0001
1000
0001
0000
0000
,
0010
0000
0001
0000
1000
0000
0001
0000
1000
0000
0010
0000
0100
0000
0000
0001
0000
0000
1000
0000
0000
0000
0000
0000
,
0100
1010
0100
0011
,
0001
0010
0100
0010
0001
1000
0010
0100
0001
0100
0010
1000
,
1001
0000
0100
0100
0010
0000
0110
0000
,
1000
0100
0010
0001
0100
0010
1000
0010
0100
0001
0010
0100
,
1000
0000
0001
0000
0010
0001
0100
0000
0010
1000
0010
0000
0010
0000
1000
0100
,
0020
0001
1000
0001
,
0100
0001
1000
0000
,
0032
0100
0010
0100
,
2003
0100
0010
0000
,
3200
0010
0001
0010
,
1000
0001
0010
0000
,
2300
0001
0100
0010
,
3002
0010
0100
0003
,
1000
0100
1000
0100
1000
0001
1000
0001
0010
0100
0010
0100
,
1000
0100
1000
0100
0010
0100
0010
0100
1000
0100
1000
0100
,
0010
0100
0010
0100
0010
0001
0010
0001
0010
0001
1000
0001
,
1000
0100
1000
0100
0010
0100
0010
0100
1000
0001
1000
0001
,
0100
0001
0100
0010
1000
0100
0010
0001
1000
0010
0100
0001
,
0100
0001
0010
0100
1000
0100
0010
0100
0010
0001
0010
0100
,
1000
0010
0100
0010
1000
0001
0010
0001
0010
0001
1000
0100
,
0010
0100
1000
0010
0100
0001
0010
0001
0100
0010
1000
0010
,
0100
0000
0000
0001
0010
0000
0001
0000
,
1000
0000
0110
0000
,
0100
0000
0000
1000
0010
0000
1000
0000
,
0001
0000
0110
0000
,
0001
0000
0000
0100
1000
0000
0100
0000
,
0001
0000
0011
0000
,
1100
0000
0000
0000
,
0000
0000
0000
0000
,
2002
0000
0000
0000
,
0000
0000
0000
3003
,
0110
0000
0000
0000
0110
0000
0000
0000
0001
0000
0000
0001
0100
0000
0010
0000
,
1000
0000
0000
0000
0000
0000
1000
0000
0000
0000
0000
0000
0100
0000
0000
0000
0010
0000
0000
0000
0001
0000
0000
0000
1000
0000
0000
0000
0000
0000
0000
0000
0000
0000
0000
0000
0010
0000
0000
1000
0000
0000
0010
0000
0000
1000
0000
0000
,
0020
0000
0130
0000
0002
0000
0103
0100
,
0001
0000
1001
0000
0000
0000
0000
0000
0010
0100
0010
0100
0001
0100
0001
0100
,
0001
1000
0010
0000
0100
0001
1000
0000
,
0110
0000
0000
0000
0000
0000
0110
0000
0000
0000
0000
0000
1000
0000
0000
0000
0010
0000
0000
0000
0100
0000
0000
0000
0001
0000
0000
0000
0000
0000
0000
0000
0000
0001
0000
0000
1000
0000
0000
0010
0000
0000
1000
0000
0000
0010
0000
0000
,
1000
0100
0001
0100
2000
0000
3010
0010
,
0100
0000
0010
0000
1000
0100
0010
0000
0001
0000
0010
0100
1000
0000
0000
0000
,
0001
0101
1100
1000
1010
0011
,
0001
0101
1100
1000
1010
0011
,
0100
0010
1000
0000
0100
0010
0001
0000
0100
0010
1000
0000
0100
0010
0001
0000
,
0010
0100
1000
0000
0001
0010
0100
0000
1000
0010
0100
0000
0001
1000
0100
0000
,
1000
1100
1010
0001
0101
0011
,
1000
1100
1010
0001
0101
0011
,
0100
1000
0001
0000
0010
0001
1000
0000
0010
1000
0001
0000
0100
0001
1000
0000
,
0100
1000
0001
0000
0010
0001
1000
0000
0010
1000
0001
0000
0100
0001
1000
0000
,
0010
1100
0101
0010
0101
1100
,
0010
1100
0101
0010
0101
1100
,
0001
0010
0100
0000
1000
0001
0100
0000
0010
1000
0100
0000
1000
0010
0100
0000
,
0001
0011
1100
1000
1010
0101
,
0110
0000
0010
1000
0100
0000
0110
0000
0010
0001
0100
0000
,
0110
0000
0100
0001
0010
0000
0110
0000
0100
1000
0010
0000
,
0100
0001
1000
0000
0100
0010
0001
0000
0010
0001
1000
0000
0010
0100
0001
0000
,
1000
0100
1000
0100
1000
0100
1000
0100
0010
0100
0010
0100
0010
0100
0010
0100
,
0010
0001
0000
0001
0000
1000
0010
1000
,
0010
0000
1001
0000
,
0010
1000
0000
1000
0000
0001
0010
0001
,
0010
0000
1001
0000
,
0001
0010
0001
0100
0010
1000
0100
0010
0001
0100
0010
1000
,
0010
0100
0001
1000
0010
0100
0001
0010
0100
1000
0100
0010
,
0001
0100
0001
0100
0010
0100
0010
1000
0100
0010
0100
0010
,
0001
0000
0000
0000
1000
0000
0000
0000
0010
0000
0000
0000
0100
0000
0000
0000
0010
0000
0000
0000
1000
0000
0000
0000
0001
0000
0000
0000
0010
0000
0000
0000
0100
0000
0000
0000
1000
0000
0000
0001
0000
0000
1000
0000
0000
0001
0000
0000
,
1000
0000
0000
0000
,
0000
0000
0000
0000
;
#NOTES:
     dance-double:
     :
     Easy:
     9:
     :
00000000
00000000
00000000
00000000
,
00000000
00000000
00000000
00000000
,
00000000
00000000
00000000
00000000
,
00000000
00000000
00000000
00000000
,
00000000
00000000
00000000
00000000
,
00100000
10000000
00100000
00000000
,
02000000
00000000
03000000
00000000
,
00001000
00010000
00001000
00000000
,
00020000
00000000
00030000
00000000
,
00000200
00000000
00000300
00000000
,
00001001
00000000
00000000
00000000
,
00000010
00000001
00000100
00000001
,
00000020
00000000
00000030
00000000
,
00000100
00010000
00001000
00010000
,
00001000
00000000
00011000
00000000
,
00100000
00010000
00100000
01000000
,
10000000
00000000
11000000
00000000
,
00010000
01000000
00001000
00100000
,
00001000
00000000
00011000
00000000
,
00000100
00001000
00000010
00000100
,
00000010
00000000
00000110
00000000
,
00000001
00000100
00000010
00010000
,
00001000
00000000
00010000
00000000
,
00022000
00000000
00033000
00000000
,
01000000
01000000
00100000
00100000
,
10000000
01000000
10000000
01000000
,
00100000
00010000
00100000
00001000
,
00010000
00001000
00010000
00001000
,
00010000
00000100
00001000
00000010
,
00000100
00000001
00000100
00000001
,
00000100
00001000
00010000
00001000
,
00100000
00010000
01000000
01000000
,
10000000
01000000
00100000
00000000
,
10000000
01000000
00100000
00010000
,
00100000
00000000
00001000
00000000
00010000
00001000
00010000
00000000
,
00000100
00010000
00000100
00001000
,
00000010
00000000
00001001
00000000
,
00000100
00000001
00000010
00000100
,
00010000
00000000
00001000
00010000
00001000
00000000
00000000
00000000
,
01000000
00010000
00100000
00010000
,
01000000
01000000
01000000
00000000
,
00200000
00000000
10300000
00000000
,
00200000
00000000
01300000
00000000
,
00002000
00000000
00013000
00000000
,
00000200
00000000
00001300
00000000
,
00000002
00000000
00000013
00000000
,
00000002
00000000
00000103
00000000
,
00000020
00000000
00001030
00000000
,
00020000
00000000
00031000
00000000
,
01000000
00010000
01000000
00010000
,
01000000
00100000
10000000
01000000
,
10000000
00010000
00100000
00010000
,
00100000
00001000
00010000
00001000
,
00010000
00000010
00010000
00000010
,
00001000
00000100
00000010
00000001
,
00001000
00000001
00000100
00000001
,
00002000
00000000
00003000
00000000
,
00000010
00000010
00000010
00000000
,
00001000
00000000
00011000
00000000
,
01000000
01000000
01000000
00000000
,
00010000
00000000
00011000
00000000
,
00000100
00000100
00000100
00000000
,
00001000
00000000
00010000
00000000
,
00022000
00000000
00000000
00000000
,
00033000
00000000
00000000
00000000
,
00011000
00000000
00000000
00000000
,
00000000
00000000
00000000
00000000
,
00010000
01000000
10000000
00000000
,
10000000
01000000
00010000
00000000
,
00001000
01000000
00001000
00010000
,
00000100
00010000
00001000
00000000
,
00001000
00000100
00000001
00000000
,
00000001
00000100
00001000
00000000
,
00010000
00000010
00010000
00001000
,
00100000
00001000
00010000
00000000
,
00100000
00100000
10000000
10000000
,
00010000
00010000
00100000
00100000
,
00001000
00010000
00001000
00000000
00010000
00001000
00010000
00000000
,
00001000
00010000
00011000
00000000
,
00000010
00000010
00000001
00000001
,
00001000
00001000
00000010
00000010
,
00010000
00001000
00010000
00000000
00001000
00010000
00001000
00000000
,
00010000
00001000
00011000
00000000
,
01000000
01000000
10000000
10000000
,
00010000
00010000
01000000
01000000
,
00001000
00010000
00001000
00000000
00010000
00001000
00010000
00000000
,
00001000
00010000
00011000
00000000
,
00000100
00000100
00000001
00000001
,
00001000
00001000
00000100
00000100
,
00010000
00001000
00010000
00000000
00001000
00010000
00001000
00000000
,
00010000
00001000
00011000
00000000
,
00010000
00100000
01000000
00100000
,
10100000
00000000
01010000
00000000
,
01000000
00010000
00100000
00010000
,
00101000
00000000
00011000
00000000
,
00001000
00000010
00000100
00001000
,
00000001
00000000
00000100
00000000
00000010
00000100
00000010
00000000
,
00000100
00001000
00010000
00001000
,
00100000
00000000
00010000
00000000
00100000
01000000
00100000
01000000
,
00100000
00000000
00000000
00000000
,
00000000
00000000
00000000
00000000
;
#NOTES:
     dance-double:
     :
     Medium:
     13:
     :
00000000
00000000
00000000
00000000
,
00000000
00000000
00000000
00000000
,
00000000
00000000
00000000
00000000
,
00000000
00000000
00000000
00000000
,
00000000
00000000
00000000
00000000
,
00000001
00000100
00000001
00000100
,
00000010
00000100
00000010
00001000
,
00000100
00010000
00000100
00010000
00000100
00000000
00010000
00000000
,
00001000
00010000
00001000
00000000
,
00022000
00000000
00000000
00033000
,
00001000
01000000
00000000
00000000
00000000
00000000
00000000
00000000
,
00100000
00000000
00100000
00000000
10000000
00000000
00010000
10000000
,
00020000
00000000
10030000
01000000
00200000
00000000
00301000
00010000
,
00001000
00010000
00000100
00001000
,
00000010
00000000
00000000
00000000
00000000
00000000
00001000
00000000
00000001
00000000
00001000
00000000
00000001
00000000
00000000
00000000
00000000
00000000
00000100
00000000
00000000
00000010
00000000
00000000
,
00001000
00000000
00000001
00000000
00000010
00001000
00010000
00000000
,
00001000
00011000
00000000
00000000
00022000
00000000
00033000
00000000
,
00100000
00010000
00100000
00000000
01000000
10000000
01000000
00000000
,
01100000
00000000
00000000
00000000
00000000
00000000
10000000
00000000
00100000
00000000
10000000
00000000
00100000
00000000
00000000
00000000
00000000
00000000
01000000
00000000
00000000
00010000
00000000
00000000
,
00100000
01000000
00010000
00000000
00010000
00001000
00000010
00000000
,
00000001
00001000
00000000
00000000
00000010
00000100
00000010
00000100
,
00000001
00001000
00000100
00000000
00010000
00001000
00010000
00000000
,
00011000
00000000
00000000
00000000
00000000
00000000
01000000
00000000
00010000
00000000
01000000
00000000
00010000
00000000
00000000
00000000
00000000
00000000
01000000
00000000
00000000
00100000
00000000
00000000
,
02200000
00000000
00000000
03300000
,
10000000
00000000
10000000
01000000
00000000
01000000
00100000
00010000
00100000
00001000
00000000
00000000
,
00010000
00000010
00001000
00000000
00000010
00000100
00000001
00000000
,
00000010
00000100
00001000
00000000
00001100
00000000
00010100
00000000
,
00001000
00010000
00001000
00000000
01000000
00010000
00100000
00000000
,
01100000
11000000
10100000
00110000
,
01000000
00001000
00010000
00000000
00000100
00001000
00000010
00000000
,
00000100
00000001
00001000
00000000
00001100
00000000
00000101
00000000
,
00000110
00000000
00001010
00000000
00000001
00000010
00001000
00000000
,
00001000
00010000
01000000
00100000
00010000
01000000
00100000
00000000
,
10000000
00100000
10000000
00100000
01000000
00010000
01000000
00001000
,
00010000
00001000
00010000
00001000
00000000
00000000
00001000
00010000
00001000
00010000
00000000
00000000
,
00000010
00001000
00000010
00000100
00000001
00000100
00000010
00001000
,
00000001
00001000
00011000
00000000
,
00100000
10000000
00100000
01000000
00010000
10000000
00100000
01000000
,
00020000
00000000
00130000
00001000
,
00010000
00000100
00010000
00000100
00001000
00000100
00001000
00000100
,
00000010
00000001
00000010
00000001
00000100
00000010
00000100
00000010
,
00002000
00003002
00000023
00000032
,
00000203
00000000
00000320
00000000
00002030
00000000
00003100
00010000
,
00002000
00023000
00032000
02003000
,
03020000
00000000
00230000
00000000
02300000
00000000
13000000
00010000
,
02000000
23000000
32000000
03200000
,
20300000
00000000
32000000
00000000
03200000
00000000
00301000
00010000
,
00002000
00003020
00000230
00002300
,
00003002
00000000
00000023
00000000
00000032
00000000
00000103
00000010
,
00001000
00000001
00000100
00000010
00001000
00000100
00010000
00001000
,
00100000
00010000
01000000
00010000
00100000
00000000
01000000
00000000
,
10000000
00100000
10000000
00010000
00100000
00010000
01000000
00100000
,
01000000
00010000
00100000
00001000
00010000
00000000
00001000
00000000
,
00010000
00000100
00001000
00000010
00001000
00000001
00000100
00000010
,
00000100
00000001
00000010
00000100
00001000
00000000
00000001
00000000
,
00000100
00000010
00001000
00000100
00010000
00001000
00100000
00010000
,
02000000
00000000
00000000
03000000
,
00100000
10000000
00000000
00100000
00000000
10000000
01000000
00000000
,
00100000
00010000
00000000
00100000
00000000
00001000
00010000
00000000
,
00001000
00010000
00000000
00000100
00000000
00001000
00000010
00000000
,
00000100
00000010
00000000
00001000
00000000
00000001
00000100
00000000
,
00000001
00001000
00000000
00000001
00000000
00000100
00000010
00000000
,
00001000
00000100
00000000
00010000
00000000
00001000
00010000
00000000
,
00011000
00000000
00000000
00000000
,
00000000
00000000
00000000
00000000
,
00022000
00000000
00000000
00000000
,
00000000
00000000
00000000
00033000
,
01000000
00000000
00010000
00000000
00100000
00001000
00010000
00000000
,
00011000
00000000
00000000
00000000
00000000
00000000
00000100
00000000
00001000
00000000
00000100
00000000
00001000
00000000
00000000
00000000
00000000
00000000
00000010
00000000
00000000
00001000
00000000
00000000
,
00000100
00000000
00000010
00000000
00000100
00010000
00001000
00000000
,
00100000
00010000
00100000
00000000
01000000
00010000
00001000
00000000
,
00000010
00000001
00000010
00000000
00000100
00001000
00000100
00000000
,
00010000
00000000
00000000
00000000
00000000
00000000
00001000
00000000
01000000
00000000
00001000
00000000
01000000
00000000
00000000
00000000
00000000
00000000
00010000
00000000
00000000
00100000
00000000
00000000
,
01000000
10000000
01000000
00010000
02000000
00000000
03100000
00001000
,
00010000
00001000
00010000
00000010
00001000
00000100
00000010
00000000
,
00000001
00000010
00000010
00000100
00010000
00010000
,
00001000
00100000
00100000
01000000
10000000
10000000
,
00100000
01000000
00100000
01000000
00010000
00100000
00010000
00100000
,
00001000
00010000
00001000
00010000
01000000
00010000
01000000
00000000
,
10000000
00100000
00100000
01000000
00001000
00001000
,
00010000
00000010
00000010
00000100
00000001
00000001
,
00000010
00000100
00000010
00000100
00001000
00000010
00001000
00000010
,
00010000
00001000
00010000
00001000
00000100
00001000
00000100
00000000
,
00000001
00000001
00000001
00000010
00000100
00000010
,
00001000
00001000
00001000
00010000
00100000
01000000
,
00100000
10000000
00100000
10000000
01000000
00100000
01000000
00100000
,
00010000
01000000
00001000
00010000
00000100
00001000
,
00000001
00000010
00001000
00000010
00000001
00000100
,
00001000
00010000
00100000
10000000
00100000
00010000
,
00001000
00100000
00001000
00100000
00010000
01000000
00100000
01000000
,
00010000
00100000
00010000
00100000
00001000
00010000
00000100
00001000
,
00000020
00000000
00000100
00000000
,
00000001
00000000
00001030
00000000
,
00020000
00000000
01000000
00000000
,
00001000
00000000
00130000
00000000
,
10000000
00000000
10000000
00100000
00000000
00000000
01000000
00000000
01000000
00010000
00000000
00000000
,
00100000
00000000
00100000
00001000
00000000
00000000
00010000
00000000
00010000
00000010
00000000
00000000
,
00000100
00000000
00000100
00000001
00000000
00000001
00001000
00000000
00001000
00000010
00000000
00000010
,
00010000
00000000
00000000
00011000
00000000
00000000
00001000
00010000
00001000
00010000
00001000
00010000
,
00001000
00000000
00000000
00000000
,
00000000
00000000
00000000
00000000
;
#NOTES:
     dance-double:
     :
     Hard:
     17:
     :
00000000
00000000
00000000
00000000
,
00000000
00000000
00000000
00000000
,
00000000
00000000
00000000
00000000
,
00000000
00000000
00000000
00000000
,
00000000
00000000
00000000
00000000
,
10000000
01000000
10000000
01000000
,
00100000
00001000
00100000
00001000
,
00010000
00010000
00001000
00001000
00010000
00000000
00001000
00000000
,
00000010
00000001
00000010
00000001
,
00002002
00000000
00000000
00003003
,
00001000
00001001
00000000
00000000
00000000
00000000
00000000
00000000
,
00000010
00000000
00000001
00000000
00000100
00000000
00000000
00000000
00000010
00000000
00000000
00000010
00000100
00000000
00001000
00000000
,
00010000
00000000
00000000
00000000
00000000
00000000
00000000
00000000
00000000
00000000
00000000
00000000
00001000
00000000
00000000
00000000
00010000
00000000
00000000
00000000
00001000
00000000
00000000
00000000
00010000
00000000
00000000
00000000
00000000
00000000
00000000
00000000
00000000
00000000
00000000
00000000
00100000
00000000
00000000
01000000
00000000
00000000
00100000
00000000
00000000
01000000
00000000
00000000
,
00100000
10000000
00010000
00000000
10000000
00100000
01000000
00000000
,
01100000
00000000
00000000
00000000
00000000
00000000
00000000
00000000
00000000
00000000
00000000
00000000
01000000
00000000
00000000
00000000
00001000
00000000
00000000
00000000
01000000
00000000
00000000
00000000
00001000
00000000
00000000
00000000
00000000
00000000
00000000
00000000
00000000
00000000
00000000
00000000
00010000
00000000
00000000
00001000
00000000
00000000
00010000
00000000
00000000
00001000
00000000
00000000
,
00010000
00000010
00001000
00000000
00000200
00000000
00000310
00000010
,
00000100
00000000
00000110
00000000
00000000
00000000
00000000
00000000
00001001
00000000
00000000
00000010
00000001
00000100
00000001
00000100
,
00000010
00001000
00000010
00000000
00010000
00001000
00100000
00000000
,
00001000
00000000
00000000
00000000
00000000
00000000
00010000
00000000
00000000
00000000
00000000
00000000
01000000
00000000
00000000
00000000
10000000
00000000
00000000
00000000
01000000
00000000
00000000
00000000
00100000
00000000
00000000
00000000
00000000
00000000
00000000
00000000
00000000
00000000
00000000
00000000
00010000
00000000
00000000
10000000
00000000
00000000
00010000
00000000
00000000
10000000
00000000
00000000
,
00010000
01000000
00010000
00000000
00200000
00000000
00301000
00010000
,
00001000
00000000
00011000
00000000
00000000
00000000
00000000
00000000
00000000
00000000
00000100
00001000
00000010
00001000
00000010
00001000
,
00000010
00000100
00000001
00000000
00000001
00001000
00000100
00000000
,
00000110
00000000
00000000
00000000
00000000
00000000
00000000
00000000
00000000
00000000
00000000
00000000
00000001
00000000
00000000
00000000
00000010
00000000
00000000
00000000
00000100
00000000
00000000
00000000
00001000
00000000
00000000
00000000
00000000
00000000
00000000
00000000
00000000
00000000
00000000
00000000
00000010
00000000
00000000
00000100
00000000
00000000
00000010
00000000
00000000
00000100
00000000
00000000
,
00000020
00000000
00000000
00000030
,
00000001
00000000
00000000
00000000
00000000
00000000
00000000
00000000
00000100
00000000
00000000
00000000
00001000
00000000
00000000
00000000
00000000
00000000
00000000
00000000
00010000
00000000
00000000
00000000
00100000
00000000
00000000
00000000
00000000
00000000
10000000
00000000
00000000
00100000
00000000
00000000
01000000
00000000
00000000
00010000
00000000
00000000
01000000
00000000
00000000
00100000
00000000
00000000
,
20000000
31000000
00020000
01030000
,
00200000
00000000
00000000
00000000
00301000
00000000
00000000
00000000
00010000
00000100
00001000
00000000
00000100
00010000
00001000
00000000
,
00000020
00000031
00000020
00000130
,
00000001
00000010
00000100
00000000
00001000
00000001
00000100
00000000
00000010
00010000
00001000
00000000
01000000
00010000
00100000
00000000
,
02000000
03010000
02000000
13000000
,
00020000
00000000
00000000
00000000
01030000
00000000
00000000
00000000
00100000
10000000
01000000
00000000
00010000
01000000
00100000
00000000
,
00001000
00010000
00001000
00000000
00010000
00000100
00001000
00000000
00000100
00000000
00000001
00000000
00000100
00000000
00000000
00000000
,
00000010
00000001
00000010
00000100
00001000
00000000
00000001
00000000
,
00000001
00000010
00000001
00000100
00000010
00001000
00000100
00000010
00000100
00010000
00000100
00001000
,
00000100
00010000
00001000
00010000
00000000
00000000
00001000
01000000
00010000
01000000
00000000
00000000
,
00100000
00000000
10000000
00000000
00100000
00000000
01000000
00000000
00010000
00000000
00100000
00000000
01000000
00000000
00000000
10000000
00000000
00000000
01000000
00000000
00000000
00000000
00000000
00000000
,
00100000
00011000
00000100
00000000
,
00001000
00000100
00000001
00000100
00001000
00000001
00000100
00000010
00001000
00000010
00000100
00001000
,
00010000
00000000
00100000
00100000
00100000
00000000
01100000
00000000
,
10000000
01000000
00100000
00010000
00100000
00010000
00001000
00000100
00000010
00000001
00000010
00000001
,
00000010
00000010
00000010
00000010
00000100
00000100
00000100
00000100
,
00000200
00000001
00000010
00001000
,
00020300
00001000
02030000
00100000
,
03020000
00001000
00100000
00001000
,
00230000
10000000
02300000
10000000
,
03002000
00100000
01000000
00010000
,
00003200
00000010
00000302
00000010
,
00000203
00001000
00000010
00000001
,
00000320
00001000
00020030
00031000
,
00100000
00010000
00100000
00010000
00000000
00010000
01000000
00100000
10000000
00100000
00000000
00100000
,
10000000
01000000
00100000
00010000
00000000
00010000
00100000
00001000
00010000
00001000
00000000
00001000
,
00000100
00000010
00000100
00000001
00000000
00000001
00000010
00000001
00001000
00000100
00000000
00000100
,
00000010
00000001
00001000
00000010
00000000
00000010
00000100
00000001
00001000
00000100
00000000
00000100
,
00000010
00000001
00000100
00000001
00000010
00000100
00001000
00000010
00000100
00001000
00010000
00000100
,
00010000
00001000
00010000
01000000
00100000
00010000
01000000
00100000
00010000
10000000
01000000
00100000
,
10000000
01000000
00010000
01000000
00100000
00010000
00100000
00001000
00010000
00000100
00001000
00000010
,
00000100
00000001
00000010
00000100
00001000
00010000
00100000
01000000
10000000
01000000
00100000
00010000
,
00001000
00000100
00000000
00000010
00000000
00000001
00000100
00000000
,
00001000
00000000
00011000
00000000
,
00010000
00100000
00000000
10000000
00000000
01000000
00010000
00000000
,
00001000
00000000
00011000
00000000
,
00001000
00000100
00000000
00000001
00000000
00000010
00001000
00000000
,
00010000
00000000
00011000
00000000
,
00001000
00000000
00000000
00000000
,
00000000
00000000
00000000
00000000
,
00022000
00000000
00000000
00000000
,
00000000
00000000
00000000
00033000
,
00100000
00000000
00010000
00000000
00100000
00000000
00000000
00000000
01000000
00000000
00000000
01000000
00100000
00000000
00010000
00000000
,
10000000
00000000
00000000
00000000
00000000
00000000
00000000
00000000
00000000
00000000
00000000
00000000
00100000
00000000
00000000
00000000
01000000
00000000
00000000
00000000
00010000
00000000
00000000
00000000
00100000
00000000
00000000
00000000
00000000
00000000
00000000
00000000
00000000
00000000
00000000
00000000
00001000
00000000
00000000
00010000
00000000
00000000
00001000
00000000
00000000
00010000
00000000
00000000
,
00002000
00000000
00013000
00000000
00000020
00000000
00001030
00001000
,
00000010
00000000
00000110
00000000
00000000
00000000
00000000
00000000
00000001
00001000
00000001
00001000
00000100
00000010
00000001
00000000
,
00000100
00001000
00010000
00000000
00001000
00010000
01000000
00000000
,
01100000
00000000
00000000
00000000
00000000
00000000
01100000
00000000
00000000
00000000
00000000
00000000
10000000
00000000
00000000
00000000
00100000
00000000
00000000
00000000
01000000
00000000
00000000
00000000
00010000
00000000
00000000
00000000
00000000
00000000
00000000
00000000
00000000
00100000
00000000
00000000
00001000
00000000
00000000
00010000
00000000
00000000
00001000
00000000
00000000
00010000
00000000
00000000
,
00001000
00010000
00000010
00000000
00000200
00000000
00001300
00000100
,
00000001
00000000
00000010
00000000
00000100
00010000
00001000
00000000
01000000
00000000
00010000
00100000
01000000
00000000
00000000
00000000
,
10000000
00100000
01100000
00010000
00100000
01100000
,
00010000
00001000
00011000
00000010
00000100
00000110
,
00000001
00000100
00000010
00000000
00001000
00000100
00000010
00000000
00000100
00010000
00001000
00000000
01000000
00010000
00100000
00000000
,
01000000
10000000
00010000
00000000
01000000
00100000
10000000
00000000
00010000
00100000
01000000
00000000
00100000
00001000
00010000
00000000
,
00000100
00001000
00000110
00000010
00000001
00000110
,
00010000
00001000
00011000
00100000
01000000
01100000
,
10000000
00010000
00100000
00000000
00010000
10000000
01000000
00000000
00100000
00001000
00010000
00000000
00000100
00001000
00000010
00000000
,
00000100
00000010
00001000
00000000
00000100
00000010
00000001
00000000
00001000
00000001
00000100
00000000
00000001
00001000
00000010
00000000
,
00000100
00000010
00001001
00000010
00000100
00001001
,
00000100
00010000
00011000
00100000
00010000
01100000
,
00001000
01000000
00010000
00000000
00100000
00010000
01000000
00000000
00100000
10000000
01000000
00000000
00100000
01000000
10000000
00000000
,
01000000
00110000
00011000
00000100
00000011
00000110
,
00001001
00000000
00000010
00000100
00001000
00000000
00011000
00000000
00001000
00100000
00010000
00000000
,
01100000
00000000
10000000
01000000
00100000
00000000
10010000
00000000
00100000
00001000
00010000
00000000
,
00000100
00001000
00000100
00001000
00000100
00000010
00000100
00000000
00000010
00000001
00000010
00000001
00001000
00000001
00001000
00000000
,
00000001
00000010
00000001
00000010
00000100
00001000
00000100
00010000
00001000
00100000
00001000
00100000
00010000
01000000
00010000
01000000
,
00100000
10000000
00000000
10000000
00000000
00010000
01000000
00010000
,
00100000
00000000
00011000
00000000
,
00000100
00000001
00000000
00000001
00000000
00001000
00000010
00001000
,
00000100
00000000
00011000
00000000
,
00010000
00100000
10000000
00100000
10000000
01000000
10000000
01000000
00100000
01000000
00100000
00001000
,
00100000
00001000
00010000
00001000
00010000
00000100
00010000
00000100
00001000
00000100
00001000
00000010
,
00001000
00000010
00000100
00000010
00000100
00000001
00000100
00000001
00000010
00000001
00000010
00000100
,
00000001
00000000
00000000
00000000
00000100
00000000
00000000
00000000
00010000
00000000
00000000
00000000
00001000
00000000
00000000
00000000
00100000
00000000
00000000
00000000
00010000
00000000
00000000
00000000
01000000
00000000
00000000
00000000
00100000
00000000
00000000
00000000
10000000
00000000
00000000
00000000
01000000
00000000
00000000
00100000
00000000
00000000
01000000
00000000
00000000
00100000
00000000
00000000
,
01000000
00000000
00000000
00000000
,
00000000
00000000
00000000
00000000
;
