
//----- song ID: lada -----//
#TITLE:DDR TAGMIX -LAST DanceR-;
#ARTIST:BEMANI Sound Team "TAG underground overlay UNLEASHED";
#BANNER:DDR TAGMIX -LAST DanceR-.png;
#BACKGROUND:DDR TAGMIX -LAST DanceR--bg.png;
#CDTITLE:./CDTitles/DDR A20 PLUS.png;
#MUSIC:DDR TAGMIX -LAST DanceR-.ogg;
#SAMPLESTART:1.765;
#SAMPLELENGTH:15;
#DISPLAYBPM:50:800;
#BPMS:0=100,9=200,71=400,257=200,265=400,329=100,361=200,393=800,401=400,403=200,436=400,482=50,484=100,486=200,490=400,494=800,502=400;
#STOPS:0=6.6,69=0.15,69.5=0.15,70=0.3,135=0.3,136=0.3,138=0.15,140=0.15,476=0.15,476.5=0.15,503=0.15,505=0.15,507=0.15,509=0.15,513=0.15,518=0.15,519=0.15,522=0.15,525=0.15;
#NOTES:
     dance-single:
     :
     Beginner:
     6:
     :
0000
0000
0000
0000
,
0000
0000
0000
0000
,
0000
1000
0000
0001
,
0000
2000
0000
3000
,
0000
0001
0000
1000
,
0000
0002
0000
0003
,
0000
0100
0000
0010
,
0000
0200
0000
0300
,
0000
0010
0000
0100
,
0000
0010
0000
0000
,
0000
1000
0000
0000
,
0000
0100
0000
0100
,
0000
1000
0000
0000
,
0000
0001
0000
0001
,
0000
0100
0000
0000
,
0000
0010
0000
0010
,
0000
1000
0000
0001
,
0000
0100
0000
0100
,
0000
0000
0000
0010
,
0000
0000
0000
0100
,
0000
0000
0000
0001
,
0000
0000
0000
2000
,
0000
0000
0000
0000
,
0000
3000
0000
0002
,
0000
0000
0000
0000
,
0000
0003
0000
1000
,
0000
0000
0000
1000
,
0000
0000
0000
0010
,
0000
0000
0000
0100
,
0000
0000
0000
0020
,
0000
0000
0000
0000
,
0000
0030
0000
0100
,
0000
0000
0000
0000
,
0000
0000
0000
0001
,
0000
0000
0000
0000
,
0000
0000
0000
0000
,
0000
0010
0000
0000
,
0000
0001
0000
0000
,
0000
1000
0000
0000
,
0000
0100
0000
0000
,
0000
0010
0000
0000
,
0000
0001
0000
0000
,
0000
0100
0000
0000
,
0000
0010
0000
0000
,
0000
1000
0000
0000
,
0000
0001
0000
0000
,
0000
0100
0000
0000
,
0000
0000
0000
0000
,
0000
0001
0000
0000
,
0000
0010
0000
0000
,
0000
0200
0000
0000
,
0000
0000
0000
0300
,
0000
1000
0000
0000
,
0000
0001
0000
0000
,
0000
2002
0000
0000
,
0000
0000
0000
3003
,
0000
0001
0000
0000
,
0000
1000
0000
0000
,
0000
2002
0000
0000
,
0000
0000
0000
3003
,
0000
0010
0000
0000
,
0000
0100
0000
0000
,
0000
0220
0000
0000
,
0000
0000
0000
0330
,
0000
0002
0000
0003
,
0000
0200
0000
0300
,
0000
0010
0000
0000
,
0000
1000
0000
0000
,
0000
0010
0000
0000
,
0000
0000
0000
0000
,
0000
0100
0000
0000
,
0000
0001
0000
0000
,
0000
0100
0000
0000
,
0000
0000
0000
0000
,
0000
0001
0000
0000
,
0000
0010
0000
0000
,
0000
0001
0000
0000
,
0000
0010
0000
0000
,
0000
0100
0000
0000
,
0000
0000
0000
0000
,
0000
0010
0000
0000
,
0000
0000
0000
0000
,
0000
1000
0000
0100
,
0000
0010
0000
0001
,
0000
0100
0010
0100
,
0000
0001
1000
0001
,
0000
0100
0000
0001
,
0000
0010
0000
0100
,
0000
1000
0001
1000
,
0001
0100
0010
0100
,
0010
0110
0000
0000
,
0000
0000
0000
0000
,
0000
1001
0000
0000
,
0000
1000
0000
0010
,
0000
0110
0000
0000
,
0000
0100
0000
0001
,
0000
1001
0000
0000
,
0000
0100
0000
0220
,
0000
0000
0000
0330
0000
0000
0000
0000
0000
0000
0000
0000
0000
0000
0000
0000
,
0000
0000
0000
0000
,
0000
0000
0000
0000
,
0001
0000
1000
0000
,
0001
0000
0010
0000
,
0001
0000
0010
0000
,
0100
0000
1000
0000
,
0010
0000
0100
0000
,
0020
0000
0030
0000
,
2000
0000
3000
0000
,
0002
0000
0003
0000
,
0100
0000
0000
0000
,
0100
0000
0000
0000
,
0010
0000
0000
0000
,
1000
0000
0000
0000
,
0100
0000
0000
0000
,
0100
0000
0000
0000
,
0010
0000
0000
0000
,
0001
0000
0000
0000
,
1000
0000
0000
0000
,
0001
0000
0000
0000
,
1000
0000
0000
0000
,
0000
0000
0000
0000
0000
0000
0020
0030
,
0200
0300
0002
0000
,
0003
0000
2000
0000
,
0000
0000
0000
0000
,
0000
0000
0000
0000
,
3000
0000
0010
0000
,
0000
0000
0000
0000
,
0000
0000
0100
0000
,
0000
0000
1000
0000
,
0000
0000
0000
0001
,
0000
0000
0000
0000
,
0000
1000
0000
0000
,
0010
0000
0000
0000
,
0010
0000
0000
0000
,
0000
0200
0000
0000
,
0000
0000
0000
0000
,
0000
0000
0000
0000
,
0300
0000
0000
0000
,
0000
0000
0000
0000
;
#NOTES:
     dance-single:
     :
     Easy:
     11:
     :
0000
0000
0000
0000
,
0000
0000
0000
0000
,
0000
0001
0010
1000
,
0100
0102
0000
0100
,
0103
1000
0010
0001
,
0100
2100
0000
0100
,
3100
0010
1000
0100
,
0001
1002
0000
1000
,
1003
0001
0010
1000
,
0100
0000
0010
0000
0000
0100
0000
0000
,
0010
0000
0010
0000
0000
1000
0000
0000
,
0100
0010
0001
1000
,
0100
0000
0010
0000
0000
0001
0000
0000
,
0100
0010
1000
0001
,
0100
0000
0001
0000
0000
0010
0000
0000
,
0100
1000
0001
0100
,
0010
1000
0010
0100
,
0001
0000
0000
0000
0000
0000
0000
0000
0000
0000
0000
0000
0000
0000
0000
0000
2000
3000
0000
0000
0000
0000
0000
0000
2000
3000
0000
0000
0000
0000
0000
0000
2000
3000
0000
0000
0000
0000
0000
0000
0000
0000
0000
0000
0000
0000
0000
0000
1000
0000
0000
0000
0000
0000
0000
0000
0000
0000
0000
0000
0000
0000
0000
0000
,
0000
0000
0000
1010
,
0000
0000
0000
0100
,
0000
0001
0000
0101
,
0000
0101
0000
2000
,
0000
0000
0000
0010
,
0000
3001
0000
0200
,
0000
0000
0000
0001
,
0000
0310
0000
1000
,
0000
0100
0000
0001
,
0000
0100
0000
1000
,
0000
0010
0000
0100
,
0000
0001
0000
0200
,
0000
0000
0000
0001
,
0000
0301
0000
0010
,
0000
0001
0000
0100
,
0000
0000
0000
0000
0000
0000
0000
0000
0000
0000
0000
0000
0000
0000
0000
0000
1000
0000
0000
0000
0000
0000
0000
0000
0000
0000
0000
0000
0000
0000
0000
0000
0000
0000
0000
0000
0000
0000
0000
0000
0000
0000
0000
0000
0000
0000
0000
0000
0200
0300
0000
0000
0000
0000
0000
0000
0000
0000
0000
0000
0000
0000
0000
0000
,
0000
0000
0000
0000
,
0000
0000
0000
1001
,
0000
0001
0000
0001
,
0000
1000
0000
1000
,
0000
0001
0000
0100
,
0000
0010
0000
1000
,
0000
0010
0000
0100
,
0000
0001
0000
0100
,
0000
1000
0000
0100
,
0000
0001
0000
0001
,
0000
1000
0000
1000
,
0000
0001
0000
0001
,
0000
0100
0000
0010
,
0000
0100
0000
0000
,
0000
0010
0000
0100
,
0000
0001
0000
1000
,
0000
2000
0000
3000
,
0000
0002
0000
0003
,
0000
0010
0000
0100
,
0000
0001
0000
0100
,
0000
1000
0000
0100
,
0000
2002
0000
3003
,
0000
0010
0000
0100
,
0000
1000
0000
0100
,
0000
0001
0000
0100
,
0000
2002
0000
3003
,
0000
0010
0000
1000
,
0000
0010
0000
0100
,
0000
0001
0000
0100
,
0000
0220
0000
0000
,
0330
2000
3000
0002
,
0003
0100
0001
2002
,
3003
0010
0000
1000
,
0000
0100
0000
0000
,
0000
0010
0000
0001
,
0000
0100
0000
0000
,
0000
0010
0000
1000
,
0000
0001
0000
0000
,
0000
0010
0000
0001
,
0000
1000
0000
0000
,
0000
0001
0000
0001
,
0000
0100
0000
0100
,
0000
1000
0000
1000
,
0000
0010
0000
0010
,
0000
0001
0000
0000
,
0000
1000
0000
0000
,
0000
0010
0000
0000
,
0000
1001
0000
0000
,
0000
0000
0000
0000
0010
1000
0000
1000
0000
0100
0000
0100
0000
0010
0000
0010
,
0000
0100
0000
0100
0010
0001
0000
0001
0000
0100
0000
0100
0000
0010
0000
0010
,
1000
0001
1000
0001
1000
0100
0000
0100
0000
1000
0000
0001
1000
0001
0000
1000
,
0000
0001
0000
1000
0010
0100
0000
0100
0000
0001
0000
0001
0000
0010
0000
0010
,
0000
0100
0000
0100
1000
1000
0000
0001
0000
1000
0000
0001
0100
0100
0000
0010
,
0000
0100
0000
0010
1000
1000
0000
0100
0000
0010
0000
0001
0010
0010
0000
0001
,
0000
1000
0000
0001
1001
0000
0010
0000
1000
0000
0100
0000
1001
0000
0010
0000
,
0001
0000
0100
0000
0010
0100
0010
0100
0001
1000
0001
1000
0010
0000
1010
0000
,
0101
0000
1001
0000
0001
0000
0000
0001
0000
0000
0001
0000
0100
0000
0000
0100
,
0000
0100
0000
0000
0000
0000
0000
0000
,
0000
0000
0000
0000
0100
0000
0000
0100
0000
0000
0100
0000
0001
0000
0000
0100
,
0000
0000
1000
0000
0100
0000
0000
0100
0000
0000
0100
0000
1000
0000
0000
0100
,
0000
0000
0001
0000
0001
0000
0000
0100
0000
0000
1000
0000
1000
0000
0000
0100
,
0000
0000
0001
0000
0001
0000
0000
0010
0000
0000
1000
0000
1000
0000
0000
0010
,
0000
0000
0001
0000
0100
0000
0000
0100
0000
0000
0100
0000
1000
0000
0000
1000
,
0000
0000
1000
0000
0010
0000
0000
0010
0000
0000
0010
0000
0220
0000
0000
0000
,
0000
0000
0000
0330
0000
0000
0000
0000
0000
0000
0000
0000
0000
0000
0000
0000
,
0000
0000
0000
0000
,
0000
0000
0000
0000
,
1000
0100
0001
0100
,
1000
0001
0010
0001
,
1000
1000
0100
1000
,
0001
1000
0100
0000
,
1000
0010
0001
0010
,
2000
0000
0100
3100
,
0002
0000
1000
1003
,
0001
0010
0100
1001
,
1000
0000
0001
0000
,
0100
0000
0010
0000
,
1000
0010
1000
0000
,
0001
0010
0001
0000
,
0100
0000
0001
0000
,
0010
0100
0010
0000
,
0100
0000
1000
0000
,
0010
0100
0010
0000
,
1000
0000
0001
0000
,
0100
0000
0001
0000
,
2000
3000
0000
0000
0000
0000
0000
0000
0020
0030
0000
0000
0000
0000
0000
0000
2002
0000
0000
0000
0000
0000
0000
0000
0000
0000
0000
0000
0000
0000
0000
0000
0000
0000
0000
0000
0000
0000
0000
0000
0000
0000
0000
0000
0000
0000
0000
0000
0000
0000
0000
0000
0000
0000
0000
0000
0000
0000
0000
0000
0000
0000
0000
0000
,
0000
0000
0000
0000
3003
0000
0202
0303
,
2020
0000
0000
3030
0022
0000
0000
0000
,
0000
0033
2200
0000
,
0000
0000
0000
0000
,
0000
0000
0000
0000
,
0000
0000
0000
0000
0000
0000
0000
0000
0000
0000
0000
0000
0000
0000
0000
0000
3300
0000
0000
0000
0000
0000
0000
0000
0000
0000
0000
0000
0000
0000
0000
0000
0001
0000
0000
0000
0000
0000
0000
0000
0000
0000
0000
0000
0000
0000
0000
0000
0020
0030
0000
0000
0000
0000
0000
0000
0000
0000
0000
0000
0000
0000
0000
0000
,
1000
0000
0000
0000
0000
0000
0000
0000
0000
0000
0000
0000
0000
0000
0000
0000
0020
0030
0000
0000
0000
0000
0000
0000
0000
0000
0000
0000
0000
0000
0000
0000
0001
0000
0000
0000
0000
0000
0000
0000
0000
0000
0000
0000
0000
0000
0000
0000
0020
0030
0000
0000
0000
0000
0000
0000
0000
0000
0000
0000
0000
0000
0000
0000
,
1000
0000
0000
0000
0000
0000
0000
0000
0000
0000
0000
0000
0000
0000
0000
0000
0020
0030
0000
0000
0000
0000
0000
0000
0000
0000
0000
0000
0000
0000
0000
0000
0001
0000
0000
0000
0000
0000
0000
0000
0000
0000
0000
0000
0000
0000
0000
0000
1000
0000
0000
0000
0000
0000
0000
0000
0000
0000
0000
0000
0000
0000
0000
0000
,
0100
0000
0000
0000
0000
0000
0000
0000
0000
0000
0000
0000
0000
0000
0000
0000
0020
0030
0000
0000
0000
0000
0000
0000
0000
0000
0000
0000
0000
0000
0000
0000
0001
0000
0000
0000
0000
0000
0000
0000
0000
0000
0000
0000
0000
0000
0000
0000
0010
0000
0000
0000
0000
0000
0000
0000
0000
0000
0000
0000
0000
0000
0000
0000
,
0100
0000
0000
0000
0000
0000
0000
0000
0000
0000
0000
0000
0000
0000
0000
0000
1000
0000
0000
0000
0000
0000
0000
0000
0000
0000
0000
0000
0000
0000
0000
0000
0002
0003
0000
0000
0000
0000
0000
0000
0000
0000
0000
0000
0000
0000
0000
0000
0220
0330
0000
0000
0000
0000
0000
0000
0000
0000
0000
0000
0000
0000
0000
0000
,
0000
0000
0000
0000
0000
0000
0000
0000
0000
0000
0000
0000
0000
0000
0000
0000
0000
0000
0000
0000
0000
0000
0000
0000
0000
0000
0000
0000
0000
0000
0000
0000
2200
3300
0000
0000
0000
0000
0000
0000
0000
0000
0000
0000
0000
0000
0000
0000
0000
0000
0000
0000
0000
0000
0000
0000
0000
0000
0000
0000
0000
0000
0000
0000
,
0000
0000
0000
0000
0000
0000
0000
0000
0000
0000
0000
0000
0000
0000
0000
0000
0202
0303
0000
0000
0000
0000
0000
0000
0000
0000
0000
0000
0000
0000
0000
0000
0000
0000
0000
0000
0000
0000
0000
0000
0000
0000
0000
0000
0000
0000
0000
0000
1000
0000
0000
0000
0000
0000
0000
0000
0000
0000
0000
0000
0000
0000
0000
0000
,
0001
0100
0010
1000
,
0001
0100
0010
1000
,
0001
0200
0000
0000
,
0000
0000
0000
0000
,
0000
0000
0000
0000
,
0300
0000
0000
0000
,
0000
0000
0000
0000
;
#NOTES:
     dance-single:
     :
     Medium:
     14:
     :
0000
0000
0000
0000
,
0000
0000
0000
0000
,
0000
0000
1000
0100
1000
0000
0001
0010
,
0100
0010
0002
0000
0000
0000
1000
0000
,
1003
0000
0001
0100
0010
0000
0001
1000
,
0100
0010
2000
0000
0100
0000
0010
0000
,
3010
0000
0001
0100
0001
0000
1000
0010
,
0100
0010
2000
0000
0000
0000
0001
0000
,
3001
0000
1000
0100
0001
0000
0001
0100
,
1000
0010
0100
0000
0001
0010
0000
0001
,
0100
0000
1000
0000
0001
0100
0000
1000
,
0000
0001
1000
0100
0001
0000
0011
0000
,
1001
0000
1100
0000
1000
0100
0000
0001
,
0000
1000
0001
0100
1000
0000
1010
0000
,
1001
0000
0011
0000
1000
0001
0000
0100
,
0000
0010
0001
1000
0100
0000
0101
0000
,
0110
0000
1100
0000
0001
0010
0000
1000
,
0000
0100
0010
0001
0100
0000
1000
0000
,
0000
0100
0000
0010
,
0001
1000
0010
1000
,
0000
0010
0000
0011
,
0000
1010
0000
2200
,
0000
3300
0000
0100
,
0010
1000
0000
0100
,
0000
0010
1000
0100
,
0001
0010
0000
0100
,
0000
0001
0010
1000
,
0000
0100
0010
1000
,
0000
0010
0001
0100
,
0000
0010
1000
0202
,
0000
0303
0000
0000
,
0000
1000
0001
0010
,
0000
1000
0000
0010
,
0000
0000
0000
0000
0000
0000
0000
0000
0000
0000
0000
0000
0000
0000
0000
0000
0100
0000
0000
0000
0000
0000
0000
0000
0000
0000
0000
0000
0000
0000
0000
0000
0001
0000
0000
0000
0000
0000
0000
0000
0000
0000
0000
0000
0000
0000
0000
0000
0220
0330
0000
0000
0000
0000
0000
0000
0000
0000
0000
0000
0000
0000
0000
0000
,
2200
3300
0000
0000
0000
0000
0000
0000
0000
0000
0000
0000
0000
0000
0000
0000
0001
0000
0000
0000
0000
0000
0000
0000
0000
0000
0000
0000
0000
0000
0000
0000
0200
0300
0000
0000
0000
0000
0000
0000
0000
0000
0000
0000
0000
0000
0000
0000
0100
0000
0000
0000
0000
0000
0000
0000
0000
0000
0000
0000
0000
0000
0000
0000
,
0020
0030
0000
0000
0000
0000
0000
0000
0000
0000
0000
0000
0000
0000
0000
0000
1000
0000
0000
0000
0000
0000
0000
0000
0000
0000
0000
0000
0000
0000
0000
0000
0000
0000
0000
0000
0000
0000
0000
0000
0000
0000
0000
0000
0000
0000
0000
0000
1001
0000
0000
0000
0000
0000
0000
0000
0000
0000
0000
0000
0000
0000
0000
0000
,
0000
1000
0100
0010
,
0100
1000
0001
0010
,
0001
0010
0001
0000
1000
0000
0100
0000
,
0010
0100
1000
0001
,
0000
1000
0100
0001
,
0100
1000
0100
0001
,
0000
0100
0010
0001
,
0100
0010
0100
0001
,
0010
0001
0100
0010
,
0100
0001
1000
0010
,
1000
0010
1000
0000
0001
0000
0100
0000
,
0001
0010
0001
1000
,
0000
0001
0100
1000
,
0100
0001
0000
1000
,
0001
0000
0010
0001
0010
0000
0100
0000
,
1000
0001
0001
1000
,
1000
0001
0010
1000
,
0002
0000
0103
1000
,
0002
0000
1003
0100
,
0000
0202
0000
0303
,
0000
1000
0010
0001
,
2000
0000
3100
0001
,
2000
0000
3001
0100
,
0000
2020
0000
3030
,
0000
0001
0100
1000
,
0002
0000
0013
1000
,
0002
0000
1003
0010
,
1000
2002
0000
3003
,
0000
0000
0010
0000
0000
1000
0001
0000
,
0000
0000
0010
0100
0000
0100
0010
0000
,
1001
0010
0100
0001
,
1000
0000
1000
0001
,
0001
0100
0001
0010
,
0100
1000
0100
0010
,
0001
0100
1000
0010
,
0001
0000
1010
0100
,
0001
0000
0011
0100
,
1000
0001
0010
0010
,
0001
0000
0010
0000
0000
0010
0100
0000
,
0000
0100
1000
0000
0000
1000
0010
0000
,
0000
0010
1000
0000
0001
0000
0010
0000
,
0001
0100
0010
1000
,
0001
0100
1100
0000
,
1000
1001
0000
0010
,
0110
0000
0100
0010
,
1000
2002
0000
3003
,
0000
0000
0000
0000
1002
1000
0000
0100
0000
0010
0003
0100
0020
1000
0000
0100
,
0000
1000
1030
0000
0200
0010
0000
0001
0000
0010
0300
0001
2000
0100
0000
3001
,
0100
0010
0100
0010
0200
0000
0010
0000
0000
0010
0310
0000
0002
1000
0000
0100
,
0000
0010
0013
0000
0200
0000
1000
0000
0010
0000
0302
0000
1000
0000
0023
0000
,
0100
0000
2030
0000
3001
0000
0010
0100
0010
0000
1000
0100
0010
0100
0001
0000
,
0010
0100
0001
0000
1000
0000
0010
1000
0100
0000
1000
0001
0100
1000
0010
0000
,
0100
0010
1000
0000
0001
0100
0010
1000
0001
0100
0010
1000
0001
0100
1000
0001
,
0100
0010
0001
0010
0100
0001
1000
0100
0001
0010
0100
1000
1100
0000
0101
0000
,
1100
0000
0101
0000
0001
0000
0000
0010
0000
0000
0011
0000
0100
0000
0000
1000
,
0000
1100
0000
0000
0000
0000
0000
0000
,
0000
0000
0000
0000
0010
0000
0000
1000
0000
0000
1010
0000
0001
0000
0000
0010
,
0000
0000
0011
0000
0100
0000
0000
1000
0000
0000
1100
0000
0001
0000
0000
0100
,
0000
0000
0101
0000
1100
0000
0000
1100
0000
0000
1100
0000
0011
0000
0000
0011
,
0000
0000
0011
0000
0101
0000
0000
0101
0000
0000
0101
0000
1010
0000
0000
1010
,
0000
0000
1010
0000
1100
0000
0000
1100
0000
0000
1100
0000
0101
0000
0000
0101
,
0000
0000
0101
0000
0110
0000
0000
0110
0000
0000
0110
0000
2002
0000
0000
0000
,
3003
0220
0000
0000
,
0000
0000
0000
0000
,
0000
0000
0000
0330
,
0010
1000
0001
0000
0001
0000
1100
0000
,
1000
0010
0100
0001
0020
0000
0130
0000
,
1000
0100
0000
0100
0001
0000
0100
0000
,
1000
0001
0000
0110
0000
0000
0011
0000
,
1000
0000
0000
0001
0000
0000
0010
0000
0001
0000
0000
1000
0000
0000
0100
0000
,
1000
0000
0100
1000
0001
0100
0010
0000
,
1000
0100
0010
0000
1001
0000
1000
0002
,
0000
0000
0013
1001
,
0100
0010
0001
0010
,
0100
0000
0010
0000
1000
0010
1000
0000
,
0001
1000
0010
0000
,
0001
1000
0010
0000
,
0100
0000
0000
0001
0000
0000
0010
0000
,
0000
0001
0000
0000
1000
0000
0100
0000
,
0010
0100
1100
0000
,
0010
0100
0101
0000
,
1000
0010
0001
0010
,
0100
0000
1000
0000
0010
0100
0010
0100
,
0002
0003
0000
0000
0000
0000
0000
0000
2020
3030
0000
0000
0000
0000
0000
0000
0202
0000
0000
0000
0000
0000
0000
0000
0000
0000
0000
0000
0000
0000
0000
0000
0000
0000
0000
0000
0000
0000
0000
0000
0000
0000
0000
0000
0000
0000
0000
0000
0000
0000
0000
0000
0000
0000
0000
0000
0000
0000
0000
0000
0000
0000
0000
0000
,
0000
0000
0000
0000
0303
0000
2200
3300
,
0022
0033
2020
0000
,
0000
3030
0200
0000
,
0000
0000
0002
0000
,
0000
0000
0000
0000
,
0000
0000
0000
0000
0000
0000
0000
0000
0000
0000
0000
0000
0000
0000
0000
0000
0303
0000
0000
0000
0000
0000
0000
0000
0000
0000
0000
0000
0000
0000
0000
0000
1000
0000
0000
0000
0000
0000
0000
0000
0000
0000
0000
0000
0000
0000
0000
0000
2200
3300
0000
0000
0000
0000
0000
0000
0000
0000
0000
0000
0000
0000
0000
0000
,
0001
0000
0000
0000
0000
0000
0000
0000
0000
0000
0000
0000
0000
0000
0000
0000
0022
0033
0000
0000
0000
0000
0000
0000
0000
0000
0000
0000
0000
0000
0000
0000
1000
0000
0000
0000
0000
0000
0000
0000
0000
0000
0000
0000
0000
0000
0000
0000
2020
3030
0000
0000
0000
0000
0000
0000
0000
0000
0000
0000
0000
0000
0000
0000
,
0001
0000
0000
0000
0000
0000
0000
0000
0000
0000
0000
0000
0000
0000
0000
0000
0202
0303
0000
0000
0000
0000
0000
0000
0000
0000
0000
0000
0000
0000
0000
0000
1000
0000
0000
0000
0000
0000
0000
0000
0000
0000
0000
0000
0000
0000
0000
0000
0001
0000
0000
0000
0000
0000
0000
0000
0000
0000
0000
0000
0000
0000
0000
0000
,
0100
0000
0000
0000
0000
0000
0000
0000
0000
0000
0000
0000
0000
0000
0000
0000
0020
0030
0000
0000
0000
0000
0000
0000
0000
0000
0000
0000
0000
0000
0000
0000
1000
0000
0000
0000
0000
0000
0000
0000
0001
0000
0000
0000
0000
0000
0000
0000
1000
0000
0000
0000
0000
0000
0000
0000
0000
0000
0000
0000
0000
0000
0000
0000
,
0100
0000
0000
0000
0000
0000
0000
0000
0000
0000
0000
0000
0000
0000
0000
0000
0010
0000
0000
0000
0000
0000
0000
0000
0000
0000
0000
0000
0000
0000
0000
0000
0002
0003
0000
0000
0000
0000
0000
0000
0000
0000
0000
0000
0000
0000
0000
0000
2200
3300
0000
0000
0000
0000
0000
0000
0000
0000
0000
0000
0000
0000
0000
0000
,
0001
0000
0000
0000
0000
0000
0000
0000
0000
0000
0000
0000
0000
0000
0000
0000
0100
0000
0000
0000
0000
0000
0000
0000
0000
0000
0000
0000
0000
0000
0000
0000
0202
0303
0000
0000
0000
0000
0000
0000
0000
0000
0000
0000
0000
0000
0000
0000
1000
0000
0000
0000
0000
0000
0000
0000
0000
0000
0000
0000
0000
0000
0000
0000
,
0010
0000
0000
0000
0000
0000
0000
0000
0000
0000
0000
0000
0000
0000
0000
0000
2020
3030
0000
0000
0000
0000
0000
0000
0000
0000
0000
0000
0000
0000
0000
0000
0001
0000
0000
0000
0000
0000
0000
0000
0000
0000
0000
0000
0000
0000
0000
0000
0010
0000
0000
0000
0000
0000
0000
0000
0000
0000
0000
0000
0000
0000
0000
0000
,
1000
0010
0001
1000
,
0100
0001
1000
0010
,
0100
2002
0000
0000
,
0000
0000
0000
0000
,
0000
0000
0000
0000
,
3003
0000
0000
0000
,
0000
0000
0000
0000
;
#NOTES:
     dance-single:
     :
     Hard:
     17:
     :
0000
0000
0000
0000
,
0000
0000
2002
0000
0000
0000
0000
3003
,
0000
0000
0010
0001
0010
0001
1000
0100
,
0001
0100
2000
0000
0000
0000
0010
0000
,
3100
0000
0001
0100
0001
0100
0010
0100
,
0001
0010
0100
0000
1000
0000
1001
0000
,
1001
0000
0010
1000
0010
1000
0001
0100
,
1000
0100
0002
0000
0000
0000
0010
0000
,
0103
0000
0001
0100
1000
0001
1000
0100
,
0001
0010
0100
0000
1000
0010
0000
1000
,
0100
0000
0001
0100
0101
0000
1000
0100
,
1100
0000
0001
0100
1000
0100
0001
0100
,
0110
0000
1000
0100
1100
0000
0001
0100
,
0101
0000
1000
0100
0001
0100
1000
0010
,
0100
0001
0012
0000
0103
0000
2010
0000
,
3100
1001
0110
1001
,
0100
0000
0001
1000
0001
0000
2002
0000
,
3003
0000
1010
0101
1001
0000
1000
0000
,
0001
1000
0000
0001
0010
0000
0001
0000
,
1000
0001
0000
0100
0001
0000
1000
0000
,
0001
0100
0000
0001
0010
0000
0001
0000
,
1000
0100
1000
0000
0001
0000
2002
0000
,
3003
0000
1000
0010
,
1000
0001
0100
1000
,
0100
0001
0010
0001
,
0100
0010
1000
0001
,
1000
0001
0000
1000
0100
0000
1000
0000
,
0001
1000
0000
0010
1000
0000
0001
0000
,
1000
0010
0000
1000
0100
0000
1000
0000
,
0001
0010
0001
0000
1000
0000
2002
0000
,
0000
0000
0000
3003
,
0000
0000
1000
0000
0001
0000
1000
0001
,
0010
0000
0001
1000
0010
0000
0100
0000
,
0000
0010
0000
0000
0100
0000
0101
0000
,
1010
1000
0001
0010
,
0100
1100
0000
0101
,
0000
0000
1001
0000
1000
0010
0000
1000
,
0100
0000
0100
0010
0000
0001
0010
0000
,
0100
0000
1000
0000
0001
0100
0000
0001
,
0020
0000
0100
0130
,
1000
0000
0001
0000
0100
0001
0000
0010
,
0001
0000
0001
1000
0000
0100
1000
0000
,
0010
0000
0100
0000
0001
0010
0000
0001
,
0200
0000
0010
0310
,
1000
0000
1000
0000
0010
1000
0000
0100
,
1000
0000
1000
0010
0000
0100
0010
0000
,
1000
0000
0001
0000
0010
0001
0000
0100
,
0020
0000
0100
0130
,
0001
0000
0010
0000
0100
1000
0000
0001
,
0100
0000
0100
0001
0000
1000
0010
0000
,
0100
0000
0001
0000
1000
0001
0000
0100
,
0020
1030
2000
0100
,
3100
0000
1000
0000
0010
0100
0010
0000
,
1000
0000
0001
0000
0010
0100
0010
0000
,
0001
0000
1000
0000
0100
0010
0100
0000
,
1000
0002
0000
0000
,
0003
0000
0001
0000
0100
0010
0100
0000
,
0001
0000
1000
0000
0100
0010
0100
0000
,
1000
0000
0001
0000
0010
0100
0010
0000
,
0001
2000
0000
0000
,
3000
0000
0001
0000
0010
1000
0010
0000
,
0100
0000
1000
0000
0010
0001
0010
0000
,
0100
0000
0001
0000
0010
1000
0010
0000
,
0100
0020
0000
0000
,
0030
0000
0000
0000
0010
0000
0000
0000
0000
0000
0001
0000
1000
0000
0000
0001
,
0000
1000
0100
0000
0000
0010
0100
0000
,
0110
0010
0001
1000
,
0010
0000
0100
0001
0100
0000
0010
0100
,
0010
1000
0001
0100
,
0000
0000
0001
0100
0010
0000
1000
0100
,
0010
0100
0100
0010
,
0100
0000
1010
0001
,
0010
0000
1100
0001
,
1000
0000
0001
0100
0010
0000
1000
0100
,
0010
0001
0001
0100
,
0100
0010
0010
1000
,
1000
0000
0001
0010
0001
0000
0010
0100
,
0010
0000
0100
1000
0100
0000
0001
1000
,
0001
0010
0011
0000
,
0001
1001
0000
0100
,
0110
0000
0010
0100
,
0001
2002
0000
3003
,
0000
0000
0000
0000
0001
0010
1000
0000
0100
0000
0001
0000
1000
0100
0001
0000
,
0100
1000
0010
0000
0010
0001
1000
0100
0010
0001
0010
1000
0010
0001
0100
0001
,
0010
1000
0001
0010
0100
1000
0010
0001
0010
1000
0100
0001
0100
1000
0100
0010
,
0001
0100
0010
0000
0001
0100
1000
0010
0001
0000
1010
0000
0001
0010
1000
0010
,
0100
0000
1001
0000
0010
0010
0010
0010
0010
0010
0010
0010
0010
0010
0010
0010
,
0010
0010
0000
0000
1000
0100
1000
0100
0001
0100
0001
0100
0010
0001
1000
0100
,
0000
1000
0010
0100
0100
1000
0100
0010
0001
0010
0100
0001
0100
1000
0010
0100
,
0001
1000
0100
0001
0010
1000
0100
0010
0001
0100
1000
0100
0001
0010
0100
1000
,
0001
0010
1000
0010
0100
0000
0000
0100
0000
0000
0100
0000
0010
0000
0000
0010
,
0000
0010
0000
0000
0000
0000
0000
0000
,
0000
0000
0000
0000
1010
0000
0000
0101
0000
0000
1100
0000
0011
0000
0000
1100
,
0000
0000
0101
0000
1010
0000
0000
1001
0000
0000
1100
0000
0011
0000
0000
1001
,
0000
0000
0101
0000
1010
0000
0000
0011
0000
0000
0101
0000
1100
0000
0000
0101
,
0000
0000
0011
0000
1010
0000
0000
0101
0000
0000
1100
0000
0011
0000
0000
1100
,
0000
0000
0101
0000
0011
0000
0000
1010
0000
0000
1100
0000
0101
0000
0000
1100
,
0000
0000
1010
0000
0011
0000
0000
1100
0000
0000
0101
0000
2002
0000
0000
0000
,
0000
3003
0000
0000
,
0000
0000
0000
0000
,
0000
0000
0000
0000
,
0100
0000
0000
0000
0001
0000
0001
0000
1000
0100
1000
0000
0001
0000
1000
0000
,
0100
0000
0000
1000
0000
0000
0001
0000
1000
0000
0001
0100
0010
0100
0000
0000
,
0001
0000
0000
0100
0000
0000
1000
0000
0100
0000
0000
0000
0001
0010
0001
0000
,
0100
0000
0010
0000
0001
0000
1000
0000
0100
1000
0000
0001
0000
1000
0100
0000
,
1000
0000
0100
0000
0010
0000
0001
0000
1000
0000
0000
0100
0000
0000
0001
0000
,
0100
1000
0010
0100
0001
1000
0100
1000
,
0001
1000
0100
1000
0010
0100
0001
1000
,
0001
0000
0010
0000
0100
0000
1000
0001
1000
0000
0100
0000
0010
0000
0001
0000
,
0001
0000
1000
0100
1000
0100
0010
0000
,
0100
0010
0100
0010
0001
0000
1000
0100
,
0010
0000
0001
0100
0010
0100
0010
0000
,
1000
0001
1000
0001
0010
0000
0001
1000
,
0100
0000
1000
0001
1000
0001
0100
0000
,
0001
1000
0001
1000
0010
0000
1000
0001
,
0010
0000
0100
0000
0010
0000
0001
1000
,
0100
0010
0001
1000
,
0001
0100
0010
1000
,
0001
0000
0100
0000
0001
0010
0100
1000
,
0100
0010
0220
0000
0000
0000
0000
0000
,
0000
0000
0330
2000
,
3002
0000
0000
0000
0000
0000
1003
0001
1000
0001
1000
0001
,
1000
0000
0001
0000
1000
0000
0001
0000
1000
0000
0001
0000
1000
0000
0000
0001
0000
0000
1000
0000
0000
0001
0000
0000
,
1000
0001
1000
0001
0010
0000
0100
0000
,
0010
0100
0010
0100
,
0010
0100
0010
0011
,
0100
1100
0001
1001
,
0100
0110
0001
0100
,
0010
1010
0001
0010
,
1000
0010
0001
1001
,
1000
0100
0010
0000
0110
0000
0001
0100
,
0010
0000
0110
0000
1000
0100
0010
0000
,
0001
0010
1000
0010
,
0001
1000
0100
0001
,
0100
2200
0000
0000
,
0000
0000
0000
0000
,
0000
0000
0000
0000
,
3300
0000
0000
0000
,
0000
0000
0000
0000
;
#NOTES:
     dance-double:
     :
     Easy:
     11:
     :
00000000
00000000
00000000
00000000
,
00000000
00000000
00000000
00000000
,
00000000
00100000
00001000
00010000
,
01000000
20000000
00000000
00100000
,
30100000
00010000
00001000
00000010
,
00001000
00000002
00000000
00000010
,
00000013
00000100
00001000
00010000
,
00000010
00002000
00000000
00000001
,
00003001
00000100
00001000
00010000
,
00100000
00000000
10000000
00000000
00000000
01000000
00000000
00000000
,
10000000
10000000
00100000
00010000
,
00001000
00000110
00001001
00000110
,
00000000
00000001
00000100
00001000
,
00010000
01100000
10010000
01100000
,
00000000
10010000
00000000
00011000
,
00000000
00000110
00011000
01100000
,
00001000
00010000
00001000
00020000
,
00030000
00000100
00000001
00001000
00000100
00000000
00010000
00000000
,
00000000
00000000
00000000
00110000
,
00000000
00000000
00000000
00010000
,
00000000
00001000
00000000
00001010
,
00000000
00001010
00000000
00020000
,
00000000
00000000
00000000
00100000
,
00000000
10030000
00000000
00020000
,
00000000
00000000
00000000
00031000
,
00000000
00000010
00000000
00000001
,
00000000
00000100
00000000
00001000
,
00000000
00010000
00000000
01000000
,
00000000
10000000
00000000
01000000
,
00000000
00010000
00000000
00002000
,
00000000
00000000
00000000
00000100
,
00000000
00003100
00000000
00000001
,
00000000
00000100
00000000
00001000
,
00000000
00010000
00000000
00200000
,
00000000
00000000
00000000
00000000
,
00310000
00010000
00000000
00010000
,
00000000
10000000
00000000
01000000
,
00000000
00010000
00000000
00000000
,
00000000
00001000
00000000
00010000
,
00000000
00001000
00000000
00001000
,
00000000
00000010
00000000
00000001
,
00000000
00000010
00000000
00000000
,
00000000
00000100
00000000
00001000
,
00000000
00001001
00000000
00000000
,
00000000
00000001
00000000
00000001
,
00000000
00000100
00000000
00000000
,
00000000
00001000
00000000
00010000
,
00000000
00001000
00000000
00001000
,
00000000
00010000
00000000
00100000
,
00000000
00100000
00000000
10000000
,
00000000
10000000
00000000
00100000
,
00000000
00001000
00000000
00000100
,
00000000
00000001
00000000
00000100
,
00000000
00001000
00000000
00010000
,
00000000
00001000
00000000
00010000
,
00000000
01000000
00000000
00000000
,
00000000
00100000
00000000
00010000
,
00000000
01000000
00000000
00100000
,
00000000
10000000
00000000
01000000
,
00000000
00100000
00000000
00000000
,
00000000
10000000
00000000
01000000
,
00000000
00010000
00000000
00001000
,
00000000
00010000
00000000
00001000
,
00000000
00000100
00000000
00000000
,
00000000
00000002
00000003
00002000
,
00003000
00000010
00010000
00022000
,
00033000
00100000
00000000
00010000
,
00000000
01000000
00000000
00000000
,
00000000
00100000
00000000
10000000
,
00000000
01000000
00000000
00000000
,
00000000
10000000
00000000
01000000
,
00000000
00010000
00000000
00010000
,
00000000
00001000
00000000
00000010
,
00000000
00000001
00000000
00000000
,
00000000
00000100
00000000
00000000
,
00000000
00000010
00000000
00000000
,
00000000
00001000
00000000
00000000
,
00000000
00000100
00000000
00000000
,
00000000
00010000
00000000
00001000
,
00000000
00010000
00000000
00000000
,
00000000
00001000
00000000
00010000
,
00000000
00001000
00000000
00000000
,
00000000
00000000
00200000
00010000
00000000
00010000
00000000
00010000
,
01000000
00310000
20000000
01000000
00000000
01000000
00000000
00100000
,
01000000
30100000
00020000
01000000
00000000
01030000
00200000
00010000
,
00000000
00310000
00001000
00010000
00001000
00010000
00000010
00000000
,
00000100
00000000
00000002
00000010
00000100
00000010
00000100
00000010
,
00000000
00000103
00002000
00000010
00000100
00003010
00020000
00000100
,
00001000
00030100
00001000
00001000
00001000
00001000
00010000
00010000
,
00010000
00010000
01100000
00000000
00011000
00000000
00000110
00000100
,
00001000
00000000
00011000
00000000
01000000
00000000
00000000
01000000
00000000
00000000
01000000
00000000
00010000
00000000
00000000
00010000
,
00000000
00010000
00000000
00000000
00000000
00000000
00000000
00000000
,
00000000
00000000
00000000
00000000
10000000
00000000
00000000
10000000
00000000
00000000
10000000
00000000
00010000
00000000
00000000
00010000
,
00000000
00000000
00010000
00000000
10000000
00000000
00000000
00100000
00000000
00000000
00010000
00000000
00001000
00000000
00000000
00000100
,
00000000
00000000
00000001
00000000
00000001
00000000
00000000
00000010
00000000
00000000
00001000
00000000
00001000
00000000
00000000
00000010
,
00000000
00000000
00000001
00000000
00000001
00000000
00000000
00000100
00000000
00000000
00001000
00000000
00010000
00000000
00000000
01000000
,
00000000
00000000
10000000
00000000
10000000
00000000
00000000
00100000
00000000
00000000
00010000
00000000
00010000
00000000
00000000
00100000
,
00000000
00000000
10000000
00000000
10000000
00000000
00000000
01000000
00000000
00000000
00010000
00000000
02200000
00000000
00000000
00000000
,
00000000
00000000
00000000
03300000
00000000
00000000
00000000
00000000
00000000
00000000
00000000
00000000
00000000
00000000
00000000
00000000
,
00000000
00000000
00000000
00000000
,
00000000
00000000
00000000
00000000
,
10000000
01000000
00100000
00010000
,
00001000
00000100
00000010
00000001
,
00000010
00000010
00001000
00001000
,
00000010
00010000
00000100
00000000
,
00001000
00000010
00000001
00000010
,
00002000
00000000
01000000
01003000
,
20000000
00000000
00010000
30010000
,
00010000
00100000
01000000
00010000
,
10000000
00000000
00010000
00000000
,
01000000
00000000
00100000
10000000
,
00100000
00000000
01000000
00000000
,
00001000
00000000
00010000
00001000
,
00010000
00000000
00000010
00000000
,
00001000
00000000
00000100
00000000
,
00000010
00000000
00000001
00000000
,
00000010
00000000
00001000
00000000
,
00000010
00000000
00000010
00000000
,
00000001
00000000
00000100
00000000
,
00001000
00001000
00010000
00000000
00000000
00000000
00000000
00000000
,
00000000
00000000
00000000
00000000
00000000
00000000
00220000
00330000
,
00022000
00000000
00000000
00033000
00002020
00000000
00000000
00000000
,
00000000
00003030
00000202
00000000
,
00000000
00000000
00000000
00000000
,
00000000
00000000
00000000
00000000
,
00000000
00000000
00000000
00000000
00000000
00000000
00000000
00000000
00000000
00000000
00000000
00000000
00000000
00000000
00000000
00000000
00000303
00000000
00000000
00000000
00000000
00000000
00000000
00000000
00000000
00000000
00000000
00000000
00000000
00000000
00000000
00000000
00000001
00000000
00000000
00000000
00000000
00000000
00000000
00000000
00000000
00000000
00000000
00000000
00000000
00000000
00000000
00000000
00002000
00003000
00000000
00000000
00000000
00000000
00000000
00000000
00000000
00000000
00000000
00000000
00000000
00000000
00000000
00000000
,
00000010
00000000
00000000
00000000
00000000
00000000
00000000
00000000
00000000
00000000
00000000
00000000
00000000
00000000
00000000
00000000
00002000
00003000
00000000
00000000
00000000
00000000
00000000
00000000
00000000
00000000
00000000
00000000
00000000
00000000
00000000
00000000
00000100
00000000
00000000
00000000
00000000
00000000
00000000
00000000
00000000
00000000
00000000
00000000
00000000
00000000
00000000
00000000
00020000
00030000
00000000
00000000
00000000
00000000
00000000
00000000
00000000
00000000
00000000
00000000
00000000
00000000
00000000
00000000
,
00001000
00000000
00000000
00000000
00000000
00000000
00000000
00000000
00000000
00000000
00000000
00000000
00000000
00000000
00000000
00000000
00200000
00300000
00000000
00000000
00000000
00000000
00000000
00000000
00000000
00000000
00000000
00000000
00000000
00000000
00000000
00000000
01000000
00000000
00000000
00000000
00000000
00000000
00000000
00000000
00000000
00000000
00000000
00000000
00000000
00000000
00000000
00000000
00000000
00000000
00000000
00000000
00000000
00000000
00000000
00000000
00000000
00000000
00000000
00000000
00000000
00000000
00000000
00000000
,
10000000
00000000
00010000
00000000
,
01000000
00000000
00000000
00000000
00000000
00000000
00000000
00000000
00000000
00000000
00000000
00000000
00000000
00000000
00000000
00000000
00000000
00000000
00000000
00000000
00000000
00000000
00000000
00000000
00000000
00000000
00000000
00000000
00000000
00000000
00000000
00000000
00002000
00003000
00000000
00000000
00000000
00000000
00000000
00000000
00000000
00000000
00000000
00000000
00000000
00000000
00000000
00000000
00020000
00030000
00000000
00000000
00000000
00000000
00000000
00000000
00000000
00000000
00000000
00000000
00000000
00000000
00000000
00000000
,
00000100
00000000
00000000
00000000
00000000
00000000
00000000
00000000
00000000
00000000
00000000
00000000
00000000
00000000
00000000
00000000
00000000
00000000
00000000
00000000
00000000
00000000
00000000
00000000
00000000
00000000
00000000
00000000
00000000
00000000
00000000
00000000
00002000
00003000
00000000
00000000
00000000
00000000
00000000
00000000
00000000
00000000
00000000
00000000
00000000
00000000
00000000
00000000
00000001
00000000
00000000
00000000
00000000
00000000
00000000
00000000
00000000
00000000
00000000
00000000
00000000
00000000
00000000
00000000
,
00000000
00000000
00000000
00000000
00000000
00000000
00000000
00000000
00000000
00000000
00000000
00000000
00000000
00000000
00000000
00000000
00000200
00000300
00000000
00000000
00000000
00000000
00000000
00000000
00000000
00000000
00000000
00000000
00000000
00000000
00000000
00000000
00000010
00000000
00000000
00000000
00000000
00000000
00000000
00000000
00000000
00000000
00000000
00000000
00000000
00000000
00000000
00000000
00000000
00000000
00000000
00000000
00000000
00000000
00000000
00000000
00000000
00000000
00000000
00000000
00000000
00000000
00000000
00000000
,
00001000
00000000
00000100
00000000
,
00010000
00000000
00001000
00000000
,
00100000
02000000
00000000
00000000
,
00000000
00000000
00000000
00000000
,
00000000
00000000
00000000
00000000
,
03000000
00000000
00000000
00000000
,
00000000
00000000
00000000
00000000
;
#NOTES:
     dance-double:
     :
     Medium:
     14:
     :
00000000
00000000
00000000
00000000
,
00000000
00000000
00000000
00000000
,
00000000
00000000
10000000
00100000
10000000
00000000
00010000
10000000
,
01000000
00010000
00002000
00000000
00000000
00000000
00000100
00000000
,
00003100
00000000
00000001
00000010
00000001
00000000
00001000
00000001
,
00000100
00001000
00020000
00000000
00001000
00000000
00100000
00000000
,
00130000
00000000
01000000
00001000
00010000
00000000
00000010
00001000
,
00010000
00100000
20000000
00000000
00000000
00000000
00010000
00000000
,
30010000
00000000
10000000
01000000
00010000
00000000
00001000
00000100
,
00000001
00000010
00000100
00000000
00000000
00000010
00000000
00000000
,
00000110
00001000
00011000
00100000
,
11000000
00000000
00001000
00010000
01000000
00000000
00100000
00000000
,
00001000
00000100
00000101
00010000
,
00001100
00000000
00000001
00000010
00001000
00000000
00010000
00000000
,
00100000
11000000
00100000
01010000
,
00100000
00011000
00001100
00000110
,
00000011
00001000
00000001
00002002
,
00003003
00000100
00000010
00010000
00001000
00000000
00000010
00000000
,
00000000
00001000
00000000
00000000
00000100
00000000
00000001
00000000
,
00000000
00000100
00000000
00000000
00001000
00000000
00010000
00000000
,
00000000
00001000
00000000
00000000
00000010
00000000
00010000
00000000
,
00000000
00100000
00000000
10000000
,
00000000
00000000
00000000
01000000
,
00000000
00010000
00000000
00001000
,
00000000
00000000
00000000
00010000
,
00000000
00011000
00000000
01000000
,
00000000
00010000
00000000
00000000
01000000
00000000
10000000
00000000
,
00000000
01000000
00000000
00000000
00010000
00000000
00001000
00000000
,
00000000
00010000
00000000
00000000
00100000
00000000
00001000
00000000
,
00000000
00000010
00000000
00000001
,
00000000
00000000
00000000
00000000
,
00000000
00000010
00000001
00000010
,
00000000
00001000
00000000
00010000
,
00000000
00100000
00000000
10000000
,
01000000
00100000
00100000
10000000
,
10000000
00010000
00000000
01000000
,
00000000
00010000
10000000
00010000
,
00000000
01000000
00100000
01000000
,
00000000
00010000
10000000
01000000
,
00010000
00001000
00000000
00011000
,
00000000
00000010
00000001
00000010
,
00000000
00000100
00001000
00000100
,
00000000
00000010
00000001
00001000
,
00000010
00010000
00000000
00011000
,
00000000
01000000
00000000
01000000
,
00000000
10000000
00000000
10000000
,
00000000
02000000
00000000
00010000
,
00000000
03010000
00000000
00001000
,
00000000
00000020
00000000
00000001
,
00000000
00000031
00000000
00001001
,
00000000
00000001
00000100
00001000
,
00000000
00000100
00000000
00000001
,
00000000
00000011
00000000
00001100
,
00000000
00000001
00000100
00001000
,
00000000
00010000
00100000
10000000
,
00000000
20020000
00000000
30030000
,
00000000
10100000
00000000
01010000
,
00000000
10000000
01000000
00010000
,
00000000
00001000
00000010
00000001
,
00000000
00002002
00000000
00003003
,
00000000
00000110
00000000
00001001
,
00000000
00000001
00000100
00001000
,
00000000
00010000
01000000
10000000
,
00000000
20020000
00000000
30030000
,
00000000
00100000
10000000
00100000
,
00010000
00000000
10000000
01000000
00100000
00000000
20020000
00000000
,
30030000
00100000
00000000
00010000
,
00100000
00000000
01000000
00100000
,
00010000
00000000
00001000
00000100
,
00000000
00000010
00000001
00000100
,
00000000
00000010
00000000
00001000
,
00010000
00000000
01000000
00100000
,
10000000
00000000
00010000
01000000
,
00000000
00100000
10000000
01000000
,
00000000
00010000
00000000
00001000
,
00000000
00000100
00000000
00000001
,
00000000
00000010
00000000
00001001
,
00000000
00001100
00000000
00011000
,
00000000
00100000
10000000
00000000
,
01000000
00100000
00000000
00001000
,
00010000
00000000
00000010
00001000
,
00000000
00022000
00000000
00033000
,
00000000
00000000
00000000
00000000
01000000
10000000
00000000
10000000
00000000
01000000
00000000
00100000
00100000
00010000
00000000
00100000
,
00000000
00000000
00001000
00010000
00001000
00000000
00000000
00000000
00001000
00000000
00001000
00000000
00000000
00000000
00000100
00000000
00000000
00000000
00000010
00000000
00000000
00000000
00000001
00000000
00000001
00000000
00000010
00000000
00000000
00000000
00000100
00000000
,
00000001
00000000
00000001
00000100
00000001
00000000
00000100
00000000
00002000
00000000
00000000
00000000
00010000
00000000
00010000
00000000
00000000
00000000
00000100
00000000
00000100
00000000
00000000
00000000
00010000
00000000
00010000
00000000
00000000
00000000
00000100
00000000
,
00000100
00013000
00020000
00100000
00001000
00100000
00032000
00000010
,
00010000
00000000
00023000
01000000
00032000
00003200
00000302
00002003
,
00023000
00000000
00130000
00100000
02000000
00000000
23000000
00000000
30020000
00000000
00230000
00000000
00302000
00000000
00003200
00000000
,
00000302
00000000
00000013
00000000
00000001
00001000
00000100
00000010
00000100
00001000
00000001
00000100
00000010
00000100
00000001
00000010
,
00001000
00010000
00001000
00000100
00001000
00010000
01000000
00010000
01000000
10000000
00010000
01000000
00100000
01000000
00010000
10000000
,
01000000
00000000
10010000
00000000
10000000
00000000
00000000
01000000
00000000
00000000
00010000
00000000
00001000
00000000
00000000
00000100
,
00000000
00000001
00000000
00000000
00000000
00000000
00000000
00000000
,
00000000
00000000
00000000
00000000
00000001
00000000
00000000
00000010
00000000
00000000
00001000
00000000
00010000
00000000
00000000
00100000
,
00000000
00000000
10000000
00000000
10000000
00000000
00000000
01000000
00000000
00000000
00010000
00000000
00001000
00000000
00000000
00010000
,
00000000
00000000
00001000
00000000
00011000
00000000
00000000
00011000
00000000
00000000
00011000
00000000
00101000
00000000
00000000
00110000
,
00000000
00000000
00101000
00000000
00011000
00000000
00000000
00011000
00000000
00000000
00011000
00000000
00010010
00000000
00000000
00001010
,
00000000
00000000
00010010
00000000
00011000
00000000
00000000
00011000
00000000
00000000
00011000
00000000
01010000
00000000
00000000
11000000
,
00000000
00000000
01010000
00000000
10010000
00000000
00000000
01100000
00000000
00000000
10010000
00000000
02200000
00000000
00000000
00000000
,
03300000
20020000
00000000
00000000
,
00000000
00000000
00000000
00000000
,
00000000
00000000
00000000
30030000
,
00100000
10000000
00010000
00000000
00010000
00000000
11000000
00000000
,
10000000
01000000
00010000
00001000
00020000
00000000
00031000
00000000
,
00001000
00000100
00000000
00000100
00000001
00000000
00000010
00000000
,
00000001
00000100
00000000
00000110
00000000
00000000
00001000
00000000
,
00020000
00000000
00000000
00032000
00000000
00000000
00103000
00000000
00010000
00000000
00000000
01000000
00000000
00000000
00100000
00000000
,
20000000
00000000
00000000
32000000
00000000
00000000
13000000
00000000
,
02000000
00000000
00000000
03010000
00000000
00000000
00001000
00020000
,
00000000
00000000
00030000
00000000
,
00100000
00000000
00001000
00010000
,
00000010
00001000
00000001
00000100
,
00000001
00001000
00000100
00000000
,
00001000
00000001
00000100
00000000
,
00000001
00000000
00000010
00000000
,
00001000
00000000
00010000
00000100
,
00001000
00000100
00010000
00000000
,
00000010
00000100
00000010
00000100
,
00001000
00000000
00010000
00100000
,
01000000
00100000
10000000
00000000
,
01000000
00010000
00001000
00000000
00000000
00000000
00000000
00000000
,
00000000
00000000
00000000
00000000
00000000
00000000
00002020
00003030
,
00022000
00033000
02020000
00000000
,
00000000
03030000
20200000
00000000
,
00000000
00000000
00000000
00000000
,
00000000
00000000
00000000
00000000
,
00000000
00000000
00000000
00000000
00000000
00000000
00000000
00000000
00000000
00000000
00000000
00000000
00000000
00000000
00000000
00000000
30300000
00000000
00000000
00000000
00000000
00000000
00000000
00000000
00000000
00000000
00000000
00000000
00000000
00000000
00000000
00000000
00010000
00000000
00000000
00000000
00000000
00000000
00000000
00000000
00000000
00000000
00000000
00000000
00000000
00000000
00000000
00000000
20000000
30000000
00000000
00000000
00000000
00000000
00000000
00000000
00000000
00000000
00000000
00000000
00000000
00000000
00000000
00000000
,
00001000
00000000
00000000
00000000
00000000
00000000
00000000
00000000
00000000
00000000
00000000
00000000
00000000
00000000
00000000
00000000
00020000
00030000
00000000
00000000
00000000
00000000
00000000
00000000
00000000
00000000
00000000
00000000
00000000
00000000
00000000
00000000
00000001
00000000
00000000
00000000
00000000
00000000
00000000
00000000
00000000
00000000
00000000
00000000
00000000
00000000
00000000
00000000
00002000
00003000
00000000
00000000
00000000
00000000
00000000
00000000
00000000
00000000
00000000
00000000
00000000
00000000
00000000
00000000
,
00000010
00000000
00000000
00000000
00000000
00000000
00000000
00000000
00000000
00000000
00000000
00000000
00000000
00000000
00000000
00000000
00000200
00000300
00000000
00000000
00000000
00000000
00000000
00000000
00000000
00000000
00000000
00000000
00000000
00000000
00000000
00000000
00000010
00000000
00000000
00000000
00000000
00000000
00000000
00000000
00000000
00000000
00000000
00000000
00000000
00000000
00000000
00000000
00000000
00000000
00000000
00000000
00000000
00000000
00000000
00000000
00000000
00000000
00000000
00000000
00000000
00000000
00000000
00000000
,
00022000
00033000
00100000
00000000
,
00011000
00000000
00000000
00000000
00000000
00000000
00000000
00000000
00000000
00000000
00000000
00000000
00000000
00000000
00000000
00000000
00000000
00000000
00000000
00000000
00000000
00000000
00000000
00000000
00000000
00000000
00000000
00000000
00000000
00000000
00000000
00000000
20000000
30000000
00000000
00000000
00000000
00000000
00000000
00000000
00000000
00000000
00000000
00000000
00000000
00000000
00000000
00000000
00022000
00033000
00000000
00000000
00000000
00000000
00000000
00000000
00000000
00000000
00000000
00000000
00000000
00000000
00000000
00000000
,
00000001
00000000
00000000
00000000
00000000
00000000
00000000
00000000
00000000
00000000
00000000
00000000
00000000
00000000
00000000
00000000
00000000
00000000
00000000
00000000
00000000
00000000
00000000
00000000
00000000
00000000
00000000
00000000
00000000
00000000
00000000
00000000
00022000
00033000
00000000
00000000
00000000
00000000
00000000
00000000
00000000
00000000
00000000
00000000
00000000
00000000
00000000
00000000
10010000
00000000
00000000
00000000
00000000
00000000
00000000
00000000
00000000
00000000
00000000
00000000
00000000
00000000
00000000
00000000
,
00000000
00000000
00000000
00000000
00000000
00000000
00000000
00000000
00000000
00000000
00000000
00000000
00000000
00000000
00000000
00000000
00020000
00030000
00000000
00000000
00000000
00000000
00000000
00000000
00000000
00000000
00000000
00000000
00000000
00000000
00000000
00000000
01000000
00000000
00000000
00000000
00000000
00000000
00000000
00000000
00000000
00000000
00000000
00000000
00000000
00000000
00000000
00000000
01000000
00000000
00000000
00000000
00000000
00000000
00000000
00000000
00000000
00000000
00000000
00000000
00000000
00000000
00000000
00000000
,
10000000
01000000
01000000
00010000
,
01000000
01000000
10000000
01000000
,
01000000
20020000
00000000
00000000
,
00000000
00000000
00000000
00000000
,
00000000
00000000
00000000
00000000
,
30030000
00000000
00000000
00000000
,
00000000
00000000
00000000
00000000
;
#NOTES:
     dance-double:
     :
     Hard:
     17:
     :
00000000
00000000
00000000
00000000
,
00000000
00000000
20020000
00000000
00000000
00000000
00000000
30030000
,
00000000
00000000
10000000
00100000
01000000
00100000
00010000
00001000
,
00000010
00001000
00020000
00000000
00000010
00000000
01000000
00000000
,
00030010
00000000
00000001
00000010
00000100
00000010
00001000
00010000
,
00100000
00010000
00002000
00000000
00100000
00000000
00000100
00000000
,
00103000
00000000
00010000
00100000
10000000
00010000
01000000
10000000
,
00010000
01000000
00002000
00000000
00000000
00000000
00000010
00000000
,
00003010
00000000
00001000
00000010
00000001
00001000
00000100
00000001
,
00001000
00010000
00001000
00000000
00000001
00000010
00000000
00001000
,
00010000
00000000
00001000
00010000
00000000
00000100
00000000
00000010
,
00000000
00000001
00001000
00000010
00000100
00000001
00000000
00000000
,
00001100
00000000
00010000
00100000
00000000
10000000
00000000
01000000
,
00000000
00100000
01000000
00010000
00001000
00000000
00011000
00000000
,
00000010
00000101
00000010
00001100
,
00000010
00011000
01100000
10010000
,
01000000
00010000
10000000
20020000
,
30030000
00000000
10100000
01000000
00010000
00000000
00001000
00000000
,
00000000
00000100
00000000
00000010
,
00001000
00010000
00001000
01000000
,
00000000
10000000
00000000
00110000
,
00000000
10100000
00000000
22000000
,
33000000
00000000
00010000
00001000
,
00000100
00001000
00000000
00000100
,
00000000
00000010
00001000
00010000
,
00001000
00100000
00000000
01000000
,
00000000
00010000
00100000
00001000
,
00000000
00000100
00000010
00001000
,
00000000
00000010
00000100
00001000
,
00000000
00010000
00100000
10000000
,
00000000
01000000
00000000
00010000
,
00000000
00001000
00000100
00001000
,
00000000
00010000
00000000
01000000
,
00000000
01000000
00010000
11000000
,
00110000
00100000
00001000
00010000
,
00001000
00011000
00000000
00001100
,
00000000
00000001
00000100
00001000
,
00000100
00000000
00000001
00000000
00000010
00000100
00000000
00001000
,
00000100
00010000
00001000
00010000
,
00100000
00000000
10000000
00010000
01000000
00000000
00100000
00000000
,
10000000
01000000
00010000
00001000
,
00010000
00000000
01000000
00000000
00010000
00001000
00000000
00000010
,
00001000
00000001
00000100
00000010
,
00001000
00000000
00000001
00000100
,
00001000
00000001
00000100
00000010
,
00001000
00000000
00000001
00000000
00000010
00001000
00000000
00010000
,
00001000
00000100
00001000
00010000
,
00100000
00000000
01000000
00100000
10000000
00000000
00010000
00000000
,
01000000
00100000
10000000
01000000
,
00010000
00001000
00000010
00000001
,
00000100
00000000
00001000
00000000
00010000
00001000
00000000
00000000
,
00010000
01000000
01100000
00010000
,
01000000
00100000
10000000
00010000
,
10000000
01000000
00100000
00001000
,
00010000
00001000
00000100
00000010
,
00000000
00002002
00000000
00000000
,
00003003
00000010
00000001
00001000
,
00000001
00000100
00001000
00010000
,
00001000
00010000
01000000
10000000
,
00000000
02020000
00000000
00000000
,
03030000
00100000
00001000
00010000
,
00100000
00010000
00001000
00100000
,
00001000
00010000
00001000
00000010
,
00000001
00002000
00000000
00000000
,
00003000
00000000
00000120
00000000
00010030
00001000
00021000
00000000
,
00030100
00001000
00001100
00000000
00000010
00001000
00020000
00000000
,
00031000
00100000
00001000
01000000
,
00100000
00010000
10000000
01000000
,
00010000
10000000
00010000
00100000
,
00000000
01000000
00010000
00001000
,
00000010
00000001
00001000
00000100
,
00000010
00000000
00001000
00010000
,
00000010
00000000
00000100
00000001
,
00001000
00000010
00000100
00001000
,
00100000
00010000
01000000
00100000
,
00000000
10000000
01000000
00100000
,
00010000
10000000
00000000
01010000
,
00000000
00011000
00000000
00001010
,
00000000
00000001
00000001
00000000
,
00000100
00000100
00000000
00000001
,
00000001
00000000
00000100
00000010
,
00001000
00020000
00000000
00030000
,
00000000
00000000
00000000
00000000
00001001
00000000
00000100
00000010
00000000
00001000
00010000
00000000
01000000
00100000
00000000
10000000
,
00010000
00010000
00010000
00000000
00100000
01000000
00000000
10000000
00010000
01000000
00000000
00001000
00000000
00000000
00000000
00000000
,
00001001
00000000
00000110
00000000
00000001
00000010
00001000
00010000
00000010
00000100
00000010
00000000
00000001
00000100
00001000
00010000
,
00001000
01000000
00010000
00000000
10000000
00100000
01000000
00010000
00100000
00010000
01000000
00100000
00010000
00001000
00010000
00001000
,
00000010
00000001
00001000
00000000
00000001
00000100
00001000
00000100
00001000
00010000
00100000
10000000
01000000
00000000
00010000
00000000
,
01000000
00000000
10000000
00100000
00010000
01000000
00001000
00010000
00000000
00001000
00100000
00000000
01000000
00100000
00001000
00010000
,
00000000
00001000
01000000
00000000
00001000
00010000
00000010
00001000
00000010
00000100
00000001
00001000
00000100
00010000
00001000
00010000
,
00001000
00100000
00001000
01000000
00100000
10000000
00100000
10000000
01000000
10000000
01000000
00010000
00001000
00010000
00001000
00000100
,
00000001
00000000
00000100
00000001
00000101
00000000
00000000
00000011
00000000
00000000
00001010
00000000
00000001
00000000
00000000
00000100
,
00000000
00001000
00000000
00000000
00000000
00000000
00000000
00000000
,
00000000
00000000
00000000
00000000
10100000
00000000
00000000
11000000
00000000
00000000
01010000
00000000
11000000
00000000
00000000
10100000
,
00000000
00000000
00110000
00000000
00001000
00000000
00000000
00010000
00000000
00000000
01000000
00000000
00010000
00000000
00000000
00001000
,
00000000
00000000
00000010
00000000
00000011
00000000
00000000
00000101
00000000
00000000
00001100
00000000
00000101
00000000
00000000
00000011
,
00000000
00000000
00001010
00000000
00010000
00000000
00000000
00001000
00000000
00000000
00000100
00000000
00001000
00000000
00000000
00010000
,
00000000
00000000
01000000
00000000
01010000
00000000
00000000
11000000
00000000
00000000
10100000
00000000
00110000
00000000
00000000
00011000
,
00000000
00000000
00001010
00000000
00001000
00000000
00000000
00100000
00000000
00000000
01000000
00000000
20020000
00000000
00000000
00000000
,
00000000
30030000
00000000
00000000
,
00000000
00000000
00000000
00000000
,
00000000
00011000
00000000
00001010
,
00000100
00000000
00001000
00000000
00010000
00000000
00100000
00000000
10000000
01000000
10000000
00000000
00010000
00000000
10000000
00000000
,
01000000
00000000
00000000
00010000
00000000
00000000
00001000
00000000
00000000
00000000
00010000
00000000
00001000
00100000
00001000
00000000
,
00010000
00000000
00000000
00000100
00000000
00000000
00000001
00000000
00000100
00000000
00000000
00000000
00001000
00000000
00000001
00000000
,
00000100
00000000
00001000
00000000
00010000
00000000
00100000
00000000
01000000
00100000
00000000
10000000
00000000
00010000
01000000
00000000
,
10000000
00000000
01000000
00000000
00100000
00000000
01000000
00000000
00010000
00000000
00000000
00100000
00000000
00000000
00001000
00000000
,
00010000
00001000
00000010
00000100
00000001
00000100
00001000
00000000
,
00000100
00010000
00001000
01000000
00100000
01000000
00010000
10000000
,
00010000
00000000
00100000
00000000
01000000
00000000
10000000
00010000
10000000
00000000
01000000
00000000
00010000
00000000
01000000
00000000
,
01000000
00010000
01000000
00001000
,
00010000
00000000
00000010
00000000
00000100
00000010
00000100
00000000
,
00000001
00000010
00000100
00000000
,
00001000
00000010
00000100
00000000
,
00001000
00010000
00001000
00100000
,
00010000
10000000
00100000
01000000
,
00010000
01000000
01010000
00000000
,
10000000
01000000
11000000
00000000
,
00100000
10000000
01000000
00010000
,
00001000
00000000
00000010
00000000
00000100
00000010
00000100
00000010
,
00000001
00000011
00002200
00000000
00000000
00000000
00000000
00000000
,
00000000
00000000
00003300
00020000
,
00032000
00000000
00000000
00000000
00000000
00000000
00013000
00001000
00010000
00001000
00010000
00001000
,
00010000
00000000
00001000
00000000
00010000
00000000
00001000
00000000
00010000
00000000
00001000
00000000
00100000
00000000
00000000
00010000
00000000
00000000
00100000
00000000
00000000
00010000
00000000
00000000
,
00100000
00010000
00100000
00010000
10000000
00000000
01000000
00000000
,
10000000
01000000
10000000
01000000
,
10000000
01000000
10000000
10100000
,
00010000
00110000
00001000
00011000
,
00010000
00010100
00000010
00001000
,
00000001
00000101
00001000
00000100
,
00010000
00001000
00010100
01001000
,
00001000
00100000
00110000
10000000
,
01000000
11000000
00010000
01000000
,
00100000
10000000
01000000
00010000
,
00001000
00000100
00000001
00000100
,
00001000
00022000
00000000
00000000
,
00000000
00000000
00000000
00000000
,
00000000
00000000
00000000
00000000
,
00033000
00000000
00000000
00000000
,
00000000
00000000
00000000
00000000
;
