
//----- song ID: dran -----//
#TITLE:DANCERUSH STARDOM ANTHEM;
#ARTIST:kors k feat.福島蘭世;
#ARTISTTRANSLIT:kors k feat. Fukushima ranse;
#BANNER:DANCERUSH STARDOM ANTHEM.png;
#BACKGROUND:DANCERUSH STARDOM ANTHEM-bg.png;
#CDTITLE:./CDTitles/DANCERUSH STARDOM.png;
#MUSIC:DANCERUSH STARDOM ANTHEM.ogg;
#SAMPLESTART:8.891;
#SAMPLELENGTH:15;
#BPMS:0=130;
#NOTES:
     dance-single:
     :
     Beginner:
     2:
     :
0000
0000
0000
0000
,
0000
0000
0000
0000
,
0000
0000
0000
0000
,
0000
0000
0000
0000
,
0000
0000
0000
0000
,
0001
0000
0000
0000
,
0001
0000
0000
0000
,
0002
0000
0000
0000
,
0003
0000
0000
0000
,
1000
0000
0000
0000
,
1000
0000
0000
0000
,
2000
0000
0000
0000
,
3000
0000
0000
0000
,
1001
0000
0000
0000
,
0001
0000
0010
0000
,
0100
0000
0000
0000
,
0010
0000
0000
0000
,
1000
0000
0000
0000
,
1000
0000
0010
0000
,
0100
0000
0000
0000
,
0010
0000
0000
0000
,
0001
0000
0000
0000
,
0001
0000
0100
0000
,
0010
0000
0000
0000
,
0001
0000
0010
0000
,
1000
0000
0000
0000
,
1000
0000
0100
0000
,
0010
0000
0000
0000
,
1000
0000
0010
0000
,
0001
0000
0000
0000
,
0002
0000
0000
0000
,
0003
0000
0000
0000
,
0020
0000
0000
0000
,
0030
0000
0000
0000
,
0200
0000
0000
0000
,
0300
0000
0000
0000
,
2000
0000
0000
0000
,
3000
0000
0000
0000
,
2000
0000
3000
0000
,
0020
0000
0030
0000
,
0002
0000
0003
0000
,
0200
0000
0300
0000
,
1000
0000
0100
0000
,
0010
0000
0010
0000
,
0001
0000
1000
0000
,
0001
0000
1001
0000
,
0001
0000
0001
0000
,
0001
0000
0000
0000
,
0010
0000
0010
0000
,
0010
0000
0000
0000
,
1000
0000
1000
0000
,
1000
0000
0000
0000
,
0100
0000
0100
0000
,
0100
0000
0000
0000
,
0001
0000
0100
0000
,
1000
0000
0000
0000
,
0001
0000
0010
0000
,
1000
0000
0000
0000
,
1000
0000
0100
0000
,
0001
0000
0000
0000
,
1000
0000
0010
0000
,
0001
0000
0000
0000
,
1001
0000
0000
0000
,
0000
0000
0000
0000
;
#NOTES:
     dance-single:
     :
     Easy:
     5:
     :
0000
0000
0000
0000
,
0000
0000
0000
0000
,
0000
0000
0000
0000
,
0000
0000
0000
0000
,
0000
0000
0000
0000
,
0002
0000
0000
0003
,
2000
0000
0000
3000
,
2002
0000
0000
0000
,
3003
0000
0000
0000
,
0002
0000
0000
0003
,
2000
0000
0000
3000
,
0002
0000
0000
0003
,
2000
0000
0000
3000
,
0001
0001
0001
1001
,
0001
0100
0001
0100
,
0001
0100
0001
0100
,
0001
0000
0010
0000
,
1000
0000
0100
0000
,
1000
0100
1000
0100
,
1000
0100
1000
0100
,
1000
0000
0010
0000
,
0110
0000
0000
1001
,
0010
0000
0001
0000
,
0100
0000
1000
0000
,
0002
0000
0000
0003
,
2000
0000
0000
3000
,
0001
1000
0001
1000
,
0010
0100
0010
0100
,
0220
0000
0000
0330
,
2002
0000
0000
3003
,
0001
0000
0000
0000
,
1000
0000
0000
0000
,
0100
0000
0000
0000
,
0001
0000
1000
0000
,
1000
0000
0000
0000
,
0001
0000
0000
0000
,
0100
0000
0000
0000
,
1000
0001
1000
0001
,
1001
0000
0110
0000
,
1001
0000
0110
0000
,
1001
0000
0220
0000
,
0000
0000
0330
0000
,
0001
0000
1000
0000
,
0010
0000
0100
0000
,
0001
1000
0100
0010
,
0110
1001
0000
0000
,
2000
0000
3010
0000
,
0002
0000
0013
0000
,
1000
0100
1000
0100
,
1000
0100
1000
0100
,
1000
0000
1000
0000
,
0010
0000
0100
0000
,
0001
0010
0001
0000
,
0200
0000
0300
0000
,
0001
0010
0001
0010
,
0001
0010
0001
0010
,
0001
0000
0100
0000
,
0010
0100
0010
0000
,
0010
0100
1000
0000
,
0010
0100
0001
0000
,
0002
0000
0003
0000
,
2000
0000
3000
0110
,
2002
0000
0000
0000
,
0000
0000
0000
0000
,
3003
0000
0000
0000
,
0000
0000
0000
0000
;
#NOTES:
     dance-single:
     :
     Medium:
     8:
     :
0000
0000
0000
0000
,
0000
0000
0000
0000
,
0000
0000
0000
0000
,
0000
0000
0000
0000
,
0000
0000
0000
0000
,
0001
0100
0001
1000
,
0001
1000
0010
1000
,
0001
0001
1000
1000
,
0001
1000
0001
1000
,
0002
0010
0100
1003
,
2000
0100
0010
3001
,
0010
0100
1000
0100
0010
0001
0010
0000
,
2002
0000
0000
3003
,
0010
0100
0010
1001
,
0002
2003
3002
2003
,
3010
0010
0100
0100
,
0002
0003
2000
3000
0002
0003
2000
3000
,
0002
0003
2000
3000
0002
0003
1001
0000
,
1000
0001
1000
0001
,
1000
0000
0001
0000
1000
0100
0001
0100
,
2000
3000
0002
0003
2000
3000
0002
0003
,
1000
2002
3003
0000
,
0001
0100
0010
0100
0001
0100
0010
0100
,
0001
0100
1000
0010
,
0002
0003
2000
3000
0002
0003
2000
3000
,
0002
0003
2000
3000
1000
0000
1001
0000
,
0001
0100
0010
0100
0001
0100
0010
0100
,
0001
0002
0100
1003
,
0001
1000
0001
1000
,
2002
3003
2002
3003
,
0001
1000
0010
0100
,
0001
1000
0100
0010
,
0001
0001
1000
1000
,
0001
0100
1000
0100
,
0001
0010
1000
0001
,
2000
0001
0001
0001
,
0010
0010
0100
3100
,
1001
1001
1001
0000
,
2000
3002
2003
3002
,
2003
0000
0000
0000
0000
0000
0000
0000
0000
0000
0000
0000
0000
0000
0000
0000
0000
0000
0000
0000
0000
0000
0000
0000
0000
0000
0000
0000
0000
0000
0000
0000
0000
0000
0000
0000
0000
0000
0000
0000
0000
0000
0000
0000
0000
0000
0000
0000
3002
0000
0000
0000
0000
0000
0000
0000
0000
0000
0000
0000
0000
0000
0000
0000
0000
0000
0000
0000
0000
0000
0000
0000
0000
0000
0000
0000
0000
0000
0000
0000
0000
0000
0000
0000
0000
0000
0000
0000
0000
0000
0000
0000
0000
0000
0000
0000
2003
0000
0000
0000
0000
0000
0000
0000
0000
0000
0000
0000
0000
0000
0000
0000
0000
0000
0000
0000
0000
0000
0000
0000
0000
0000
0000
0000
0000
0000
0000
0000
0000
0000
0000
0000
0000
0000
0000
0000
0000
0000
0000
0000
0000
0000
0000
0000
3002
0000
0000
0000
0000
0000
0000
0000
0000
0000
0000
0000
0000
0000
0000
0000
0000
0000
0000
0000
0000
0000
0000
0000
0000
0000
0000
0000
0000
0000
0000
0000
0000
0000
0000
0000
0000
0000
0000
0000
0000
0000
0000
0000
0000
0000
0000
0003
,
1000
0010
0001
0001
,
0010
1000
1001
0110
,
1001
0000
1001
0000
,
1001
0000
1001
0000
,
0011
0101
1100
1010
,
0110
2002
0000
3003
,
0200
0010
1000
0010
,
0320
0100
0001
0130
,
0101
1100
0101
1100
,
0101
0000
1100
0000
1000
0100
0001
0100
,
2000
0010
0001
0001
,
3001
0010
1000
1000
,
1000
0001
0010
0100
,
0110
0000
1001
0000
,
0001
0100
0010
0100
0001
0100
0010
0100
,
0002
0010
0100
1003
,
0002
0003
2000
3000
0002
0003
2000
3000
,
1001
0110
2002
3003
,
1000
0100
0001
0100
1000
0100
0001
0000
,
0001
0100
1000
0100
0001
0100
1000
0000
,
0001
1000
0001
1000
,
0001
1000
0001
1000
0001
1000
0001
0000
,
2002
0000
0000
0000
,
0000
0000
0000
0000
,
3003
0000
0000
0000
,
0000
0000
0000
0000
;
#NOTES:
     dance-single:
     :
     Hard:
     11:
     :
0000
0000
0000
0000
,
0000
0000
0000
0000
,
0000
0000
0000
0000
,
0000
0000
0000
0000
,
0000
0000
0000
0000
,
0001
0000
1000
0000
0001
0000
0000
2002
0000
0000
0000
0000
3003
0000
0000
0000
,
0010
0000
0100
0000
0010
0000
0000
0220
0000
0000
0000
0000
0330
0000
0000
0000
,
0001
0000
0010
0000
0001
0000
0000
0022
0000
0000
0000
0000
0033
0000
0000
0000
,
1000
0000
0100
0000
1000
0000
0000
2200
0000
0000
0000
0000
3300
0000
0000
0000
,
0010
0000
0100
0000
0010
0000
0000
1000
0000
0000
0001
0000
0100
0000
0001
0000
,
0010
0000
0100
0000
1000
0000
0000
0001
0000
0000
1000
0000
0001
0000
0001
0000
,
0100
0001
0010
0001
0100
0010
1000
0100
,
1000
0001
0100
0001
0010
0100
0010
0000
,
1001
0000
0110
0000
1001
0010
0100
0000
,
0010
0100
0010
0100
0010
0100
0010
0100
,
0001
0100
0001
0100
1000
0100
1000
0100
,
0001
0010
1000
0010
0001
0010
1000
0010
,
0001
0010
1000
0010
0001
0110
0000
0000
,
0001
0000
0000
0100
0000
0000
1000
0000
0000
0100
0000
0000
0001
0000
1000
0001
0000
0000
0100
0000
0000
0001
0000
0000
,
1000
0000
0001
1000
0000
0000
0100
0000
0000
1000
0000
0000
0010
0000
0000
0010
0000
0000
0110
0000
0000
0000
0000
0000
,
0001
0000
0000
0000
0000
0000
0011
0000
0000
0000
0000
0101
0000
0000
0000
1010
0000
0000
0000
0000
1100
0000
0000
0000
,
2002
0000
0000
3003
,
0010
0100
0010
0100
0010
0100
0010
0100
,
0001
0100
0010
0100
1000
0100
0010
0100
,
0001
0010
1000
0010
0001
0010
1000
0010
,
0001
0100
1000
0100
0020
0000
0030
0000
,
0010
0100
0010
0100
0010
0100
0010
0100
,
1000
0100
0010
0100
0001
0100
0010
0100
,
1000
0010
0001
0010
1000
0010
0001
0010
,
0200
0000
0000
0300
,
0010
0010
1000
1000
,
0001
0001
0100
0100
,
0010
0010
0100
0100
,
0001
0001
1000
1000
,
0001
0010
0001
0100
,
0001
1000
0010
0010
,
1000
0100
1000
0010
,
1001
0000
1001
0000
0010
0100
1001
0000
,
0010
0000
1000
0000
0100
0000
0000
0110
0000
0000
0010
0000
0001
0000
0100
0000
,
1000
0000
0100
0000
0010
0000
0000
0110
0000
0000
0100
0000
0010
0000
0010
0000
,
1000
0000
0001
0000
0010
0000
0000
0011
0000
0000
0010
0000
0001
0000
0100
0000
,
1000
0000
0100
0000
0001
0000
0000
1001
0000
0000
0010
0000
0100
0000
0000
0000
,
0011
0000
0101
0000
,
1010
0000
1100
0000
,
0011
0101
1010
1100
,
0110
0000
1001
0000
0000
0010
0100
0010
,
1000
0000
0000
0100
0000
0000
0001
0000
0000
0100
0000
0000
1000
0000
0100
0001
0000
0000
0100
0000
0000
1000
0000
0000
,
0000
0010
0001
0010
1000
0010
0001
0000
,
0010
0000
0000
0100
0000
0000
0010
0000
0000
0100
0000
0000
0010
0000
1000
0100
0000
0000
0010
0000
0001
0100
0000
0000
,
0001
0000
0100
0010
0000
0000
1000
0000
0100
0010
0000
0000
0001
0000
0000
0100
0000
0000
1000
0000
0000
0000
0000
0000
,
0001
0100
1000
0100
0001
0100
1000
0100
,
0020
0130
0020
0130
1001
0001
0110
0000
,
1000
0100
1000
0100
0001
0100
0001
0100
,
0010
0000
0100
0000
0010
0000
0000
1000
0001
0000
0001
0000
0001
0000
0000
0000
,
0110
0000
0001
0100
1000
0100
0001
0100
,
1001
0100
0110
0000
1001
0010
0110
0000
,
0001
0010
1000
0010
0001
0100
1000
0100
,
0010
0100
0010
0100
0001
1000
0100
0010
,
0001
0100
0001
0100
1000
0100
1000
0100
,
0001
0100
1000
0100
0001
0100
0001
0000
,
0010
0100
0001
1000
0100
0010
0001
1000
,
0001
0100
1000
0100
0001
0100
1000
0100
,
2002
0000
0000
0000
,
0000
0000
0000
0000
,
3003
0000
0000
0000
,
0000
0000
0000
0000
;
#NOTES:
     dance-double:
     :
     Easy:
     5:
     :
00000000
00000000
00000000
00000000
,
00000000
00000000
00000000
00000000
,
00000000
00000000
00000000
00000000
,
00000000
00000000
00000000
00000000
,
00000000
00000000
00000000
00000000
,
00002000
00000000
00000000
00003000
,
00020000
00000000
00000000
00030000
,
00022000
00000000
00000000
00000000
,
00033000
00000000
00000000
00000000
,
00002000
00000000
00000000
00003000
,
00020000
00000000
00000000
00030000
,
00002000
00000000
00000000
00003000
,
00020000
00000000
00000000
00030000
,
00001000
00001000
00001000
00011000
,
00000010
00001000
00000001
00000100
,
00000010
00001000
00000001
00000100
,
00000010
00000000
00001000
00000000
,
00010000
00000000
00010000
00000000
,
10000000
01000000
00100000
00010000
,
10000000
01000000
00100000
00010000
,
00100000
00000000
00001000
00000000
,
00011000
00000000
00000000
00011000
,
00000100
00000000
00000001
00000000
,
00000010
00000000
00001000
00000000
,
00002000
00000000
00000000
00003000
,
00020000
00000000
00000000
00030000
,
00100000
10000000
01000000
00100000
,
00010000
00100000
00001000
00010000
,
00022000
00000000
00000000
00033000
,
00022000
00000000
00000000
00033000
,
00000100
00000000
00000000
00000000
,
00000010
00000000
00000000
00000000
,
00000001
00000000
00000000
00000000
,
00001000
00000000
00010000
00000000
,
01000000
00000000
00000000
00000000
,
00100000
00000000
00000000
00000000
,
10000000
00000000
00000000
00000000
,
00010000
00001000
00010000
00001000
,
00011000
00000000
00000110
00000000
,
00011000
00000000
01100000
00000000
,
00011000
00000000
00022000
00000000
,
00000000
00000000
00033000
00000000
,
00000001
00000000
00000010
00000000
,
00000100
00000000
00001000
00000000
,
00010000
00100000
01000000
10000000
,
01100000
10010000
00000000
00000000
,
00002000
00000000
00003010
00000000
,
00000002
00000000
00000013
00000000
,
00001000
00000100
00010000
00001000
,
00100000
00010000
10000000
01000000
,
10000000
00000000
10000000
00000000
,
00100000
00000000
01000000
00000000
,
00001000
00010000
00001000
00000000
,
00000200
00000000
00000300
00000000
,
00000001
00000010
00000100
00010000
,
00001000
00010000
00001000
00100000
,
00001000
00000000
00010000
00000000
,
00100000
01000000
00100000
00000000
,
10000000
01000000
00100000
00000000
,
00100000
00010000
00001000
00000000
,
00002000
00000000
00003000
00000000
,
00020000
00000000
00030000
00011000
,
00022000
00000000
00000000
00000000
,
00000000
00000000
00000000
00000000
,
00033000
00000000
00000000
00000000
,
00000000
00000000
00000000
00000000
;
#NOTES:
     dance-double:
     :
     Medium:
     8:
     :
00000000
00000000
00000000
00000000
,
00000000
00000000
00000000
00000000
,
00000000
00000000
00000000
00000000
,
00000000
00000000
00000000
00000000
,
00000000
00000000
00000000
00000000
,
00000001
00001000
00000001
00001000
,
00000010
00000100
00000010
00000100
,
00001000
00001000
00010000
00010000
,
00100000
01000000
00100000
01000000
,
00020000
00100000
01000000
10030000
,
00200000
01000000
00010000
00301000
,
00001000
00010000
00100000
00010000
00001000
00000100
00000010
00000000
,
00000220
00000000
00000000
00000330
,
00000010
00000100
00000010
00001001
,
00000002
00002003
00003002
00001003
,
00001000
00001000
00010000
00010000
,
00020000
00030000
20000000
30000000
00020000
00030000
20000000
30000000
,
00020000
00030000
20000000
30000000
00010000
00000000
10010000
00000000
,
10000000
00100000
10000000
00100000
,
01000000
00000000
00010000
00000000
00100000
00001000
00010000
00000100
,
00002000
00003000
00000002
00000003
00002000
00003000
00000002
00000003
,
00001000
00002002
00003003
00000000
,
00000001
00000100
00000010
00000100
00000001
00000100
00000010
00000100
,
00000001
00001000
01000000
00010000
,
00002000
00003000
00020000
00030000
00002000
00003000
00020000
00030000
,
00002000
00003000
00020000
00000000
00130000
00000000
01100000
00000000
,
00010000
01000000
00100000
01000000
00010000
01000000
00100000
01000000
,
00010000
00200000
10000000
01300000
,
00010000
00100000
00001000
00010000
,
00022000
00033000
00022000
00033000
,
00001000
00010000
00001000
00010000
,
00000010
00001000
00000010
00001000
,
00000001
00000001
00000100
00000100
,
00000010
00000010
00001000
00001000
,
00000100
00010000
00100000
00010000
,
02000000
00100000
00100000
00100000
,
00001000
00001000
00010000
03010000
,
10010000
10010000
10010000
00000000
,
20000000
30200000
02300000
03020000
,
00230000
00302000
00023000
00030200
,
00001300
00000100
00000010
00000001
,
00000001
00001000
00001001
00000000
,
00001001
00000000
00000110
00000000
,
00001001
00000000
00011000
00000000
,
00110000
01010000
11000000
10100000
,
01100000
20020000
00000000
30030000
,
02000000
00100000
10000000
03100000
,
00120000
00001000
00100000
00030000
,
00011000
01010000
01001000
00011000
,
00001100
00000000
00000110
00000000
00001000
00000100
00000001
00000100
,
00002000
00000010
00000100
00003001
,
00000002
00000100
00000010
00001003
,
00010000
00001000
01000000
00010000
,
01100000
00000000
10010000
00000000
,
00010000
01000000
00100000
01000000
00010000
01000000
00100000
01000000
,
00020000
10000000
01000000
00130000
,
00002000
00003000
00020000
00030000
00000200
00000300
00002000
00003000
,
00001001
00000110
00002002
00003003
,
00001000
00000100
00000001
00000100
00001000
00000000
00010000
00000000
,
00010000
01000000
10000000
01000000
00010000
01000000
10000000
00000000
,
00010000
00100000
00001000
00010000
,
00001000
00010000
00001000
00010000
00001000
00010000
00001000
00000000
,
00022000
00000000
00000000
00000000
,
00000000
00000000
00000000
00000000
,
00033000
00000000
00000000
00000000
,
00000000
00000000
00000000
00000000
;
#NOTES:
     dance-double:
     :
     Hard:
     11:
     :
00000000
00000000
00000000
00000000
,
00000000
00000000
00000000
00000000
,
00000000
00000000
00000000
00000000
,
00000000
00000000
00000000
00000000
,
00000000
00000000
00000000
00000000
,
00000001
00000000
00001000
00000000
00000001
00000000
00000000
00002002
00000000
00000000
00000000
00000000
00003003
00000000
00000000
00000000
,
00000010
00000000
00000100
00000000
00000010
00000000
00000000
00000220
00000000
00000000
00000000
00000000
00000330
00000000
00000000
00000000
,
00001000
00000000
00010000
00000000
00001000
00000000
00000000
00022000
00000000
00000000
00000000
00000000
00033000
00000000
00000000
00000000
,
01000000
00000000
00100000
00000000
01000000
00000000
00000000
02200000
00000000
00000000
00000000
00000000
03300000
00000000
00000000
00000000
,
10000000
00000000
00100000
00000000
10000000
00000000
00000000
01000000
00000000
00000000
00100000
00000000
00010000
00000000
01000000
00000000
,
00001000
00000000
00010000
00000000
00000100
00000000
00000000
00001000
00000000
00000000
00000100
00000000
00000010
00000000
00000010
00000000
,
00000001
00000100
00000010
00001000
00000100
00010000
00001000
00100000
,
00010000
01000000
00100000
10000000
01000000
10000000
00100000
00000000
,
01100000
00000000
10010000
00000000
10010000
00100000
01000000
00000000
,
00100000
01000000
00100000
01000000
00100000
01000000
00100000
01000000
,
00010000
01000000
00010000
01000000
10000000
01000000
10000000
01000000
,
00001000
00010000
00100000
00010000
00000010
00001000
00010000
00001000
,
00000010
00000100
00001000
00000100
00000001
00000110
00000000
00000000
,
00000001
00000010
00001000
00010000
01000000
10000000
00010000
10000000
,
00100000
00010000
00001000
00000100
00000010
00000010
00000110
00000000
,
00000001
00000000
00000000
00000000
00000000
00000000
00000011
00000000
00000000
00000000
00000000
00000110
00000000
00000000
00000000
00010100
00000000
00000000
00000000
00000000
00011000
00000000
00000000
00000000
,
00022000
00000000
00000000
00033000
,
00001000
00100000
00010000
00100000
00010000
01000000
00100000
10000000
,
01000000
00100000
01000000
00010000
01000000
00100000
00001000
00010000
,
00000100
00001000
00000100
00000001
00000100
00001000
00000100
00000001
,
00000100
00000010
00000001
00001000
00000020
00000000
00000030
00000000
,
00000100
00000001
00000100
00000010
00001000
00000100
00000010
00000100
,
00010000
00001000
00100000
00010000
01000000
00100000
10000000
00100000
,
01000000
10000000
01000000
00010000
01000000
10000000
01000000
00010000
,
02000000
00000000
00000000
03000000
,
00010000
00010000
00100000
00100000
,
00001000
00001000
00010000
00010000
,
00000010
00000010
00001000
00001000
,
00000100
00000100
00010000
00010000
,
00001000
00100000
00010000
01000000
,
00010000
00100000
01000000
01000000
,
10000000
01000000
00010000
00001000
,
00011000
00000000
00011000
00000000
00010000
00001000
00011000
00000000
,
00000100
00000000
00001000
00000000
00000010
00000000
00000000
00000110
00000000
00000000
00000100
00000000
00000001
00000000
00000010
00000000
,
00000100
00000000
00010000
00000000
00001000
00000000
00000000
00011000
00000000
00000000
00001000
00000000
01000000
00000000
01000000
00000000
,
00100000
00000000
10000000
00000000
00010000
00000000
00000000
00110000
00000000
00000000
00100000
00000000
01000000
00000000
10000000
00000000
,
01000000
00000000
00010000
00000000
00001000
00000000
00000000
00011000
00000000
00000000
00000100
00000000
00001000
00000000
00000000
00000000
,
00001100
00000000
00000011
00000000
,
00000101
00000000
00010100
00000000
,
00011000
00110000
01010000
10100000
,
01100000
00000000
10010000
00000000
00000000
00100000
01000000
00100000
,
10000000
01000000
00010000
01000000
10000000
00100000
00010000
00000010
,
00000000
00000100
00000010
00000100
00000001
00000100
00001000
00000000
,
00100000
00000000
00000000
01000000
00000000
00000000
00100000
00000000
00000000
01000000
00000000
00000000
00100000
00000000
00010000
01000000
00000000
00000000
00100000
00000000
10000000
01000000
00000000
00000000
,
00200000
01300000
00200000
01300000
00001000
00010000
00000010
00000000
,
00000010
00000100
00000010
00000100
00000001
00000100
00001000
00000100
,
00000020
00000130
00000020
00000130
00001000
00010000
00011000
00000000
,
00010000
00100000
00010000
00100000
10000000
00100000
10000000
00100000
,
00010000
00100000
10000000
00100000
00010000
00001000
00010000
00000000
,
00000110
00000000
00000001
00000010
00001000
00010000
00001000
00000000
,
00010100
00011000
01010000
01100000
,
00010000
00100000
10000000
00100000
00010000
01000000
10000000
01000000
,
00010000
10000000
00010000
10000000
00100000
00010000
00001000
00000000
,
00001000
00000010
00001000
00000000
00010000
00100000
00010000
00000000
,
00001000
00000010
00001000
00010000
00100000
00010000
00100000
00000000
,
00100000
10000000
01000000
00100000
00001000
00010000
00001000
00000000
,
00000010
00000001
00000100
00001000
00010000
00001000
00010000
00001000
,
00022000
00000000
00000000
00000000
,
00000000
00000000
00000000
00000000
,
00033000
00000000
00000000
00000000
,
00000000
00000000
00000000
00000000
;
