
//----- song ID: cbme -----//
#TITLE:Come Back To Me;
#ARTIST:MK\&Kanae Asaba;
#BANNER:Come Back To Me.png;
#BACKGROUND:Come Back To Me-bg.png;
#CDTITLE:./CDTitles/DDR A20 PLUS.png;
#MUSIC:Come Back To Me.ogg;
#SAMPLESTART:1.393;
#SAMPLELENGTH:15;
#BPMS:0=172;
#NOTES:
     dance-single:
     :
     Beginner:
     3:
     :
0000
0000
0000
0000
,
0000
0000
0000
0000
,
0000
0000
0000
0000
,
0000
0000
0000
0000
,
0000
0000
0000
0000
,
0000
0000
0000
0000
,
0000
0000
0000
0000
,
0000
0000
0000
0000
,
0000
0000
0000
0000
,
1000
0000
0000
0000
,
0100
0000
0000
0000
,
0010
0000
0000
0000
,
0100
0000
0000
0000
,
0001
0000
0000
0000
,
0010
0000
0000
0000
,
0100
0000
0000
0000
,
0010
0000
0000
0000
,
0001
0000
0010
0000
,
0001
0000
0010
0000
,
0100
0000
0001
0000
,
0100
0000
0000
0000
,
1000
0000
0010
0000
,
1000
0000
0010
0000
,
0100
0000
1000
0000
,
0100
0000
0000
0000
,
1001
0000
0000
0000
,
0010
0010
0010
0000
,
1001
0000
0000
0000
,
0100
0100
0100
0000
,
1001
0000
0000
0000
,
0001
0001
0001
0000
,
1001
0000
0000
0000
,
1000
1000
1000
0000
,
1001
0000
0000
0000
,
1000
0000
0100
0000
,
1001
0000
0000
0000
,
0001
0000
0100
0000
,
1001
0000
0000
0000
,
0001
0000
0010
0000
,
1001
0000
0000
0000
,
1000
0000
0010
0000
,
0001
0000
0100
0000
,
0010
0010
0010
0000
,
0001
0000
0100
0000
,
1000
0000
0000
0000
,
1000
0000
0100
0000
,
0010
0010
0010
0000
,
1000
0000
0100
0000
,
0001
0000
0000
0000
,
0020
0000
0000
0000
,
0030
0000
0000
0000
,
0002
0000
0000
0000
,
0003
0000
0000
0000
,
0200
0000
0000
0000
,
0300
0000
0000
0000
,
2000
0000
0000
0000
,
3000
0000
0000
0000
,
0010
0000
1000
0000
,
0100
0100
0100
0000
,
0010
0000
0100
0000
,
1000
0000
0000
0000
,
0010
0000
0001
0000
,
0100
0100
0100
0000
,
0010
0000
0100
0000
,
0001
0000
0000
0000
,
2002
0000
0000
0000
,
3003
0000
0000
0000
,
1001
0000
0000
0000
,
0010
0010
0010
0000
,
0001
0000
0100
0000
,
0010
0000
1000
0000
,
0100
0000
0010
0000
,
0001
0000
0000
0000
,
0010
0000
0100
0000
,
1001
0000
0000
0000
,
1000
0000
1000
0000
,
0100
0000
0100
0000
,
0010
0010
0010
0000
,
0100
0100
0100
0000
,
0001
0000
0001
0000
,
0100
0000
0100
0000
,
0010
0010
0010
0000
,
0100
0100
0100
0000
,
1001
0000
0000
0000
,
0000
0000
0000
0000
;
#NOTES:
     dance-single:
     :
     Easy:
     7:
     :
0000
0000
0000
0000
,
0000
0000
0000
0000
,
0000
0000
0000
0000
,
0000
0000
0000
0000
,
0000
0000
0000
0000
,
0000
0000
0000
0000
,
0000
0000
0000
0000
,
0000
0000
0000
0000
,
0000
0000
0000
0000
,
1000
0000
0100
0000
,
1000
0000
0010
0000
,
0001
0000
0100
0000
,
0001
0000
0010
0000
,
1000
0000
0100
0000
,
0010
0000
0001
0000
,
1000
0000
0010
0000
,
0100
0000
0001
0000
,
1000
1000
1000
0000
,
0100
0100
0100
0000
,
0010
0010
0010
0000
,
0001
0001
0001
0000
,
1000
0001
1000
0001
,
1000
0001
1000
0001
,
0100
0010
0100
0010
,
0000
0000
0000
0000
,
1001
0100
0010
1000
,
0010
0100
0010
0000
,
1001
0100
0010
0001
,
0010
0100
0010
0000
,
1001
0100
0010
1000
,
0001
0100
0010
0000
,
1000
0010
1000
0001
,
0100
0000
0000
0100
0000
0000
0100
0000
,
1001
0010
0100
0001
,
0100
0010
0100
0000
,
1001
0010
0100
1000
,
0100
0010
0100
0000
,
1001
0010
0100
0001
,
1000
0010
0100
0000
,
0001
0100
0001
1000
,
0010
0000
0000
0010
0000
0000
0010
0000
,
1000
0100
0001
0100
,
1000
0100
0001
0100
,
1000
0000
1000
0000
0010
0100
0010
0000
,
0001
0000
0001
0000
0010
0100
0010
0000
,
0001
0100
1000
0100
,
0001
0100
1000
0100
,
0001
0000
0001
0000
0010
0100
0010
0000
,
1000
0000
1000
0000
0010
0100
0010
0000
,
0002
0000
0003
0000
,
0200
0000
0300
0000
,
0020
0000
0030
0000
,
2000
0000
3000
0000
,
0002
0000
0003
0000
,
0020
0000
0030
0000
,
0200
0000
0300
0000
,
2000
0000
3000
0000
,
1000
1000
1000
0000
,
0010
0010
0010
0000
,
0100
0100
0100
0000
,
0001
0001
0001
0000
,
0001
0010
0001
0000
,
1000
0010
1000
0000
,
0010
1000
0010
0100
,
0001
1000
0010
0100
,
0220
0000
0000
0000
,
0330
0000
0000
0000
,
1001
0000
0000
0000
,
0010
0010
0010
1001
,
0001
0100
0010
0100
,
0001
0010
0100
0100
,
1000
0010
0100
0010
,
1000
0001
0100
0100
,
0010
1000
0100
1000
,
0010
0000
0000
0010
0000
0000
0010
0000
,
0001
0100
0010
1000
,
0100
0001
0100
1000
,
0001
0010
0100
1000
,
0010
0000
0100
0000
0001
1000
0001
0000
,
1000
0010
0100
0001
,
0010
1000
0010
0001
,
1000
0100
0010
0001
,
0100
0000
0010
0000
1000
0001
1000
0000
,
1001
0000
0000
0000
,
0000
0000
0000
0000
;
#NOTES:
     dance-single:
     :
     Medium:
     11:
     :
0000
0000
0000
0000
,
0000
0000
0000
0000
,
0000
0000
0000
0000
,
0000
0000
0000
0000
,
0000
0000
0000
0000
,
0000
0000
0000
0000
,
0000
0000
0000
0000
,
0000
0000
0000
0000
,
0000
0000
0000
0000
,
1000
1000
0100
0000
,
0010
0010
0100
0000
,
0001
0001
0100
0000
,
0010
0010
0100
0000
,
1000
1000
0010
0000
,
0100
0100
0010
0000
,
0001
0001
0010
0000
,
0100
0100
0010
0000
,
0001
0100
0001
0100
,
0010
1000
0010
1000
,
0100
1000
0100
1000
,
0001
0010
0001
0010
,
0001
0100
0010
0000
0100
0000
0100
0000
,
1000
0100
0010
0000
0100
0000
0100
0000
,
0001
0010
0001
0010
0100
1000
0100
1000
,
0000
0000
0000
0000
,
1001
0000
0000
0010
1000
0010
0000
0010
,
0000
0100
0001
0000
0001
0100
0001
0000
,
1001
0000
0000
0010
0001
0010
0000
0010
,
0000
0100
1000
0000
1000
0100
1000
0000
,
1001
0000
0000
0001
1000
0001
0000
0001
,
0000
0100
0010
0000
0010
0100
0010
0000
,
0110
0000
0000
0010
0100
0010
0000
0010
,
2000
0000
0000
3002
0000
0000
1003
0000
,
1001
0000
0000
0100
0001
0100
0000
0100
,
0000
0010
1000
0000
1000
0010
1000
0000
,
1001
0000
0000
0100
1000
0100
0000
0100
,
0000
0010
0001
0000
0001
0010
0001
0000
,
1001
0000
0000
1000
0001
1000
0000
1000
,
0000
0010
0100
0000
0100
0010
0100
0000
,
0110
0000
0000
0100
0010
0100
0000
0100
,
0002
0000
0000
2003
0000
0000
3001
0000
,
1001
0000
1000
0010
0100
0001
0100
0000
,
0000
0000
0001
0010
0100
1000
0100
0000
,
0000
0000
1000
0010
0100
0010
1000
0001
,
1000
0100
0010
0000
0001
0100
0010
0000
,
1001
0000
0001
0010
0100
1000
0100
0000
,
0000
0000
1000
0010
0100
0001
0100
0000
,
0000
0000
0001
0010
0100
0010
0001
1000
,
0001
0100
0010
0000
1000
0100
0010
0000
,
0002
0000
0100
0000
,
1000
0000
0103
0000
,
0020
0000
0130
0000
,
0200
0000
0310
0000
,
2000
0000
0100
0000
,
0001
0000
3100
0000
,
0020
0000
0130
0000
,
0200
0000
0310
0000
,
1000
0001
0100
0100
,
0001
1000
0100
0100
,
1000
0010
0100
0100
,
0001
0010
0100
0100
,
1000
0001
0010
0000
0001
0100
0010
0000
,
1000
0001
0100
0000
0010
1000
0100
0000
,
1000
0010
1000
0010
0100
0001
0100
0001
,
0010
0100
1000
0010
0100
0001
0010
0200
,
0000
0000
0000
0000
,
0000
0000
0000
0300
,
1001
0000
0000
0010
0100
0010
0100
0000
,
1000
1000
0001
0001
0010
0000
0110
0000
,
1001
0000
0000
0010
1000
0010
0100
0010
,
0000
0100
0001
0100
0001
0010
0001
0000
,
1001
0000
0000
0100
0001
0100
0010
0100
,
0000
0010
1000
0010
1000
0100
1000
0000
,
1001
0000
0000
0010
0100
0010
0000
0010
,
2000
0000
0000
3200
0000
0000
0310
0000
,
1001
0000
0001
0100
0010
1000
0100
0010
,
0001
1000
0010
0100
0001
1000
0010
0100
,
1000
0100
0001
0100
1000
0100
0001
0100
,
0010
1000
0001
1000
0100
0010
0001
0000
,
1001
0000
1000
0100
0010
0001
0100
0010
,
1000
0001
0010
0100
1000
0001
0010
0100
,
0001
0100
1000
0010
0100
0010
1000
0100
,
0010
0001
0100
0010
1000
0001
1000
0000
,
0110
0000
0000
0000
,
0000
0000
0000
0000
;
#NOTES:
     dance-single:
     :
     Hard:
     14:
     :
0000
0000
0000
0000
,
0000
0000
0000
0000
,
0000
0000
0000
0000
,
0000
0000
0000
0000
,
0000
0000
0000
0000
,
0000
0000
0000
0000
,
0000
0000
0000
0000
,
0000
0000
0000
0000
,
0000
0000
0000
0000
,
0010
0000
1000
0000
0100
0000
0000
0100
,
0010
0001
1000
0000
,
0010
0000
0001
0000
0100
0000
0000
0100
,
0010
1000
0001
0000
,
0001
0000
0010
0000
1000
0000
0000
1000
,
0100
0010
0001
0000
,
1000
0000
0010
0000
0001
0000
0000
0001
,
0100
0010
1000
0000
,
0010
0010
0010
0010
,
0100
0100
0100
0100
,
0010
0010
0010
0010
,
0100
0100
0100
0100
,
1000
0010
1000
0010
1000
0100
0010
0001
,
0100
0001
0100
0001
0010
0001
0100
0010
,
1000
0100
1000
0000
0001
0100
0001
0000
1000
0010
1000
0000
0001
0010
0001
0000
,
0000
0000
0000
0000
,
1001
0000
0000
0000
0010
0000
0100
1000
0100
0000
0010
0000
0100
0000
0001
0000
,
0100
0000
1000
0100
0001
0000
0100
0000
1000
0000
0100
0000
0001
0000
0000
0000
,
1001
0000
0000
0000
0010
0000
0100
0001
0100
0000
0010
0000
0100
0000
1000
0000
,
0100
0000
0001
0100
1000
0000
0100
0000
0001
0000
0100
0000
1000
0000
0000
0000
,
1001
0000
0000
0000
0010
0000
0100
1000
0100
0000
0001
0000
0100
0000
0010
0000
,
0100
0000
1000
0100
0001
0000
0010
0000
0001
0000
0100
0000
1000
0000
0000
0000
,
1001
0000
0000
0000
0010
0000
0100
0001
1000
0000
0001
0010
0100
0000
0010
0000
,
0002
0000
0000
0023
0000
0000
1030
0000
,
1001
0000
0000
0000
0100
0000
0010
0001
0010
0000
0100
0000
0010
0000
1000
0000
,
0010
0000
0001
0010
1000
0000
0010
0000
0001
0000
0010
0000
1000
0000
0000
0000
,
1001
0000
0000
0000
0100
0000
0010
1000
0010
0000
0100
0000
0010
0000
0001
0000
,
0010
0000
1000
0010
0001
0000
0010
0000
1000
0000
0010
0000
0001
0000
0000
0000
,
1001
0000
0000
0000
0100
0000
0010
0001
0010
0000
1000
0000
0010
0000
0100
0000
,
0010
0000
0001
0010
1000
0000
0100
0000
1000
0000
0010
0000
0001
0000
0000
0000
,
1001
0000
0000
0000
0100
0000
0010
1000
0001
0000
1000
0100
0010
0000
0100
0000
,
2000
0000
0000
3200
0000
0000
0301
0000
,
1001
0000
0000
0000
0001
0010
0100
0000
0000
0000
0001
0010
0100
0000
0000
0000
,
0000
0000
0000
0000
0010
0100
1000
0000
0000
0000
0010
0100
1000
0000
0000
0000
,
0001
0100
1000
1000
0100
0001
0001
0000
,
1000
0100
0001
0001
0100
1000
1000
0000
,
0000
0000
0000
0000
1000
0010
0100
0000
0000
0000
1000
0010
0100
0000
0000
0000
,
0000
0000
0000
0000
0010
0100
0001
0000
0000
0000
0010
0100
0001
0000
0000
0000
,
0001
0010
1000
1000
0010
0001
0001
0010
,
0100
1000
0100
1000
0010
1000
0010
1000
0010
0000
0100
0000
0000
0000
0100
0000
,
1001
0000
0010
0100
0001
0000
0010
0100
,
0001
0000
0010
0100
1000
0000
0010
0100
,
1000
0000
0001
0100
0010
0000
0001
0100
,
0010
0000
1000
0100
0010
0000
1000
0100
,
0010
0000
0010
0001
0100
0000
0010
0001
,
0100
0000
0010
1000
0100
0000
0010
1000
,
0100
0000
0001
0100
1000
0000
0001
0100
,
1000
0000
0001
0010
1000
0000
0001
0010
,
1000
0010
0001
0100
,
1000
0010
0001
0100
,
1000
0100
0001
0010
,
1000
0100
0001
0010
,
1000
0100
1000
0100
0010
0100
0010
0000
,
0001
0100
0001
0100
0010
0100
0010
0000
,
1000
0010
0100
0000
0010
0100
0001
0000
1000
0100
0010
0000
0100
0010
0001
0000
,
1000
0010
0100
0000
0001
0010
0100
0000
1000
0001
1000
0001
1000
0001
2000
0002
,
0000
0000
0000
0000
,
0000
0000
0000
3003
,
1001
0000
0000
0010
0100
0010
0100
0010
,
1000
0100
0010
0001
1000
0100
0110
0000
,
1001
0000
0000
0000
0100
0000
0010
1000
0100
0000
1000
0000
0001
0000
0100
0000
,
0010
0000
1000
0100
0001
0000
0100
0000
0010
0000
0100
0000
0110
0000
0000
0000
,
1001
0000
0000
0000
0100
0000
0010
0001
0100
0000
0001
0000
1000
0000
0100
0000
,
0010
0000
0001
0100
1000
0000
0100
0000
0010
0000
0100
0000
0110
0000
0000
0000
,
1001
0000
0000
0000
0110
0000
0100
0001
0010
0000
0100
1000
0010
0000
0100
0000
,
0002
0010
1003
2000
0010
3001
1001
0000
,
0110
0000
0000
0000
1000
0100
0010
0000
0001
0000
1000
0100
0010
0000
0000
0000
,
1001
0000
0000
0000
0100
0010
0001
0000
1000
0000
0100
0010
0001
0000
0000
0000
,
0001
0100
0100
1000
0100
0100
0001
0100
,
0010
1000
0100
0001
0100
0010
0110
0000
,
1001
0000
0000
0000
0001
0100
0010
0000
1000
0000
0100
0010
0001
0000
0000
0000
,
1001
0000
0000
0000
0100
0010
1000
0000
0001
0000
0010
0100
1000
0000
0000
0000
,
1000
0100
0001
0100
1000
0010
0100
0001
,
0010
0001
0010
0001
0100
0010
0100
0010
1000
0000
0010
0000
0000
0000
0010
0000
,
1001
0000
0000
0000
,
0000
0000
0000
0000
;
#NOTES:
     dance-single:
     :
     Challenge:
     16:
     :
0000
0000
0000
0000
,
0000
0000
0000
0000
,
0000
0000
0000
0000
,
0000
0000
0000
0000
,
0000
0000
0000
0000
,
0000
0000
0000
0000
,
0000
0000
0000
0000
,
0000
0000
0000
0000
,
0000
0000
0000
0000
0000
0001
1000
0010
,
0000
0100
0010
0001
0000
0010
1000
0200
,
0000
0320
0000
0130
0000
1100
0000
0202
,
0000
0000
0000
0000
,
0000
0303
0000
0000
,
0000
0000
1000
0002
0000
0003
0010
0002
,
0000
0203
0000
2300
0000
3200
0000
0000
,
0301
0000
2002
0000
,
3003
0000
1000
0010
0000
0100
0002
0000
,
1003
0100
1000
0100
0010
0001
0010
0001
,
1000
0010
1000
0010
0100
0001
0100
0001
,
1000
0010
0001
0010
1000
0100
0001
0100
,
1000
0010
0001
1000
0001
0010
1000
0001
,
1000
0001
0010
0000
0001
1000
0010
0000
1000
0001
0100
0000
0001
1000
0100
0000
,
1000
0100
0010
0000
0100
0010
0001
0000
0100
0010
1000
0000
0001
0100
0010
0000
,
1000
0100
0010
0001
0100
0010
1000
0001
1000
0010
0100
0001
0010
0100
1000
0000
,
0000
0000
0000
0000
,
1001
0000
0000
0000
1010
0000
0001
0010
1000
0010
0001
0000
0100
0000
0101
0000
,
0000
0000
0100
0010
1000
0000
0100
0010
0001
0010
0100
0000
1000
0000
0001
0000
,
1001
0000
0000
0000
0011
0000
1000
0100
0001
0100
1000
0000
0100
0000
1100
0000
,
0000
0000
0100
0010
0001
0000
0100
0010
1000
0010
0100
0000
0001
0000
1000
0000
,
1001
0000
0000
0000
0101
0000
1000
0100
0001
0100
1000
0000
0010
0000
1010
0000
,
0000
0000
0010
0100
0001
0000
0010
0100
1000
0100
0010
0000
0100
0000
0010
0000
,
1001
0000
0000
0000
1100
0000
0001
0010
1000
0010
0001
0000
0010
0000
0011
0000
,
1001
0000
0001
1000
0010
0000
0110
0000
0100
0001
1000
0000
1001
0000
0000
0000
,
0110
0000
0000
0000
0101
0000
0001
0100
0010
0100
0001
0010
0100
0000
1100
0000
,
0000
0000
1000
0100
0001
0000
0100
1000
0010
0100
0001
0000
0010
0000
0100
0000
,
0110
0000
0000
0000
1100
0000
1000
0100
0010
0100
1000
0010
0100
0000
0101
0000
,
0000
0000
0001
0100
1000
0000
0100
0001
0010
0100
1000
0000
0010
0000
0100
0000
,
0110
0000
0000
0000
1001
0000
0001
0100
0010
0100
1000
0100
0001
0000
1000
0000
,
0100
0000
1000
0100
0001
0000
0100
0000
0001
0100
1000
0000
0001
0000
1000
0000
,
1001
0000
0001
0000
0100
0000
0100
0010
1000
0100
0010
0000
0001
0100
0010
0000
,
2000
0000
3001
0002
0000
0013
0020
0000
,
0130
0000
1200
0301
0100
1000
0010
0000
,
1001
0000
0201
1300
0100
0001
0010
0000
,
1100
0010
0001
0100
1010
0100
0001
0010
,
0101
0010
1000
0100
0011
1000
0001
0000
,
0110
0000
0000
0000
0001
0100
1000
0000
0100
0000
0001
0000
0010
0000
0000
0000
,
0110
0000
0000
0000
1000
0100
0001
0000
0100
0000
1000
0000
0020
0000
0000
0000
,
0130
0001
0010
0100
1000
0010
0100
0001
,
1000
0100
0010
0100
1000
0001
0100
0010
0100
0001
1000
0010
0100
0010
1000
0010
,
0100
0000
0001
0000
0010
0000
0100
0010
,
0000
0002
0000
2003
0000
3020
0000
0230
,
0000
0000
0000
0300
,
0000
0000
0000
0000
,
0000
0000
0001
0010
0100
0000
1000
0010
,
0000
0200
0000
0302
0000
2003
0000
3020
,
0000
0000
0000
0030
,
0000
0000
0000
0000
0000
0000
0000
0000
0000
0000
1000
0010
1000
0000
0101
0000
,
0000
0000
0001
0010
0001
0000
1100
0000
0000
0000
1000
0100
1000
0000
0011
0000
,
0000
1010
0000
0101
0000
0011
0000
2200
,
0000
0000
0000
3300
,
0000
0000
0000
0000
,
0000
0000
0001
0010
1000
0010
0001
1000
,
0100
0001
0100
1000
0010
0100
0001
1000
,
0001
0100
0010
0000
1000
0100
0010
0000
0001
1000
0100
0000
1000
0001
0010
0000
,
0001
0010
1000
0010
0001
1000
0100
0001
0100
1000
0010
0100
0001
0010
0100
1000
,
0001
0001
0001
0001
,
0001
0001
1000
0010
0000
0100
0001
0000
,
1001
0000
0000
1000
1000
1000
1000
1000
,
1000
0100
0010
0001
1000
0100
0010
0001
1000
0100
0010
0001
1000
0000
0001
0000
,
1001
0000
0000
0000
1000
0000
0001
0010
1000
0000
0010
0000
0001
0000
0100
0000
,
1000
0000
0001
0010
1000
0000
0010
0000
1000
0010
0001
0000
1000
0000
0100
0000
,
0101
0000
0000
0000
0001
0000
1000
0010
0100
0001
0010
0000
1000
0000
0010
0000
,
0001
0000
1000
0100
0001
0000
0100
0000
0001
0100
1000
0000
0010
0000
0100
0000
,
0101
0000
0000
0000
1000
0000
0001
0010
0100
0010
0001
1000
0010
0000
0100
0000
,
0101
0000
0011
1010
0000
1100
0101
0000
,
0001
0000
0010
0000
0100
0010
1000
0000
0010
0000
1000
0010
0100
0000
0001
0000
,
0100
0000
0010
0000
0100
0010
0001
0000
0010
0000
0001
0010
0100
0000
1000
0000
,
0001
1000
0010
0000
0001
0000
0010
0000
1000
0001
0010
0000
1000
0000
0010
0000
,
0100
1000
0001
0000
0100
0000
1000
0000
0100
0001
1000
0000
0100
0000
0010
0000
,
0110
0000
0000
0000
0001
0100
0010
0000
1020
0000
0031
0000
1000
0000
0100
0000
,
0001
0000
0000
0000
0001
0010
0100
0000
1200
0000
0301
0000
0100
0000
1000
0000
,
0010
0010
0100
0100
0001
0100
0010
1000
,
0001
0100
0001
0100
0010
1000
0010
1000
0100
0010
0001
1000
0010
0100
0001
1000
,
0001
0000
0000
0000
,
0000
0000
0000
0000
;
#NOTES:
     dance-double:
     :
     Easy:
     7:
     :
00000000
00000000
00000000
00000000
,
00000000
00000000
00000000
00000000
,
00000000
00000000
00000000
00000000
,
00000000
00000000
00000000
00000000
,
00000000
00000000
00000000
00000000
,
00000000
00000000
00000000
00000000
,
00000000
00000000
00000000
00000000
,
00000000
00000000
00000000
00000000
,
00000000
00000000
00000000
00000000
,
00000001
00000000
00000010
00000000
,
00000001
00000000
00000100
00000000
,
00000010
00000000
00010000
00000000
,
00001000
00000000
00010000
00000000
,
00001000
00000000
01000000
00000000
,
00010000
00000000
00100000
00000000
,
00010000
00000000
10000000
00000000
,
01000000
00000000
00100000
00000000
,
00001000
00001000
00001000
00000000
,
00010000
00010000
00010000
00000000
,
00001000
00001000
00001000
00000000
,
00010000
00010000
00010000
00000000
,
00000010
00001000
00000010
00001000
,
00000001
00000100
00000001
00000010
,
00000100
00001000
00000100
00010000
,
00000000
00000000
00000000
00000000
,
00011000
00001000
01000000
00010000
,
00100000
00010000
00100000
00000000
,
01100000
10000000
00010000
10000000
,
01000000
00100000
00001000
00000000
,
00011000
00010000
00000100
00001000
,
00000010
00001000
00000010
00000000
,
00000100
00000001
00000010
00000001
,
00000100
00000000
00000000
00000100
00000000
00000000
00000100
00000000
,
00001000
00010000
00100000
00100000
,
01000000
00010000
10000000
00000000
,
01000000
00100000
00010000
00010000
,
01000000
00001000
00010000
00000000
,
00000100
00001000
00000010
00000010
,
00000100
00000001
00000010
00000000
,
00000001
00000100
00001000
00001000
,
00010000
00000000
00000000
00010000
00000000
00000000
00010000
00000000
,
00100000
01000000
10000000
01000000
,
00010000
01000000
10000000
01000000
,
00010000
00000000
00010000
00000000
00100000
00001000
00100000
00000000
,
00001000
00000000
00001000
00000000
00010000
00000010
00010000
00000000
,
00001000
00000100
00000001
00000100
,
00001000
00000100
00000001
00000100
,
00001000
00000000
00001000
00000000
00000100
00010000
00000100
00000000
,
00010000
00000000
00010000
00000000
00001000
01000000
00001000
00000000
,
00200000
00000000
00300000
00000000
,
00020000
00000000
00030000
00000000
,
00002000
00000000
00003000
00000000
,
00000200
00000000
00000300
00000000
,
00000020
00000000
00000030
00000000
,
00002000
00000000
00003000
00000000
,
00020000
00000000
00030000
00000000
,
02000000
00000000
03000000
00000000
,
10000000
10000000
10000000
00000000
,
01000000
00000000
00100000
00000000
,
00010000
00010000
00010000
00000000
,
00001000
00000000
00000100
00000000
,
00001000
00001000
00001000
00000000
,
00000010
00000000
00000100
00000000
,
00000001
00000001
00000001
00000000
,
00000100
00000000
00001000
00000000
,
00022000
00000000
00000000
00000000
,
00033000
00000000
00000000
00000000
,
00011000
00000000
00000000
00000000
,
00001000
00010000
00001000
00011000
,
00100000
00010000
00100000
01000000
,
10000000
01000000
00010000
00010000
,
00001000
00000010
00000100
00000010
,
00000001
00000100
00000010
00000010
,
00000100
00001000
00010000
00001000
,
00010000
00010000
00010000
00000000
,
00001000
01000000
00010000
00100000
,
00001000
01000000
00010000
00100000
,
01000000
10000000
00100000
10000000
,
01000000
00000000
00010000
00000000
00001000
00010000
00001000
00000000
,
00010000
00000100
00001000
00000010
,
00010000
00000100
00001000
00000010
,
00000100
00000001
00000010
00000001
,
00000100
00000000
00001000
00000000
00010000
00001000
00010000
00000000
,
00011000
00000000
00000000
00000000
,
00000000
00000000
00000000
00000000
;
#NOTES:
     dance-double:
     :
     Medium:
     11:
     :
00000000
00000000
00000000
00000000
,
00000000
00000000
00000000
00000000
,
00000000
00000000
00000000
00000000
,
00000000
00000000
00000000
00000000
,
00000000
00000000
00000000
00000000
,
00000000
00000000
00000000
00000000
,
00000000
00000000
00000000
00000000
,
00000000
00000000
00000000
00000000
,
00000000
00000000
00000000
00000000
,
00000001
00000010
00000001
00000000
,
00000010
00000100
00001000
00000000
,
00000010
00001000
00000010
00000000
,
00010000
00001000
00010000
00000000
,
00001000
00100000
00001000
00000000
,
00010000
00100000
01000000
00000000
,
00100000
10000000
00100000
00000000
,
10000000
01000000
00100000
00000000
,
10000000
01000000
10000000
01000000
,
00100000
00001000
00100000
00001000
,
00010000
00000100
00010000
00000100
,
00001000
00000010
00001000
00000010
,
00000100
00000001
00000010
00000000
00000100
00000000
00000100
00000000
,
00001000
00000100
00010000
00000000
00001000
00000000
00001000
00000000
,
00100000
00010000
00100000
00010000
00100000
01000000
10000000
01000000
,
00000000
00000000
00000000
00000000
,
10010000
00000000
00000000
01000000
01000000
01000000
00000000
01000000
,
00000000
00010000
00001000
00000000
00011000
00000000
00010010
00000000
,
00001010
00000000
00000000
00000100
00000100
00000100
00000000
00000100
,
00000000
00001000
00010000
00000000
00011000
00000000
00101000
00000000
,
00110000
00000000
00000000
01000000
01000000
01000000
00000000
01000000
,
00000000
00010000
00001000
00000000
00011000
00000000
00010100
00000000
,
00001100
00000000
00000000
00000100
00000100
00000100
00000000
00000100
,
00002000
00000000
00000000
00003002
00000000
00000000
00001003
00000000
,
00001001
00000000
00000000
00000010
00000010
00000010
00000000
00000010
,
00000000
00001000
00010000
00000000
00011000
00000000
01001000
00000000
,
01010000
00000000
00000000
00100000
00100000
00100000
00000000
00100000
,
00000000
00010000
00001000
00000000
00011000
00000000
00010100
00000000
,
00001100
00000000
00000000
00000010
00000010
00000010
00000000
00000010
,
00000000
00001000
00010000
00000000
00011000
00000000
00101000
00000000
,
00110000
00000000
00000000
00100000
00100000
00100000
00000000
00100000
,
00020000
00000000
00000000
20030000
00000000
00000000
30010000
00000000
,
10010000
00000000
10000000
00100000
01000000
00010000
00100000
00000000
,
00000000
00000000
00000100
00001000
00000100
00000010
00000001
00000000
,
00000000
00000000
00000001
00000100
00001000
00000100
00001000
00010000
,
00001000
01000000
00010000
00100000
00001000
00010000
00000010
00000000
,
00001001
00000000
00000001
00000010
00000100
00001000
00000010
00000000
,
00000000
00000000
01000000
00010000
01000000
00100000
10000000
00000000
,
00000000
00000000
10000000
01000000
00010000
01000000
00010000
00001000
,
00010000
00000100
00001000
00000010
00010000
00001000
00100000
00000000
,
00020000
00000000
01000000
00000000
,
10000000
00000000
01030000
00000000
,
00200000
00000000
00301000
00000000
,
00020000
00000000
00030100
00000000
,
00002000
00000000
00000100
00000000
,
00000001
00000000
00003100
00000000
,
00000020
00000000
00010030
00000000
,
00002000
00000000
01003000
00000000
,
00010000
10000000
01000000
01000000
,
00100000
00001000
00010000
00010000
,
00000100
00001000
00000010
00000010
,
00000100
00000001
00000100
00000100
,
00000001
00000010
00000001
00000000
00000010
00000100
00001000
00000000
,
00000100
00010000
00000100
00000000
00010000
00001000
00100000
00000000
,
00010000
01000000
00010000
01000000
00100000
10000000
00100000
10000000
,
01000000
00100000
00010000
00100000
00001000
00010000
00001000
00020000
,
00000000
00000000
00000000
00000000
,
00000000
00000000
00000000
00030000
,
00011000
00000000
00000000
00010000
00001000
00010000
00001000
00000000
,
00001000
00001000
00010000
00010000
00001000
00000000
00010000
00000000
,
00011000
00000000
00000000
00000100
00001000
00000100
00000010
00000100
,
00000000
00000010
00000001
00000010
00000001
00000100
00000001
00000000
,
00001001
00000000
00000000
00000100
00000010
00000100
00001000
00000100
,
00000000
00010000
00001000
00010000
00001000
01000000
00010000
00000000
,
01100000
00000000
00000000
01000000
10000000
01000000
00000000
01000000
,
00200000
00000000
00000000
00320000
00000000
00000000
00031000
00000000
,
00011000
00000000
00000010
00001000
00000001
00000100
00000001
00000010
,
00000100
00001000
00000100
00010000
00001000
00100000
00010000
00000000
,
01000000
00000000
00100000
10000000
01000000
00100000
00010000
01000000
,
00001000
00100000
00001000
00010000
00000100
00001000
00000010
00000000
,
00001001
00000000
00000100
00000010
00001000
00000001
00000010
00000100
,
00010000
00001000
00010000
01000000
00100000
00010000
10000000
00000000
,
00010000
00000000
01000000
00100000
10000000
01000000
00100000
00001000
,
00010000
00000100
00001000
00000100
00000010
00000001
00001000
00000000
,
00001001
00000000
00000000
00000000
,
00000000
00000000
00000000
00000000
;
#NOTES:
     dance-double:
     :
     Hard:
     14:
     :
00000000
00000000
00000000
00000000
,
00000000
00000000
00000000
00000000
,
00000000
00000000
00000000
00000000
,
00000000
00000000
00000000
00000000
,
00000000
00000000
00000000
00000000
,
00000000
00000000
00000000
00000000
,
00000000
00000000
00000000
00000000
,
00000000
00000000
00000000
00000000
,
00000000
00000000
00000000
00000000
,
00000001
00000000
00000100
00000000
00000000
00000000
00000100
00000010
,
00000010
00000100
00000000
00001000
,
00010000
00000000
00001000
00000000
00000000
00000000
00100000
00010000
,
00010000
01000000
00000000
01000000
,
00100000
00000000
10000000
00000000
00000000
00000000
10000000
01000000
,
01000000
10000000
00000000
00010000
,
00100000
00000000
00001000
00000000
00000000
00000000
00010000
00000100
,
00000100
00000010
00000000
00000010
,
00000001
00000100
00000010
00000000
00001000
00000100
00000010
00000000
,
00000001
00000100
00000010
00000000
00001000
00000100
00010000
00000000
,
00001000
00100000
00010000
00000000
01000000
00100000
10000000
00000000
,
01000000
00100000
00010000
00000000
10000000
01000000
00100000
00000000
,
00010000
10000000
01000000
10000000
00100000
01000000
00010000
00000000
,
00100000
00001000
00010000
00001000
00000010
00000100
00001000
00000000
,
00000001
00000000
00000010
00000000
00000100
00000000
00001000
00000000
00000100
00010000
00000100
00010000
00001000
00010000
00001000
00000000
,
00000000
00000000
00000000
00000000
,
00011000
00000000
00000000
00000000
00010000
00000000
01000000
10000000
01000000
00000000
00010000
00000000
00001000
00000000
00100000
00000000
,
00010000
01000000
00001000
00100000
00010000
01000000
00001000
00000000
,
00011000
00000000
00000000
00000000
00001000
00000000
00000100
00000001
00000100
00000000
00001000
00000000
00010000
00000000
00000010
00000000
,
00001000
00000100
00010000
00000010
00001000
00000100
00010000
00000000
,
00011000
00000000
00000000
00000000
00010000
00000000
00100000
10000000
00100000
00000000
00010000
00000000
00001000
00000000
01000000
00000000
,
00010000
00100000
00001000
01000000
00010000
00100000
00001000
00000000
,
00011000
00000000
00000000
00000000
00001000
00000000
00000010
00000001
00000010
00000000
00001000
00000000
00010000
00000000
00000100
00000000
,
00001000
00000010
00000100
00000001
00000100
00000010
00010000
00000000
,
00011000
00000000
00000000
00000000
00010000
00000000
00100000
10000000
01000000
00000000
00100000
00000000
00010000
00000000
01000000
00000000
,
10000000
01000000
00010000
00100000
01000000
00010000
00001000
00000000
,
00011000
00000000
00000000
00000000
00001000
00000000
00000010
00000001
00000100
00000000
00000010
00000000
00001000
00000000
00000100
00000000
,
00000001
00000100
00001000
00000010
00000100
00001000
00010000
00000000
,
00011000
00000000
00000000
00000000
00010000
00000000
01000000
10000000
00100000
00000000
01000000
00000000
00010000
00000000
00100000
00000000
,
10000000
00100000
00010000
01000000
00100000
00010000
00001000
00000000
,
00011000
00000000
00000000
00000000
00001000
00000000
00000100
00000001
00000010
00000000
00000100
00000000
00001000
00000000
00000010
00000000
,
00000001
00000010
00001000
00000001
00000100
00001000
00010000
00000000
,
00011000
00000000
00000000
00000000
00010000
00100000
01000000
00000000
00000000
00000000
00010000
00100000
01000000
00000000
00000000
00000000
,
00000000
00000000
00000000
00000000
00010000
01000000
10000000
00000000
00000000
00000000
00010000
01000000
10000000
00000000
00000000
00000000
,
01000000
00100000
00010000
00001000
00000010
00000100
00010000
00001000
,
01000000
00100000
00010000
00001000
00000010
00000100
00010000
00000000
,
00011000
00000000
00000000
00000000
00001000
00000010
00000100
00000000
00000000
00000000
00001000
00000010
00000100
00000000
00000000
00000000
,
00000000
00000000
00000000
00000000
00001000
00000100
00000001
00000000
00000000
00000000
00001000
00000100
00000001
00000000
00000000
00000000
,
00000100
00000010
00001000
00010000
00100000
01000000
00001000
00010000
,
00000100
00000010
00001000
00010000
00100000
01000000
00001000
00000000
,
00010000
00000000
01000000
10000000
00000000
01000000
10000000
00000000
,
00100000
00000000
01000000
00010000
00000000
01000000
00010000
00000000
,
00100000
00000000
00001000
00010000
00000000
00001000
00010000
00000000
,
00000100
00000000
00001000
00000010
00000000
00001000
00000010
00000000
,
00001000
00000000
00000100
00000001
00000000
00000100
00000001
00000000
,
00000010
00000000
00000100
00010000
00000000
00000100
00010000
00000000
,
00001000
00000000
00100000
00010000
00000000
00100000
00010000
00000000
,
01000000
00000000
00100000
10000000
00000000
00100000
10000000
00000000
,
10000000
01000000
00010000
00010000
,
00001000
00000010
00000001
00001000
,
00000001
00000100
00001000
00001000
,
00010000
00100000
10000000
00010000
,
10000000
01000000
10000000
01000000
00100000
01000000
10000000
01000000
,
00010000
00001000
01000000
00001000
00010000
00000100
00001000
00000010
,
00000100
00000001
00000010
00000001
00000010
00000001
00000100
00000010
,
00001000
00000100
00000010
00000000
00000100
00010000
00001000
00000000
00100000
00010000
01000000
00000000
00100000
10000000
01000000
00000000
,
20020000
00000000
00000000
00000000
,
00000000
00000000
00000000
30030000
,
10010000
00000000
00000000
10000000
01000000
00100000
01000000
00100000
,
01000000
00010000
00001000
00010000
00001000
00010000
00001000
00000000
,
00011000
00000000
00000000
00000000
00000100
00000000
00001000
00000010
00001000
00000000
00000001
00000000
00000100
00000000
00000010
00000000
,
00001000
00000000
00000100
00010000
00000100
00000000
00010000
00000000
00001000
00100000
00001000
00000000
00010000
00000000
00000000
00000000
,
00011000
00000000
00000000
00000000
01000000
00000000
00010000
00100000
00010000
00000000
10000000
00000000
01000000
00000000
00100000
00000000
,
00010000
00000000
01000000
00001000
01000000
00000000
00001000
00000000
00010000
00000010
00010000
00000000
00001000
00000000
00000000
00000000
,
00011000
00000000
00000000
00000000
00000010
00000000
00000100
00000001
00001000
00000000
00000001
00000010
00000100
00000000
00001000
00000000
,
00000100
00010000
00010000
00001000
01000000
01000000
00001000
00000000
,
00011000
00000000
00000000
00000000
00100000
00010000
10000000
00000000
00100000
00000000
10000000
00010000
00100000
00000000
00000000
00000000
,
00101000
00000000
00000000
00000000
01000000
00100000
00010000
00000000
10000000
00000000
00100000
01000000
00010000
00000000
00000000
00000000
,
00100000
00001000
00010000
00010000
00000010
00010000
00001000
00001000
,
01000000
00001000
00010000
00001000
00010000
00000100
00010000
00000000
,
00011000
00000000
00000000
00000000
00000010
00001000
00000001
00000000
00000010
00000000
00000001
00001000
00000010
00000000
00000000
00000000
,
00010010
00000000
00000000
00000000
00000100
00000010
00001000
00000000
00000001
00000000
00000010
00000100
00001000
00000000
00000000
00000000
,
00000001
00000100
00000001
00000100
00001000
00010000
00001000
00010000
,
00100000
10000000
00100000
10000000
00010000
01000000
00010000
01000000
00010000
00000000
00100000
00000000
00001000
00000000
00000000
00000000
,
00011000
00000000
00000000
00000000
,
00000000
00000000
00000000
00000000
;
#NOTES:
     dance-double:
     :
     Challenge:
     16:
     :
00000000
00000000
00000000
00000000
,
00000000
00000000
00000000
00000000
,
00000000
00000000
00000000
00000000
,
00000000
00000000
00000000
00000000
,
00000000
00000000
00000000
00000000
,
00000000
00000000
00000000
00000000
,
00000000
00000000
00000000
00000000
,
00000000
00000000
00000000
00000000
,
00000000
00000000
00000000
00000000
00000000
00010000
00001000
00000200
,
00000300
00000010
00010000
00002000
00003000
00010000
01000000
00200000
,
00300000
00002000
00003000
00020000
00030000
00000020
00000030
00000200
,
00000000
00000000
00000000
00000000
,
00000000
00000300
00000000
00000000
,
00000000
00000000
00000010
00010000
00002000
00003000
01000000
00020000
,
00030000
00200000
00300000
00002000
00003000
00020000
00000000
00030000
,
02000000
03000000
00200000
00000000
,
00300000
00000000
00001000
00010000
00000000
00000010
00001010
00000000
,
00001000
00100000
00001000
00100000
00001000
00100000
00010000
00001000
,
00100000
00010000
00000010
00010000
00000010
00010000
00000010
00001000
,
00010000
00000010
00001000
00100000
00001000
00100000
00001000
00100000
,
00010000
00001000
00100000
00010000
00000010
00010000
00000010
00001000
,
00010000
00000010
00001000
00100000
00010000
00001000
00100000
00010000
,
00000010
00001000
00010000
00000010
00001000
00100000
00010000
00001000
,
00010000
00001000
00010000
00001000
00010000
00001000
00010000
00001000
00010000
00001000
00010000
00001000
00010000
00001000
00010000
00001000
,
00000000
00000000
00000000
00000000
,
00011000
00000000
00001000
01000000
00001000
00000010
00001000
00010000
,
00000100
00010000
00100000
00010000
00001000
01000000
00001000
00010000
,
00011000
00000000
00010000
00000100
00010000
00100000
00010000
00001000
,
01000000
00001000
00000010
00001000
00010000
00000100
00010000
00001000
,
00011000
00000000
00001000
01000000
00001000
00010000
00000010
00010000
,
01000000
00010000
00001000
01000000
00010000
00001000
00000010
00010000
,
00011000
00000000
00001000
00010000
01000000
00100000
00001000
00010000
,
00001000
00000000
00100000
00110000
00000000
00000010
00001010
00000000
,
00011000
00000000
00001000
00100000
00010000
00001000
01000000
00010000
,
00001000
00010000
00100000
00001000
00010000
01000000
00001000
00010000
,
00011000
00000000
00010000
00000010
00001000
00010000
00000100
00001000
,
00010000
00001000
00000010
00010000
00001000
00000100
00010000
00001000
,
00011000
00000000
00010000
00001000
00000100
00010000
00000100
00001000
,
00010000
01000000
00001000
01000000
00010000
00001000
00000100
00001000
,
00011000
00000000
00010000
00001000
00000010
00010000
00000010
00001000
,
00010000
00000000
00000010
00001010
00000000
00100000
00110000
00000000
,
00101000
00000000
00001000
00000100
00000010
00010000
01000000
00100000
,
00001000
00000000
00010000
00100000
01000000
00001000
00000010
00000100
,
00010000
00000000
00000010
00010000
01000000
00001000
01000000
00010000
,
00000010
00000100
00010000
00000100
00000010
00010000
00001000
00000000
,
00010000
01000000
00100000
00001000
00000100
00000010
00010000
00001000
,
00010000
00100000
01000000
00001000
00000010
00000100
00010000
00000000
,
00001000
01000000
00010000
00100000
00001000
00010000
00000010
00010000
,
00001000
00010000
00001000
00010000
00001000
00010000
00001000
00010000
00001000
00010000
00001000
00010000
00001000
00010000
00001000
00010000
,
00001000
00000000
00000000
00000000
,
00000000
00000000
00000000
00000000
,
00000000
00000000
00000000
00000000
,
00000000
00000000
00000000
00000000
,
00000000
00000000
00001000
00010000
00000200
00000300
00000010
00002000
,
00003000
00020000
00030000
02000000
03000000
00200000
00300000
00002000
,
00000000
00000000
00000000
00003000
,
00000000
00000000
00000000
00000000
00000000
00001000
00010000
00001000
,
01000000
00010000
00000100
00010000
00000100
00010000
00000100
00001000
,
00010000
00000100
00001000
01000000
00001000
01000000
00010000
00001000
,
01000000
00010000
00000100
00010000
00000100
00010000
00000100
00001000
,
00010000
00000100
00001000
01000000
00001000
01000000
00010000
00001000
,
01000000
00010000
00000100
00001000
00010000
00000100
00001000
01000000
,
00010000
00001000
01000000
00010000
00000100
00001000
00010000
00001000
,
01000000
01000000
00010000
00010000
00100000
00100000
00001000
00001000
,
00010000
00001000
00010000
00001000
00010000
00001000
00010000
00001000
00010000
00001000
00010000
00001000
00010000
00001000
00010000
00001000
,
00020000
00030000
00020000
00030000
00020000
00030000
00020000
00030000
,
00000000
00000000
00000000
00000000
,
00011000
00000000
00000000
00010000
00010000
00010000
00010000
00010000
,
00001000
00000100
00000010
00001000
00000100
00000010
00001000
00010000
,
00011000
00000000
00010000
01000000
00001000
00010000
00000010
00001000
,
00010000
00001000
00000100
00010000
00001000
00100000
00010000
00001000
,
00010000
01000000
00001000
00010000
00000010
00001000
00010000
00001000
,
00000100
00010000
00001000
00100000
00010000
00001000
00010000
01000000
,
00100000
00001000
00000010
00000100
00010000
01000000
00100000
00001000
,
00011000
00000000
01000000
01010000
00000000
00000100
00001100
00000000
,
00010100
00000000
00010000
01000000
00100000
00001000
00000100
00000010
,
00010000
00000000
00001000
00000010
00000100
00010000
00100000
01000000
,
00001000
00000000
00100000
00001000
00000100
00010000
00000100
00001000
,
00100000
01000000
00001000
01000000
00100000
00001000
00010000
00000000
,
00001000
00000100
00000010
00010000
01000000
00100000
00001000
00010000
,
00001000
00000010
00000100
00010000
00100000
01000000
00001000
00000000
,
00010000
00000100
00001000
00000010
00010000
00001000
00100000
00010000
,
01000000
00010000
01000000
00010000
01000000
00010000
01000000
00010000
01000000
00010000
01000000
00010000
01000000
00010000
01000000
00010000
,
00100000
00000000
00000000
00000000
,
00000000
00000000
00000000
00000000
;
