
//----- song ID: conn -----//
#TITLE:CONNECT-;
#ARTIST:BEMANI Sound Team "Sota Fujimori";
#BANNER:CONNECT-.png;
#BACKGROUND:CONNECT--bg.png;
#CDTITLE:./CDTitles/DDR A20 PLUS.png;
#MUSIC:CONNECT-.ogg;
#SAMPLESTART:68.732;
#SAMPLELENGTH:15;
#BPMS:0=150;
#NOTES:
     dance-single:
     :
     Beginner:
     2:
     :
0000
0000
0000
0000
,
0000
0000
0000
0000
,
0000
0000
0000
0000
,
0000
0000
0000
0000
,
0000
0000
0000
0000
,
0001
0000
0000
0000
,
1000
0000
0000
0000
,
0001
0000
1000
0000
,
1001
0000
0000
0000
,
0001
0000
0100
0000
,
0001
0000
0000
0000
,
0001
0000
0010
0000
,
1000
0000
0000
0000
,
1000
0000
0100
0000
,
1000
0000
0000
0000
,
1000
0000
0010
0000
,
0001
0000
0000
0000
,
0100
0000
0100
0000
,
0010
0000
0010
0000
,
0001
0000
0100
0000
,
0001
0000
0000
0000
,
0100
0000
0100
0000
,
0010
0000
0010
0000
,
1000
0000
0100
0000
,
1000
0000
0000
0000
,
1000
0000
0100
0000
,
1000
0000
1000
0000
,
0100
0000
0010
0000
,
0001
0000
0000
0000
,
0001
0000
0100
0000
,
0001
0000
0001
0000
,
0100
0000
0010
0000
,
1000
0000
0000
0000
,
1001
0000
0000
0000
,
0100
0000
0100
0000
,
1001
0000
0000
0000
,
0100
0000
0100
0000
,
1000
0000
0010
0000
,
1000
0000
0010
0000
,
0100
0000
0001
0000
,
0100
0100
0100
0000
,
2002
0000
0000
0000
,
3003
0000
0000
0000
,
0010
0010
0010
0000
,
1000
0000
0100
0000
,
0010
0000
0001
0000
,
0100
0000
0000
0000
,
0010
0010
0010
0000
,
0001
0000
0100
0000
,
0010
0000
1000
0000
,
0100
0000
0000
0000
,
1000
0000
0100
0000
,
0010
0010
0010
0000
,
0001
0000
0100
0000
,
1000
0000
0000
0000
,
0001
0000
0100
0000
,
0010
0010
0010
0000
,
1000
0000
0100
0000
,
0001
0000
0000
0000
,
1001
0000
0000
0000
,
0010
0000
0100
0000
,
0010
0000
0100
0000
,
0001
0000
1000
0000
,
0001
0000
0000
0000
,
0010
0000
0100
0000
,
0010
0000
0100
0000
,
1000
0000
0001
0000
,
1000
0000
0000
0000
,
1000
0000
0010
0000
,
0001
0000
0000
1001
,
0000
0000
0000
0000
;
#NOTES:
     dance-single:
     :
     Easy:
     5:
     :
0000
0000
0000
0000
,
0000
0000
0000
0000
,
0000
0000
0000
0000
,
0000
0000
0000
0000
,
0000
0000
0000
0000
,
0010
0001
0100
0000
,
0010
1000
0100
0000
,
1000
0010
0001
0100
,
2002
0000
0000
3003
,
1000
0001
0100
0001
,
0010
0001
0100
0100
,
0001
1000
0100
1000
,
0010
1000
0100
0100
,
1000
0010
1000
0010
,
0100
0001
0100
0100
,
0001
0010
0100
1000
,
2002
0000
0000
3003
,
0001
0100
1000
0000
,
1000
0100
0001
0000
,
1000
0100
1000
0100
,
0001
0100
1000
0000
,
1000
0010
0001
0000
,
0001
0010
1000
0000
,
0001
0010
0001
0010
,
1000
0010
0001
0000
,
1000
1000
1000
0000
,
0100
0010
0100
0000
,
0001
0001
0001
0000
,
0100
0010
0100
0000
,
0010
1000
0100
0000
,
0100
1000
0010
0000
,
0010
0001
0100
0000
,
0100
0001
0010
0000
,
2001
0000
3001
0000
,
0010
0010
0010
0000
,
1002
0000
1003
0000
,
0010
0010
0010
0000
,
0100
0010
1000
0001
,
0100
0010
1000
0001
,
1000
0100
0010
0001
,
0010
0100
1000
0001
,
0200
0300
0020
0030
,
0100
0010
0100
0110
,
0001
0010
1000
0010
,
0001
0100
0010
0010
,
1000
0010
0001
0010
,
1000
0100
0010
0010
,
0001
0100
1000
0100
,
0001
0010
0100
0100
,
1000
0100
0001
0100
,
1000
0010
0100
0001
,
1000
0001
1001
0000
,
0100
0010
0001
1000
,
0001
1000
1001
0000
,
0001
0100
0010
1000
,
0100
0010
0110
0000
,
0001
0010
0100
1000
,
0100
0010
0110
0000
,
0010
0001
0100
0001
,
2002
0000
0000
3003
,
1000
0001
1000
1000
,
0001
1000
0001
0000
,
0010
0100
0010
0010
,
0100
0010
0100
0000
,
0001
0100
0001
0001
,
1000
0010
1000
0000
,
0100
0010
0100
0000
,
0010
0100
0010
0000
,
0002
0003
2000
3000
,
0001
0100
1000
1001
,
0000
0000
0000
0000
;
#NOTES:
     dance-single:
     :
     Medium:
     10:
     :
0000
0000
0000
0000
,
0000
0000
0000
0000
,
0000
0000
0000
0000
,
0000
0000
0000
0000
,
0000
0000
0000
0000
,
0001
0000
0100
0000
0010
0100
0010
0000
,
1000
0000
0100
0000
0010
0100
0010
0000
,
0001
1000
0100
0000
1000
0001
0100
0000
,
0020
0000
0030
1001
,
1000
0100
1000
0100
0010
0001
0010
0000
,
0001
1000
0001
1000
0010
0100
0010
0000
,
0100
0001
0100
0001
1000
0010
1000
0000
,
0010
0100
0010
0100
0001
1000
0001
0000
,
0001
0100
0010
1000
0100
0010
0001
0000
,
0100
0010
1000
0001
0100
0010
1000
0000
,
0001
0010
0100
1000
0010
0100
0001
0000
,
2002
0000
0000
3003
,
0001
0000
0000
0010
0000
0000
0100
0000
0000
1000
0000
0000
1001
0000
0000
0000
,
1000
0000
0000
0010
0000
0000
0100
0000
0000
0001
0000
0000
1001
0000
0000
0000
,
0001
0000
0000
0100
0000
0000
1000
0000
0000
0010
0000
0000
1001
0000
0000
0000
,
1000
0000
0000
0100
0000
0000
0001
0000
0000
0010
0000
0000
1001
0000
0000
0000
,
0001
0000
0000
0100
0000
0000
1000
0000
0000
0100
0000
0000
1001
0000
0000
0000
,
1000
0000
0000
0100
0000
0000
0001
0000
0000
0100
0000
0000
1001
0000
0000
0000
,
0100
0000
0000
1000
0000
0000
0010
0000
0000
0100
0000
0000
0001
0000
0010
0000
,
0001
0000
0000
0001
0000
0000
0001
0000
0100
0000
0000
0100
0000
0000
0000
0000
,
0010
0000
0000
0010
0000
0000
0010
0000
1000
0000
0100
0000
1000
0000
0000
0000
,
0010
0000
0000
0010
0000
0000
0100
0000
0001
0000
1000
0000
0001
0000
1000
0000
,
0100
0000
0000
0100
0000
0000
0100
0000
0010
0000
0001
0000
0010
0000
0000
0000
,
0001
0000
0000
0100
0000
0000
1000
0000
0000
0010
0000
0000
0110
0000
0000
0000
,
0010
0000
0000
0010
0000
0000
0010
0000
0001
0000
0100
0000
0001
0000
0000
0000
,
0010
0000
0000
0010
0000
0000
0100
0000
1000
0000
0001
0000
1000
0000
0001
0000
,
0100
0000
0000
0100
0000
0000
0100
0000
0000
0010
0000
0000
1000
0000
0000
0000
,
1000
0000
0000
0100
0000
0000
0001
0000
0000
0010
0000
0000
0110
0000
0000
0000
,
0002
0000
1000
0000
1003
0000
1000
0010
,
0100
0000
0100
0001
1000
0000
0001
0000
,
2000
0000
0001
0000
3001
0000
0001
0010
,
0100
0000
0100
1000
0001
0000
1000
0000
,
0010
0100
0001
0000
0010
0100
1000
0000
,
0010
0100
0001
0000
0010
0100
1000
0000
,
0001
0100
0010
0100
0001
0100
0001
0000
,
1000
0100
0010
0100
1000
0100
1000
0000
,
0120
0000
0000
0000
0100
0100
0130
0000
,
0001
0000
0010
0000
0100
0010
0001
0000
,
0100
0010
1000
0100
0010
0100
1000
0001
,
0100
0010
1000
0001
1000
0000
0100
0000
,
0010
0100
1000
0100
0010
0001
0100
0001
,
0010
0100
1000
0001
0010
0100
0010
0000
,
0100
0010
0001
0100
0010
0100
0001
1000
,
0100
0010
0001
1000
0001
0000
0100
0000
,
0010
0100
0001
0100
0010
1000
0100
1000
,
0010
0100
0001
1000
0010
0100
0010
0000
,
1000
1000
1000
0000
0100
0000
0011
0000
,
0100
0100
0100
0000
0001
0000
1010
0000
,
0001
0001
0001
0000
0010
0000
1100
0000
,
0010
0010
0010
0000
1000
0000
0101
0000
,
0010
0010
0010
0000
0100
0000
1001
0000
,
0001
0001
0001
0000
1000
0000
0110
0000
,
1000
1000
1000
0000
0001
0000
1100
0000
,
0100
0100
0100
0000
0010
0000
0101
0000
,
2000
3020
0230
0302
,
1003
0100
0010
0000
0011
0000
1001
0000
,
0001
0100
0010
0000
1010
0000
1001
0000
,
0010
1000
0001
0000
0010
0001
1000
0000
,
0010
0000
0000
0010
0000
0000
0000
0000
0100
0000
0000
0100
0000
0000
0000
0000
,
0001
0010
0100
0000
1100
0000
1001
0000
,
1000
0010
0100
0000
0101
0000
1001
0000
,
1000
0000
0000
1000
0000
0000
0000
0000
0001
0000
0000
0001
0000
0000
0000
0000
,
0100
0000
0000
0100
0000
0000
0000
0000
0010
0000
0000
0010
0000
0000
0000
0000
,
1000
0100
0001
0000
0001
0100
1000
0000
,
0001
0010
0100
0010
0001
0000
1001
0000
,
0000
0000
0000
0000
;
#NOTES:
     dance-single:
     :
     Hard:
     13:
     :
0000
0000
0000
0000
,
0000
0000
0000
0000
,
0000
0000
0000
0000
,
0000
0000
0000
0000
,
0000
0000
0000
0000
,
0001
0000
0000
0010
0000
0000
0010
0000
1000
0000
0000
0010
0000
0000
0010
0000
,
0001
0000
0000
0100
0000
0000
0100
0000
1000
0000
0000
0100
0000
0000
0100
0000
,
0001
0000
0000
0010
0000
0000
1000
0000
0100
0000
0000
0001
0000
0000
0010
0000
,
2000
0000
3000
1001
,
0001
0000
0000
1000
0000
0010
0100
0000
0001
0100
0000
0010
0000
0000
1000
0100
,
0010
0000
0000
0001
0000
1000
0010
0000
1000
0100
0000
0010
0000
0000
0100
1000
,
0001
0000
0000
0100
0000
0010
1000
0000
0001
0010
0000
0001
0000
0000
1000
0010
,
0100
0000
0000
0001
0000
0010
0100
0000
1000
0001
0000
0100
0000
0000
0001
0010
,
0100
0000
0000
1000
0000
0010
0001
0000
0010
1000
0000
0001
0000
0000
0100
0010
,
1000
0000
0000
0100
0000
0001
0100
0000
1000
0001
0000
0010
0000
0000
0100
1000
,
0010
0000
0000
0100
0000
1000
0100
0000
0001
1000
0000
0100
0000
0000
0010
0001
,
2000
0000
3010
1001
,
0010
1000
0000
0010
1000
0000
0100
1000
0000
0100
1000
0000
0010
0000
0100
0000
,
0001
0010
0000
0001
0010
0000
0001
0100
0000
0001
0100
0000
0010
0000
1000
0000
,
0100
0010
0000
0100
0010
0000
0001
1000
0000
0001
1000
0000
0010
0000
0010
0000
,
0100
0010
0000
0100
0010
0000
1000
0001
0000
1000
0001
0000
0010
0000
0010
0000
,
0001
0100
0000
0100
0010
0000
0010
1000
0000
1000
0001
0000
0100
0000
0010
0000
,
1000
0100
0000
0100
0010
0000
0010
0001
0000
0001
1000
0000
0010
0000
0100
0000
,
0001
1000
0000
1000
0010
0000
0010
0100
0000
0100
0001
0000
1000
0000
1000
0000
,
1001
0000
0000
0011
0000
0000
1100
0000
0010
1000
0001
0100
0000
0000
0000
0000
,
0001
1000
0000
0001
1000
0000
0001
1000
0001
0000
0100
0000
0010
0000
0000
0000
,
1000
0001
0000
1000
0001
0000
1000
0001
1000
0000
0010
0000
0001
0000
0010
0000
,
0100
0010
0000
0100
0010
0000
0100
0010
0100
0000
0001
0000
1000
0000
0000
0000
,
1100
0000
0000
1010
0000
0000
0101
0000
0000
0011
0000
0000
1001
0000
0000
0000
,
1000
0100
0000
0010
0001
0000
1000
0100
0010
0000
0001
0000
1001
0000
0000
0000
,
0001
0100
0000
0010
1000
0000
0001
0100
0010
0000
1000
0000
0100
0000
0010
0000
,
0011
0000
0000
0101
0000
0000
1100
0000
0000
1010
0000
0000
1001
0000
0000
0000
,
1010
0000
0000
1100
0000
0000
0101
0000
0000
0011
0000
0000
1001
0000
0000
0000
,
0020
0000
1000
0000
1030
0100
0010
0001
,
0100
0000
0010
0000
0100
0000
1000
0000
0100
0000
0010
0000
0100
0000
0001
0010
,
0002
0000
0010
0000
0103
0010
0001
0010
,
0100
0000
0010
0000
1000
0000
0001
0000
1000
0000
0010
0000
0100
0000
0010
1000
,
0010
1000
0010
1000
0100
0010
0100
0010
,
0001
0010
0001
0010
0100
1000
0100
1000
,
0010
1000
0100
0000
0010
0000
0001
0000
0100
0001
0010
0000
0100
0000
1000
0000
,
0010
0000
0010
0100
0010
0000
0110
0000
,
2001
0000
0000
0001
0000
0000
3001
0000
0110
0000
0100
0010
0100
0000
0100
0000
,
0001
0010
0001
0000
0100
0000
0010
0000
1000
0010
1000
0010
1000
0000
0000
0000
,
0001
0000
1000
0100
0000
1000
0010
0000
0100
0000
0001
0010
0000
0001
0100
0000
,
0010
0000
1000
0100
0000
1000
0001
0000
0010
0000
0100
1000
0000
0001
1000
0000
,
0001
0000
1000
0100
0000
0010
0100
0000
1000
0000
0001
0100
0000
0010
0100
0000
,
0001
0000
0010
0100
0000
1000
0001
0000
0100
0000
0010
0100
0000
0001
1000
0000
,
0100
0000
0010
0001
0000
0001
0010
0000
0100
0000
1000
0010
0000
0010
1000
0000
,
0001
0000
1000
0100
0000
0100
1000
0000
0001
0000
0010
0100
0000
0100
0010
0000
,
0001
0000
0100
0010
0000
0010
1000
0000
0001
0000
1000
0100
0000
0100
0010
0000
,
0001
0000
1000
0001
0000
0001
1000
0000
0010
0000
0010
0100
0010
0000
0000
0000
,
1000
0000
0001
0100
0000
0000
0101
0000
0010
0000
1000
0100
0000
0000
1100
0000
,
0010
0000
0001
1000
0000
0000
1001
0000
0010
0000
1000
0100
0000
0000
0110
0000
,
1000
0000
0001
0010
0000
0000
0011
0000
0001
0000
1000
0010
0000
0000
1010
0000
,
0001
0000
0010
0100
0000
0000
0110
0000
0001
0000
1000
0001
0000
0000
1001
0000
,
0010
0000
1000
0100
0000
0000
1100
0000
0001
0000
0010
0100
0000
0000
1100
0000
,
0010
0000
0001
0100
0000
0000
0101
0000
1000
0000
0010
0100
0000
0000
0101
0000
,
1000
0000
0100
0010
0000
0000
0010
0000
0001
0000
0100
0010
0000
0000
0010
0000
,
1000
0000
0001
0100
0000
0000
0100
0000
0001
0000
1000
0100
0000
0000
0100
0000
,
0110
0000
1001
0000
0001
0100
1000
0000
,
0001
0000
1000
0100
1000
0000
0001
0010
0001
0000
0100
0000
0010
0000
1000
0000
,
0100
0000
1000
0010
1000
0000
0001
0100
0001
0000
0010
0000
0100
0000
1000
0000
,
0001
0000
0100
0010
0100
0000
0001
1000
0001
0000
1000
0000
0100
0000
0010
0000
,
0011
0000
0000
1001
0000
0000
0000
0000
1010
0000
0000
1001
0000
0000
0000
0000
,
1000
0000
0100
0010
0001
0000
0010
0100
1000
0000
0010
0000
0100
0000
0001
0000
,
1000
0000
0001
0100
0010
0000
1000
0010
0100
0000
0001
0000
0010
0000
0100
0000
,
1100
0000
0000
1001
0000
0000
0000
0000
0101
0000
0000
1001
0000
0000
0000
0000
,
1010
0000
0000
0110
0000
0000
0000
0000
0011
0000
0000
0110
0000
0000
0000
0000
,
1001
0000
0000
0001
0000
0000
0001
0000
1000
0000
0001
0100
0010
0000
0000
0000
,
1000
0100
1000
0100
0000
0010
0001
0010
0001
0010
0000
0000
1001
0000
0000
0000
,
0000
0000
0000
0000
;
#NOTES:
     dance-double:
     :
     Easy:
     5:
     :
00000000
00000000
00000000
00000000
,
00000000
00000000
00000000
00000000
,
00000000
00000000
00000000
00000000
,
00000000
00000000
00000000
00000000
,
00000000
00000000
00000000
00000000
,
00100000
01000000
00100000
00000000
,
00010000
00001000
00010000
00000000
,
00000010
00000100
00000010
00000000
,
00002002
00000000
00000000
00003003
,
00000001
00000010
00000001
00000100
,
00000010
00001000
00000010
00000000
,
00000100
00001000
00000100
00001000
,
00010000
00001000
00010000
00000000
,
00001000
01000000
00010000
00100000
,
00010000
01000000
00100000
00000000
,
10000000
10000000
01000000
01000000
,
20020000
00000000
00000000
30030000
,
00100000
00010000
01000000
00000000
,
01000000
00001000
00010000
00000000
,
00010000
00000100
00001000
00000000
,
00001000
00000100
00000010
00000000
,
00000001
00000100
00000010
00000000
,
00000010
00010000
00001000
00000000
,
00001000
00100000
00010000
00000000
,
00010000
01000000
00100000
00000000
,
10000000
10000000
10000000
00000000
,
01000000
00000000
00100000
00000000
,
00001000
00001000
00001000
00000000
,
00010000
00000000
00000100
00000000
,
00000010
00000010
00000010
00000000
,
00000001
00000000
00000100
00000000
,
00001000
00001000
00001000
00000000
,
00010000
00000000
00001000
00000000
,
00022000
00000000
00033000
00000000
,
00100000
01000000
00100000
00000000
,
20020000
00000000
30030000
00000000
,
01000000
00001000
01000000
00000000
,
00001000
00010000
00001000
00000000
,
00000010
00001000
00000010
00000000
,
00000001
00000100
00000001
00001000
,
00000100
00010000
00000100
00000000
,
00020000
00030000
00002000
00003000
,
00010000
00010000
00001000
00001000
,
00010000
00100000
00010000
00100000
,
01000000
00010000
00100000
01000000
,
10000000
01000000
10000000
01000000
,
00100000
00001000
00010000
00001000
,
00010000
00000100
00010000
00000100
,
00001000
00000010
00000100
00001000
,
00000100
00000001
00000100
00000001
,
00000010
00000100
00001000
00000000
,
00000100
00010000
00000010
00010000
,
00000100
00010000
00001000
00000000
,
01000000
00001000
00100000
00001000
,
01000000
00001000
00010000
00000000
,
00001000
00000010
00000001
00000000
,
00000001
00000010
00000100
00000000
,
00000100
00010000
00001000
00000000
,
00001000
01000000
00010000
00000000
,
20020000
00000000
00000000
30030000
,
10000000
00100000
01000000
01000000
,
00010000
00100000
00010000
00000000
,
00100000
00001000
00010000
00010000
,
00000100
00001000
00000010
00000000
,
00000001
00000100
00000010
00000010
,
00001000
00000100
00001000
00000000
,
00000100
00010000
00001000
00001000
,
00100000
00010000
01000000
00000000
,
00100000
10000000
00100000
00000000
,
00010000
00001000
00010000
00011000
,
00000000
00000000
00000000
00000000
;
#NOTES:
     dance-double:
     :
     Medium:
     10:
     :
00000000
00000000
00000000
00000000
,
00000000
00000000
00000000
00000000
,
00000000
00000000
00000000
00000000
,
00000000
00000000
00000000
00000000
,
00000000
00000000
00000000
00000000
,
00100000
10000000
01000000
01000000
,
00010000
00001000
00000100
00000100
,
00000001
00000010
00000100
00000100
,
00000020
00000000
00000030
00001001
,
00000010
00000001
00000010
00000000
00000001
00000100
00000001
00000000
,
00001000
00000100
00001000
00000010
00000100
00001000
00010000
00000000
,
00001000
01000000
00001000
00000000
00010000
00001000
00010000
00000000
,
00001000
00100000
00001000
00100000
00010000
00100000
00010000
00000000
,
01000000
00100000
10000000
00000000
01000000
00100000
00010000
00000000
,
10000000
01000000
00100000
01000000
00010000
00001000
00010000
00000000
,
00000100
00001000
00000010
00001000
00000100
00000010
00000001
00000000
,
00002002
00000000
00000000
00003003
,
00000010
00000000
00000000
00000001
00000000
00000000
00001000
00000000
00000000
00000010
00000000
00000000
00000100
00000000
00000001
00000000
,
00001000
00000000
00000000
00000100
00000000
00000000
00010000
00000000
00000000
00001000
00000000
00000000
01000000
00000000
00010000
00000000
,
00100000
00000000
00000000
01000000
00000000
00000000
10000000
00000000
00000000
01000000
00000000
00000000
00010000
00000000
01000000
00000000
,
00100000
00000000
00000000
00001000
00000000
00000000
00010000
00000000
00000000
00000010
00000000
00000000
00001000
00000000
00000100
00000000
,
00000010
00000000
00000000
00000001
00000000
00000000
00000100
00000000
00000000
00001000
00000000
00000000
00000100
00000000
00000010
00000000
,
00001000
00000000
00000000
00000100
00000000
00000000
00010000
00000000
00000000
00001000
00000000
00000000
01000000
00000000
00001000
00000000
,
00010000
00000000
00000000
01000000
00000000
00000000
10000000
00000000
00000000
00010000
00000000
00000000
00100000
00000000
01000000
00000000
,
00010000
00000000
00000000
00010000
00000000
00000000
00010000
00000000
00001000
00000000
00000000
00001000
00000000
00000000
00000000
00000000
,
00000010
00000000
00000000
00000010
00000000
00000000
00000010
00000000
00000001
00000000
00001000
00000000
00000001
00000000
00000000
00000000
,
00001000
00000100
00001000
00000000
00000100
00010000
00001000
00000000
,
01000000
00000000
00000000
01000000
00000000
00000000
01000000
00000000
00010000
00000000
00100000
00000000
00010000
00000000
00000000
00000000
,
10000000
00000000
00000000
00100000
00000000
00000000
01000000
00000000
00000000
00010000
00000000
00000000
00100000
00000000
00000000
00000000
,
00001000
00000000
00000000
00001000
00000000
00000000
00001000
00000000
00010000
00000000
00000010
00000000
00001000
00000000
00000000
00000000
,
00000100
00000010
00000001
00000000
00000100
00000010
00001000
00000000
,
00000100
00000000
00000000
00000010
00000000
00000000
00001000
00000000
00000000
00010000
00000000
00000000
01000000
00000000
00000000
00000000
,
01000000
00000000
00000000
10000000
00000000
00000000
00100000
00000000
00000000
00010000
00000000
00000000
00001000
00000000
00000000
00000000
,
00020000
00000000
00001000
00031000
,
00001000
00010000
00000100
00000000
00000100
00001000
00000010
00000000
,
00000200
00000000
00000001
00000301
,
00000100
00000010
00001000
00000000
00001000
00000100
00010000
00000000
,
00001000
00100000
00001000
00100000
00010000
00000000
00010000
00000000
,
00100000
01000000
00100000
01000000
10000000
00000000
10000000
00000000
,
00100000
01000000
00010000
00000000
00100000
00001000
00010000
00000000
,
00000100
00001000
00000010
00000000
00000100
00000010
00010000
00000000
,
00002000
00000000
00000000
00000000
00010000
00010000
00013000
00000000
,
00010000
00100000
10000000
00000000
00010000
00000000
10010000
00000000
,
10000000
01000000
00010000
00000000
01000000
10000000
00100000
00000000
,
10000000
01000000
00010000
00001000
00000010
00000100
00001000
00000000
,
00000001
00000100
00001000
00000000
00000100
00000001
00000010
00000000
,
00000100
00000010
00000001
00000100
00000010
00000100
00000001
00000000
,
00000001
00000010
00001000
00000000
00000010
00000001
00000100
00000000
,
00000001
00000010
00001000
00010000
01000000
00100000
00010000
00000000
,
10000000
01000000
00010000
00000000
01000000
10000000
00100000
00000000
,
00010000
00001000
00010000
00000100
,
00001000
00000100
00001000
00000010
00000100
00000001
00000010
00000000
,
00000001
00000100
00001000
00000000
00001000
00010000
00100000
00000000
,
10000000
01000000
10000000
00100000
01000000
00010000
00100000
00000000
,
01000000
10000000
00010000
00000000
00010000
00100000
00001000
00000000
,
00000010
00000100
00000010
00001000
00010000
00001000
00010000
00000000
,
00000100
00001000
00000010
00000000
00000010
00000100
00001000
00000000
,
00010000
00100000
10000000
00100000
10000000
00010000
10000000
00000000
,
01000000
00100000
00010000
00000000
00010000
00100000
00001000
00000000
,
00020000
00030020
00002030
00003002
,
00000013
00000001
00000100
00000000
00000110
00000000
00001010
00000000
,
00000100
00010000
00001000
00000000
00011000
00000000
01001000
00000000
,
00100000
00010000
01000000
00000000
01100000
00000000
10100000
00000000
,
10000000
00000000
00000000
10000000
00000000
00000000
00000000
00000000
00010000
00000000
00000000
00010000
00000000
00000000
00000000
00000000
,
00100000
01000000
10000000
00000000
11000000
00000000
00110000
00000000
,
00100000
00001000
00010000
00000000
00010010
00000000
00001010
00000000
,
00000100
00000000
00000000
00000100
00000000
00000000
00000000
00000000
00000001
00000000
00000000
00000001
00000000
00000000
00000000
00000000
,
00001000
00000000
00000000
00001000
00000000
00000000
00000000
00000000
00000100
00000000
00000000
00000100
00000000
00000000
00000000
00000000
,
00000010
00000000
00001000
00000000
00010000
01000000
10000000
00000000
,
10000000
00100000
00010000
00001000
00010000
00000000
00011000
00000000
,
00000000
00000000
00000000
00000000
;
#NOTES:
     dance-double:
     :
     Hard:
     14:
     :
00000000
00000000
00000000
00000000
,
00000000
00000000
00000000
00000000
,
00000000
00000000
00000000
00000000
,
00000000
00000000
00000000
00000000
,
00000000
00000000
00000000
00000000
,
00100000
00000000
00000000
00100000
00000000
00000000
00100000
00000000
10000000
00000000
00000000
10000000
00000000
00000000
10000000
00000000
,
01000000
00000000
00000000
01000000
00000000
00000000
01000000
00000000
00010000
00000000
00000000
00010000
00000000
00000000
00010000
00000000
,
00001000
00000000
00000000
00001000
00000000
00000000
00001000
00000000
00000100
00000000
00000000
00000100
00000000
00000000
00000100
00000000
,
00000020
00000000
00000030
00001001
,
00000001
00000000
00000000
00000100
00000000
00000010
00000100
00000000
00000010
00001000
00000000
00000010
00000000
00000000
00001000
00000100
,
00001000
00000000
00000000
00000100
00000000
00010000
00001000
00000000
00100000
00010000
00000000
00100000
00000000
00000000
01000000
00100000
,
01000000
00000000
00000000
10000000
00000000
00100000
10000000
00000000
00010000
01000000
00000000
00010000
00000000
00000000
00100000
00010000
,
00100000
00000000
00000000
00001000
00000000
00010000
00001000
00000000
00010000
00000100
00000000
00010000
00000000
00000000
00000100
00001000
,
00000100
00000000
00000000
00000010
00000000
00000001
00000100
00000000
00000010
00001000
00000000
00000001
00000000
00000000
00000100
00000010
,
00001000
00000000
00000000
00000100
00000000
00010000
00001000
00000000
00100000
00001000
00000000
00010000
00000000
00000000
01000000
00100000
,
00010000
00000000
00000000
10000000
00000000
00100000
01000000
00000000
00100000
10000000
00000000
01000000
00000000
00000000
00100000
00010000
,
00200000
00000000
00301000
00011000
,
00000010
00001000
00000000
00000010
00001000
00000000
00000010
00000100
00000000
00000010
00000100
00000000
00000001
00000000
00001000
00000000
,
00000100
00000010
00000000
00000100
00000010
00000000
00000001
00000010
00000000
00000001
00000010
00000000
00000001
00000000
00000100
00000000
,
00001000
00010000
00000000
00001000
00010000
00000000
00001000
01000000
00000000
00001000
01000000
00000000
00010000
00000000
00100000
00000000
,
00010000
01000000
00000000
00010000
01000000
00000000
00100000
10000000
00000000
00100000
10000000
00000000
10010000
00000000
00000000
00000000
,
00100000
00010000
00000000
00100000
00010000
00000000
00100000
01000000
00000000
00100000
01000000
00000000
10000000
00000000
00010000
00000000
,
01000000
00100000
00000000
01000000
00100000
00000000
10000000
00100000
00000000
10000000
00100000
00000000
10000000
00000000
01000000
00000000
,
00010000
00001000
00000000
00010000
00001000
00000000
00010000
00000100
00000000
00010000
00000100
00000000
00001000
00000000
00000010
00000000
,
00001000
00000000
00000000
00001100
00000000
00000000
00000011
00000000
00000001
00000010
00000100
00001000
00000000
00000000
00000000
00000000
,
00000010
00000100
00000000
00000100
00001000
00000000
00010000
00001000
00010000
00000000
00001000
00000000
00100000
00000000
00000000
00000000
,
00010000
00100000
00000000
00100000
01000000
00000000
10000000
00010000
10000000
00000000
00100000
00000000
01000000
00000000
00000000
00000000
,
00010000
00100000
00000000
00100000
01000000
00000000
00010000
00001000
00010000
00000000
00000010
00000000
00001000
00000000
00000000
00000000
,
00000001
00000000
00000000
00000101
00000000
00000000
00000100
00000000
00000000
00001100
00000000
00000000
00011000
00000000
00000000
00000000
,
00010000
00100000
00000000
00100000
10000000
00000000
01000000
00100000
00010000
00000000
01000000
00000000
00100000
00000000
00010000
00000000
,
00001000
00000100
00000000
00000100
00000001
00000000
00001000
00000100
00000010
00000000
00000001
00000000
00000100
00000000
00000000
00000000
,
00001010
00000000
00000000
00010000
00000000
00000000
00011000
00000000
00000000
01000000
00000000
00000000
01010000
00000000
00000000
00000000
,
00110000
00000000
00000000
00001000
00000000
00000000
00011000
00000000
00000000
00000100
00000000
00000000
00001100
00000000
00000000
00000000
,
00000020
00000000
00000001
00000000
00000031
00000010
00000100
00001000
,
00010000
00100000
01000000
10000000
00100000
01000000
00010000
01000000
,
00200000
00000000
10000000
00000000
10300000
00100000
01000000
00010000
,
00001000
00000010
00000100
00000001
00000100
00000010
00001000
00000010
,
00000100
00000100
00000001
00000100
00001000
00001000
00010000
00001000
,
00100000
00100000
00010000
01000000
00100000
00100000
10000000
01000000
,
00010000
01000000
10000000
01000000
00010000
00001000
00000010
00001000
,
00010000
00000000
00010000
00001000
00010000
00000000
00001000
00000000
,
00012000
00000000
00000000
00000000
00003100
00000000
00000000
00000000
00000001
00000000
00000001
00001000
00000001
00000000
00000001
00000000
,
00000010
00000100
00000010
00000000
00001000
00000000
00010000
00000000
00001000
00010000
00001000
00010000
00001000
00000000
00000000
00000000
,
00010000
00000000
00100000
10000000
00000000
01000000
10000000
00000000
00100000
00000000
01000000
00010000
00000000
00100000
00010000
00000000
,
01000000
00000000
00001000
00010000
00000000
00000010
00010000
00000000
00000100
00000000
00001000
00000010
00000000
00000100
00000010
00000000
,
00001000
00000000
00000001
00000010
00000000
00000100
00001000
00000000
00000010
00000000
00000100
00000001
00000000
00001000
00000010
00000000
,
00000100
00000000
00001000
00010000
00000000
00100000
01000000
00000000
00010000
00000000
00100000
01000000
00000000
10000000
00010000
00000000
,
10000000
00000000
01000000
00100000
00000000
00100000
01000000
00000000
00010000
00000000
00001000
00010000
00000000
00010000
00001000
00000000
,
00000010
00000000
00000001
00001000
00000000
00001000
00000001
00000000
00000100
00000000
00001000
00010000
00000000
00010000
00001000
00000000
,
00100000
00000000
00010000
01000000
00000000
01000000
00100000
00000000
10000000
00000000
01000000
00100000
00000000
00100000
00001000
00000000
,
00010000
00000000
00000010
00001000
00000000
00001000
00000100
00000000
00000010
00000000
00000001
00001000
00000001
00000000
00000000
00000000
,
00000010
00000000
00000001
00000100
00000000
00000000
00000101
00000000
00000010
00000000
00001000
00000100
00000000
00000000
00001100
00000000
,
00010000
00000000
00001000
00100000
00000000
00000000
00110000
00000000
01000000
00000000
10000000
00010000
00000000
00000000
10010000
00000000
,
01000000
00000000
00010000
00100000
00000000
00000000
00110000
00000000
00001000
00000000
00010000
00000100
00000000
00000000
00010100
00000000
,
00001000
00000000
00000010
00000100
00000000
00000000
00000110
00000000
00000001
00000000
00000010
00000100
00000000
00000000
00001100
00000000
,
00000001
00000000
00000100
00001000
00000000
00000000
00011000
00000000
00100000
00000000
00010000
01000000
00000000
00000000
01100000
00000000
,
10000000
00000000
01000000
00100000
00000000
00000000
00101000
00000000
00010000
00000000
00000010
00001000
00000000
00000000
00001100
00000000
,
00000010
00000000
00000001
00000100
00000000
00000000
00000100
00000000
00000010
00000000
00010000
00001000
00000000
00000000
00001000
00000000
,
01000000
00000000
00010000
00100000
00000000
00000000
00100000
00000000
01000000
00000000
10000000
00100000
00000000
00000000
00100000
00000000
,
01100000
00000000
10010000
00000000
10000000
01000000
00010000
00000000
,
00001000
00000000
00000010
00000001
00000010
00000000
00000001
00000100
00000001
00000000
00000100
00000000
00001000
00000000
00010000
00000000
,
00100000
00000000
10000000
00100000
10000000
00000000
01000000
10000000
01000000
00000000
00010000
00000000
00001000
00000000
00000010
00000000
,
00000001
00000000
00000100
00000010
00000100
00000000
00000010
00000100
00000010
00000000
00010000
00000000
00001000
00000000
00100000
00000000
,
01000000
00000000
00000000
11000000
00000000
00000000
00000000
00000000
00100000
00000000
00000000
00110000
00000000
00000000
00000000
00000000
,
10000000
00000000
00100000
00010000
00100000
00000000
00010000
00001000
00010000
00000000
00001000
00000000
00000100
00000000
00000001
00000000
,
00000010
00000000
00001000
00000010
00001000
00000000
00010000
00001000
00010000
00000000
01000000
00000000
10000000
00000000
00010000
00000000
,
00100000
00000000
00000000
00011000
00000000
00000000
00000000
00000000
00001000
00000000
00000000
00000110
00000000
00000000
00000000
00000000
,
00000100
00000000
00000000
00011000
00000000
00000000
00000000
00000000
00010000
00000000
00000000
01100000
00000000
00000000
00000000
00000000
,
10010000
00000000
00000000
00100000
00000000
00000000
00100000
00000000
01000000
00000000
00010000
00000000
00001000
00000000
00000010
00000000
,
00000001
00000000
00000100
00001000
00000000
00010000
00001000
00010000
00001000
00010000
00000000
00000000
00011000
00000000
00000000
00000000
,
00000000
00000000
00000000
00000000
;
