
//----- song ID: betm -----//
#TITLE:Better Than Me;
#ARTIST:BEMANI Sound Team "Sota F.";
#BANNER:Better Than Me.png;
#BACKGROUND:Better Than Me-bg.png;
#CDTITLE:./CDTitles/DDR A20 PLUS.png;
#MUSIC:Better Than Me.ogg;
#SAMPLESTART:76.981;
#SAMPLELENGTH:15;
#BPMS:0=162;
#NOTES:
     dance-single:
     :
     Beginner:
     4:
     :
0000
0000
0000
0000
,
0000
0000
0000
0000
,
0000
0000
0000
0000
,
0000
0000
0000
0000
,
0000
0000
0000
0000
,
0000
0000
0000
0000
,
0001
0000
0100
0000
,
0001
0000
0010
0000
,
0100
0000
1000
0000
,
1001
0000
0000
0000
,
0010
0000
0010
0000
,
0100
0000
0100
0000
,
0001
0000
0001
0000
,
0100
0100
0100
0000
,
0001
0000
0001
0000
,
1000
0000
1000
0000
,
0010
0000
0010
0000
,
1000
1000
1000
0000
,
0100
0000
0010
0000
,
0001
0000
0010
0000
,
0001
0000
0100
0000
,
0020
0000
0030
0000
,
0100
0000
0001
0000
,
0100
0000
0010
0000
,
1000
0000
0001
0000
,
1001
0000
0000
0000
,
1000
0000
1000
0000
,
0100
0000
0010
0000
,
0001
0000
0001
0000
,
1000
0000
0010
0000
,
0100
0000
0100
0000
,
0001
0000
0010
0000
,
0100
0000
0100
0000
,
1000
0000
0001
0000
,
1000
0000
0010
0000
,
0100
0100
0100
0000
,
0001
0000
0010
0000
,
0100
0100
0100
0000
,
1000
0000
0100
0000
,
0010
0010
0010
0000
,
0100
0000
0010
0000
,
0001
0001
0001
0000
,
1000
0000
0001
0000
,
1000
0000
0001
0000
,
0100
0000
0010
0000
,
0100
0000
0010
0000
,
1000
0000
0100
0000
,
0010
0000
0001
0000
,
1001
0000
0000
0000
,
0110
0000
0000
0000
,
2002
0000
0000
0000
,
0000
0000
3003
0000
,
1000
0000
0010
0000
,
1000
0000
0001
0000
,
0100
0000
0010
0000
,
0100
0000
0001
0000
,
1000
0000
0001
0000
,
0010
0000
0100
0000
,
1001
0000
0110
0000
,
1001
0000
0000
0000
,
0001
0001
0001
0000
,
0100
0000
0010
0000
,
1000
1000
1000
0000
,
0100
0000
0010
0000
,
0001
0001
0001
0000
,
1000
0000
0001
0000
,
1001
0000
0110
0000
,
1001
0000
0000
0000
,
2002
0000
3003
0000
,
0001
0000
0001
0000
,
1000
0000
0100
0000
,
0010
0000
0001
0000
,
1000
1000
1000
1000
,
0000
0000
0000
0000
;
#NOTES:
     dance-single:
     :
     Easy:
     8:
     :
0000
0000
0000
0000
,
0000
0000
0000
0000
,
0000
0000
0000
0000
,
0000
0000
0000
0000
,
0000
0000
0000
0000
,
0000
0000
0000
0000
,
0100
0010
0100
0001
,
1000
1000
0010
0010
,
0100
0001
0100
0001
,
1000
0001
1001
0000
,
0100
0010
1000
1000
,
0100
0010
0001
0001
,
1000
0010
1000
0010
,
0100
0000
0001
0000
0000
0010
0010
0000
,
0100
0010
0001
0001
,
0100
0010
1000
1000
,
0001
0000
0100
0000
0000
0010
0010
0000
,
0110
0000
0000
0000
1000
0100
1000
0000
,
0001
0001
0010
0010
,
0100
0100
1000
1000
,
0001
1000
0010
0000
0100
0000
0001
0000
,
0020
0000
0031
1001
,
1000
1000
0010
0010
,
0100
0100
0001
0001
,
0020
0000
0230
0000
,
0310
0001
0100
1001
,
1000
0010
1000
0010
,
0100
0001
0100
0001
,
1000
0100
0010
0001
,
1000
0010
1000
0000
0001
0100
0001
0000
,
0010
0001
0010
0001
,
1000
0100
1000
0100
,
0010
0001
1000
0100
,
1000
0100
1000
0000
0010
0100
0010
0000
,
1000
0000
0000
1000
0000
0000
0000
0000
0001
0000
0000
0001
0000
0000
0000
0000
,
0100
0001
0010
0100
,
1000
0000
0000
1000
0000
0000
0000
0000
0001
0000
0000
0001
0000
0000
0000
0000
,
0010
0001
1000
0100
,
0010
0000
0000
0010
0000
0000
0000
0000
0100
0000
0000
0100
0000
0000
0000
0000
,
1000
0100
0010
0001
,
0100
0000
0000
0100
0000
0000
0000
0000
0010
0000
0000
0010
0000
0000
0000
0000
,
1000
0100
0010
0110
,
0100
0000
0000
0010
0100
0000
0000
0010
,
0100
1000
0001
0100
,
0010
0000
0000
0100
0010
0000
0000
0100
,
0010
1000
0010
0100
,
0001
0000
0000
0010
0100
0000
0000
0010
,
0100
1000
0100
0010
,
0001
0000
1000
0001
0000
0001
2000
0000
,
0000
3001
0010
0110
,
2002
0000
0000
0000
,
0000
0000
0000
3003
,
0001
1000
0010
0010
,
1000
0100
0001
0100
,
1000
0010
0100
0100
,
0001
0010
1000
0010
,
0001
0000
0100
0100
0000
0001
0000
2000
,
0000
3010
0100
0010
,
1001
0000
0110
0000
,
1001
0100
0010
0001
,
0010
0000
0001
0000
1000
0000
0010
0100
,
0001
1000
0100
1000
,
0001
0000
0010
0000
0001
0000
1000
0010
,
0100
0001
0010
0001
,
0000
1000
0001
1000
0000
0001
0000
1000
,
0000
0001
0100
0010
,
0110
0000
1001
0000
,
0001
1000
0100
0010
,
2002
0000
0000
3003
,
1000
0010
1000
0100
,
0010
0010
0100
0100
,
1000
0001
0010
0001
,
1000
0100
0001
0000
0110
0000
1001
0000
,
0000
0000
0000
0000
;
#NOTES:
     dance-single:
     :
     Medium:
     12:
     :
0000
0000
0000
0000
,
0000
0000
0000
0000
,
0000
0000
0000
0000
,
0000
0000
0000
0000
,
0000
0000
0000
0000
,
0000
0000
0000
0000
,
0001
0100
0001
1000
,
0010
0100
0010
0000
1000
0100
1000
0000
,
0001
0100
0001
0000
0100
0000
0010
0000
,
1000
0010
1000
0000
1001
0000
0110
0000
,
0001
0100
0010
0100
0001
0000
0001
0000
,
1000
0100
0010
0100
1000
0000
1000
0000
,
0001
0100
0010
0000
1000
0100
0010
0000
,
0001
0000
0000
0001
0000
1000
0000
1000
0000
0000
0010
0000
0010
0000
0000
0000
,
0100
0001
0010
0001
0100
0000
0100
0000
,
0010
1000
0100
1000
0010
0000
0010
0000
,
1000
0000
0000
1000
0000
0100
0000
0100
0000
0000
0000
0000
0110
0000
0000
0000
,
0001
0000
0000
0001
0000
1000
0000
0000
0100
0000
0010
0000
0100
0000
0000
0000
,
0010
0000
0001
0000
0010
0001
0000
0000
0100
0000
0000
0000
0100
0000
0000
0000
,
0010
0000
1000
0000
0010
1000
0000
0000
0100
0000
0000
0000
0100
0000
0000
0000
,
0010
0001
1000
0001
0100
0000
0100
0000
,
0002
0203
0320
2030
3100
0000
0110
0000
,
0001
0000
0100
0000
0001
0100
0000
0000
0010
0000
0000
0000
0010
0000
0000
0000
,
1000
0000
0100
0000
1000
0100
0000
0000
0010
0000
0000
0000
0010
0000
0000
0000
,
0002
1003
2000
3100
,
0010
0000
0001
0000
0100
0010
1000
0000
,
0001
0100
1000
0000
0001
0100
1000
0000
,
0100
0010
0100
0001
,
1000
0010
0100
0000
0001
1000
0100
0000
,
0010
0010
0001
0000
0010
0010
0100
0000
,
1000
0010
0001
0000
1000
0010
0001
0000
,
0010
0100
0010
1000
,
0001
0100
0010
0000
1000
0100
0010
0000
,
0001
0100
0001
0000
1000
0100
1000
0000
,
0010
0000
0000
0010
0000
0000
0100
0000
0010
0000
0000
0010
0000
0000
1000
0000
,
0001
0100
0000
0000
0001
0000
0000
0000
1000
0000
0100
0000
1000
0000
0000
0000
,
0001
0000
0000
0001
0000
0000
0010
0000
0001
0000
0000
0001
0000
0000
1000
0000
,
0100
0010
0000
0000
0100
0000
0000
1000
0000
0000
0001
0000
1000
0000
0000
0000
,
0010
0000
0000
0010
0000
0000
1000
0000
0100
0000
0000
0100
0000
0000
0010
0000
,
0001
0010
0000
0000
0001
0000
0000
0000
0100
0000
0010
0000
0100
0000
0000
0000
,
0010
0000
0000
1000
0000
0000
0010
0000
0100
0000
0000
0001
0000
0000
0100
0000
,
0001
0010
0000
0000
0001
0000
0000
1000
0000
0000
1000
0000
0001
0000
0000
0000
,
0100
0010
0000
0010
0000
0000
0100
0000
0001
0010
0000
0010
0000
0000
0001
0000
,
1000
0100
1000
0000
0001
0010
0001
0000
,
1000
0100
0000
0100
0000
0000
1000
0000
0001
0100
0000
0100
0000
0000
0001
0000
,
1000
0010
1000
0000
0001
0100
0001
0000
,
0010
0001
0000
0001
0000
0000
0010
0000
0100
1000
0000
1000
0000
0000
0100
0000
,
1000
0010
0100
0000
0001
0010
0100
0000
,
1001
0000
0010
0100
0000
0100
0020
0000
,
0000
0130
1001
0110
,
2002
0000
0000
0000
,
0000
0000
0000
3003
,
0100
0000
0001
0000
0010
0001
0010
0100
,
1000
0010
0100
0001
,
1000
0000
0010
0000
0100
0001
1000
0100
,
0010
0001
0010
0100
,
1000
0000
0001
0001
0000
1000
0000
0110
,
0000
0100
0010
0100
,
0001
0100
0001
0000
1000
0100
1000
0000
,
1001
0010
0100
0001
,
0010
0100
1000
0100
0010
0000
0100
1000
,
0010
0000
0100
0001
0010
0100
1000
0000
,
0100
0010
0001
0010
0100
0000
0010
0001
,
0100
0000
0010
1000
0100
0010
0001
0000
,
0000
0010
0100
0010
0000
0001
0000
1000
,
0000
0000
0010
0000
0100
0010
0100
0000
,
1001
0000
0110
0000
,
1001
1000
0100
0010
,
0220
0000
0000
0330
,
0001
0000
0000
0000
0010
0000
0000
0000
0001
0000
0000
0000
0100
0000
0000
0010
,
1000
0000
0000
0000
0100
0000
0010
0000
0100
0000
0000
1000
0001
0000
0000
0000
,
1000
0000
0000
0000
0100
0000
0000
1000
0010
0000
0000
0000
0100
0000
0000
0001
,
0010
0100
0010
0000
1001
0000
0110
0000
,
0000
0000
0000
0000
;
#NOTES:
     dance-single:
     :
     Hard:
     15:
     :
0000
0000
0000
0000
,
0000
0000
0000
0000
,
0000
0000
0000
0000
,
0000
0000
0000
0000
,
0000
0000
0000
0000
,
0000
0000
0000
0000
,
1000
0000
0000
0001
0010
0000
0000
0100
1000
0000
0000
0010
0100
0000
0000
0001
,
0010
1000
0010
0001
0100
0010
0110
0000
,
0100
0000
0000
0010
1000
0000
0000
0100
0001
0000
0000
0100
1000
0000
0000
0001
,
0100
0010
1000
0001
0011
0000
1100
0000
,
1000
0000
0100
0000
0010
0000
0100
0000
1000
0010
0100
0000
0001
0010
0100
0000
,
0010
0001
0100
0010
0100
0001
1000
0000
,
0001
0001
0010
0100
1000
0001
0100
0000
,
0110
0000
0000
1000
0000
0001
0000
0100
0000
0000
0010
0000
1001
0000
0000
0000
,
0001
0000
0100
0000
0010
0000
0100
0000
0001
0010
0100
0000
1000
0010
0100
0000
,
0010
1000
0100
0010
0100
1000
0001
0000
,
1000
0001
0000
1000
0000
0010
0000
0100
0000
0000
0000
0000
1001
0000
0000
0000
,
0110
0000
0000
0001
0000
1000
0000
0000
0100
0000
0010
0000
1001
0000
0000
0000
,
0001
0000
0100
0000
0010
1000
0000
0010
1000
0000
0100
0000
0010
0000
0001
0000
,
1000
0000
0100
0000
0010
0001
0000
0010
0001
0000
0100
0000
0010
0000
1000
0000
,
0100
0000
0001
0000
0100
1000
0000
0001
0100
0000
0010
0000
1000
0000
0001
0000
,
0020
0230
2300
3002
0203
0310
1001
0000
,
0001
0000
0100
0000
0010
1000
0000
1000
0100
0000
0010
0000
0001
0000
1000
0000
,
0010
0000
0100
0000
0001
0010
0000
0010
0001
0000
1000
0000
0010
0000
0100
0000
,
0010
1000
0200
0000
0310
0001
0200
0000
,
0310
0000
1000
0000
0001
1000
0001
0000
0010
0000
0100
0000
1001
0000
0000
0000
,
2000
3100
0002
0103
2000
3100
0002
0103
,
2000
3010
0100
0001
0010
0100
1000
0000
,
0001
0010
0100
0000
1000
0010
0100
0000
,
0010
0100
0010
0000
1000
0000
0001
0000
0010
0000
0100
0000
1001
0000
0000
0000
,
0002
0013
2000
3010
0002
0013
2000
3010
,
0002
0103
0010
1000
0100
0010
0001
0000
,
1000
0100
0010
0000
0001
0100
0010
0000
,
0100
0010
0100
0000
0001
0000
1000
0000
0100
0000
0010
0000
1001
0000
0000
0000
,
0001
0100
0000
0001
0100
0000
0010
0000
1000
0010
0000
1000
0010
0000
0100
0000
,
0010
1000
0010
0000
0100
0000
0001
0000
0010
0000
1000
0000
0010
0000
0001
0000
,
1000
0100
0000
1000
0010
0000
0100
0000
0001
0010
0000
0001
0100
0000
0010
0000
,
1000
0100
0000
0010
0001
0000
1000
0010
0000
0100
0001
0000
0010
0100
0010
0000
,
0100
1000
0000
0100
0010
0000
0001
0000
0100
0010
0000
0100
0001
0000
0010
0000
,
0001
0100
0010
0000
1000
0000
0010
0000
0001
0000
0010
0000
1000
0000
0100
0000
,
1000
0010
0000
1000
0010
0100
0001
0000
0001
0010
0000
0001
0010
0100
1000
0000
,
1000
0010
0000
0100
0001
0000
0001
0010
0000
0100
1000
0000
1001
0000
0000
0000
,
0001
0010
0000
0010
0001
0000
0100
0000
0010
1000
0000
1000
0010
0000
0100
0000
,
0001
1000
0010
0000
0100
0000
0001
0000
1000
0000
0001
0000
0010
0000
0100
0000
,
1000
0010
0000
0001
0010
0000
0100
0000
1000
0100
0000
0001
0100
0000
0001
0000
,
1000
0001
1000
0000
0010
0000
0001
0000
1000
0000
0100
0000
0001
0000
1000
0000
,
0001
0010
0000
0100
1000
0100
1000
0000
1000
0010
0000
0100
0001
0100
0001
0000
,
0010
0100
0010
0000
0001
0000
1000
0000
0010
0000
0001
0000
0010
0000
1000
0000
,
0001
0000
0100
0010
0000
1000
0002
0000
,
0000
0000
0000
0000
0103
0001
0010
0000
0100
0000
0000
0000
1001
0000
0000
0000
,
0220
0000
0000
0000
,
0000
0000
0000
0330
,
0001
0100
1000
0100
0001
0010
1000
0010
,
0001
0000
0000
0000
1000
0100
0000
0000
0100
0010
0000
0000
0010
0001
0000
0000
,
1000
0010
0001
0010
1000
0100
0001
0100
,
1000
0000
0000
0000
0001
0100
0000
0000
0100
0010
0000
0000
0010
1000
0000
0000
,
0001
0010
0100
0110
0000
1100
0000
0202
,
0000
0000
0303
0000
0001
0100
0000
0000
0100
0010
0000
0000
0010
1000
0000
0000
,
0110
0000
0001
1000
0110
0000
1000
0001
,
0110
0000
0000
0000
0100
0001
0000
0000
0001
0010
0000
0000
0010
0100
0000
0000
,
1000
0100
0010
0000
0100
0000
1000
0000
0001
0100
0010
0000
0100
0000
0001
0000
,
0010
0000
0000
0000
0100
1000
0000
0000
0001
0100
0000
0000
0010
0100
0000
0000
,
0010
1000
0001
0000
0100
0000
0010
0000
1000
0001
0010
0000
0100
0000
0010
0000
,
0001
0000
0000
0000
0010
0001
0000
0000
1000
0001
0000
0000
0100
0001
0000
0000
,
0000
1001
1100
0101
0000
1010
0000
0011
,
0000
0000
0000
0000
1000
0010
0000
0000
0010
0100
0000
0000
0100
0001
0000
0000
,
0010
0001
1000
0000
0110
0000
0000
0000
0010
1000
0001
0000
0110
0000
0000
0000
,
1001
0000
0000
0000
0010
0100
0010
0000
1000
0100
1000
0000
0001
0010
0001
0000
,
0220
0000
0000
0330
,
1001
0000
0000
1000
0010
0000
0000
0100
0001
0000
0000
0010
0100
0000
0000
1000
,
0001
0000
0100
0000
0010
0000
1000
0000
0001
0100
0010
0000
0100
0000
0000
0000
,
0110
0000
1000
0000
0000
0100
0000
0010
0000
0000
0001
0000
1000
0000
0000
0000
,
0110
0000
0000
0001
0000
1000
0100
0000
0011
0000
0000
0000
1100
0000
0000
0000
,
0000
0000
0000
0000
;
#NOTES:
     dance-single:
     :
     Challenge:
     16:
     :
0000
0000
0000
0000
,
0000
0000
0000
0000
,
0000
0000
0000
0000
,
0000
0000
0000
0000
,
0000
0000
0000
0000
,
0000
0000
0000
0000
,
0001
0000
0000
0100
0010
1000
0000
1000
0001
0000
0000
0001
1000
0000
0100
0010
,
0001
0000
0001
0000
1000
0010
0000
0010
0100
0000
0001
1000
0001
0000
1000
0000
,
0100
0010
0100
0010
0001
1000
0001
1000
0000
0000
1000
0010
0100
0001
1000
0000
,
0100
0000
0000
0100
0001
0100
1000
0100
0010
0000
0000
0000
1001
0000
0000
0000
,
0001
0000
0010
0100
0010
0000
0100
1000
0100
0000
1000
0001
1000
0000
0001
0000
,
1000
0000
0010
0100
0010
0000
0100
0001
0200
0000
0302
0000
2000
0000
3003
0000
,
0001
0000
0010
0000
1000
0010
0001
0010
0000
0000
0001
0010
0100
1000
0100
0000
,
1000
0010
0000
0100
0000
0001
0000
1000
0000
0000
0100
0010
0100
0000
0000
0000
,
1000
0000
0100
0000
0010
0001
0010
0000
0001
0010
0001
1000
0001
0000
1000
0000
,
0001
0000
0100
0010
0100
0000
0010
1000
0020
0000
2030
0000
3002
0000
0203
0000
,
0310
1000
0000
0100
0000
0001
0000
0100
0000
0000
1000
0100
0010
0001
0010
0000
,
0001
0100
0000
0010
0000
0010
0000
0000
1000
0000
0010
0000
1001
0000
0000
0000
,
1000
0100
0000
0100
0001
0100
0000
0100
1000
0100
0010
0001
1000
0100
0010
0000
,
0001
0100
0000
0100
1000
0100
0000
0100
0001
0100
0010
1000
0001
0100
0010
0000
,
2000
0000
3010
0100
0002
0000
0013
0100
2000
0000
3200
0000
0302
0000
0203
0000
,
1300
1010
0001
0101
1000
0110
1001
0000
,
0001
0010
0000
0010
1000
0010
0000
0010
0001
0010
0100
1000
0001
0010
0100
0000
,
1000
0010
0000
0010
0001
0010
0000
0010
1000
0010
0100
0001
1000
0010
0100
0000
,
0002
0000
0103
0010
2000
0000
3100
0010
0002
0000
0023
0000
2030
0000
3020
0000
,
0031
0000
0101
0000
1000
0010
1000
0000
0001
0000
0110
0000
1001
0000
0000
0000
,
1000
0100
0000
0000
0001
1000
0000
0000
0001
0100
0000
0000
1000
0001
0000
0000
,
1000
0010
1000
0010
0100
0000
0002
0000
0000
0000
0010
0000
0013
0000
0000
0000
,
0001
0000
0010
0000
1000
0000
0001
0000
0100
0000
1000
0000
0001
0010
1000
0000
,
1000
0010
0001
0000
1000
0100
0010
0000
0011
0000
0011
0000
1001
0000
0000
0000
,
0001
0010
0000
0000
1000
0001
0000
0000
1000
0010
0000
0000
0001
1000
0000
0000
,
0001
0100
0001
0100
0010
0000
2000
0000
0000
0000
0100
0000
3100
0000
0000
0000
,
1000
0000
0100
0000
0001
0000
1000
0000
0010
0000
0001
0000
1000
0100
0001
0000
,
0001
0100
1000
0000
0001
0010
0100
0000
0000
0000
1100
0000
1001
0000
0000
0000
,
1000
0100
0000
0011
0000
0000
0000
0000
0001
0100
0000
1010
0000
0000
0000
0000
,
1000
0100
0000
0100
0001
0000
1000
0010
0000
0010
0001
0000
1000
0100
0010
0000
,
0001
0010
0000
1100
0000
0000
0000
0000
1000
0010
0000
0101
0000
0000
0000
0000
,
0001
0010
0000
0010
1000
0000
0001
0100
0000
0100
1000
0000
0001
0010
0100
0000
,
1000
0001
0000
0110
0000
0000
0000
0000
0001
1000
0000
0110
0000
0000
0000
0000
,
1000
0010
0100
0001
0010
0000
0100
0001
0000
0100
0010
0000
0100
1000
0000
0000
,
0010
0100
0000
1001
0000
0000
0000
0000
0100
0010
0000
1001
0000
0000
0000
0000
,
0001
0100
0010
1000
0100
0000
0010
1000
0000
0010
0100
0000
1000
0000
0000
0000
,
0001
0010
0000
0010
0100
1000
0001
0000
1000
0010
0000
0010
0100
0001
1000
0000
,
0001
0100
0001
0100
0010
0000
1000
0100
0000
0001
0100
0000
1000
0100
0010
0001
,
1000
0100
0000
0100
1000
0010
0100
0000
0001
0010
0000
0010
0001
0100
0010
0000
,
1000
0010
1000
0010
0100
0000
1000
0100
0000
0001
0100
0000
0010
1000
0001
0100
,
0001
0010
0000
1000
0001
0100
1000
0000
1000
0010
0000
0001
1000
0100
0001
0000
,
0001
0010
0100
0001
0100
0000
1000
0010
0000
0010
0001
0000
0001
0010
1000
0010
,
0200
0000
0310
2010
0000
3001
1001
0000
,
0000
0000
0000
0000
0001
0010
1000
0000
0110
0000
0000
0000
1001
0000
0000
0000
,
0220
0000
0000
0000
,
0000
0000
0000
0330
,
0001
0000
0010
0100
1000
0000
0100
0010
0001
0000
0100
0010
1000
0000
0010
0100
,
0001
0000
0000
0000
1000
0100
0000
0000
0001
0100
0000
0000
1000
0100
0000
0000
,
0010
0000
0001
0100
0010
0000
1000
0100
0010
0000
0001
0010
0100
0000
1000
0010
,
0100
0000
0000
0000
0001
0100
0000
0000
1000
0100
0000
0000
0001
0100
0000
0000
,
0010
0000
1000
0100
0010
0000
0110
0000
0000
0000
0001
1000
0001
0000
1001
0000
,
0000
0000
1000
0100
0010
0001
0000
0000
0010
1000
0000
0000
0010
0001
0000
0000
,
0011
0000
0001
0100
0010
1000
0100
0000
1100
0000
1000
0001
0100
0010
1000
0000
,
1010
0010
0101
0100
0001
0011
1100
0000
,
1000
0000
0100
0010
0001
0000
0010
0100
1000
0000
0010
0100
0001
0000
0100
0010
,
1000
0000
0000
0000
0001
0010
0000
0000
1000
0010
0000
0000
0001
0010
0000
0000
,
0100
0000
1000
0010
0100
0000
0001
0010
0100
0000
1000
0100
0010
0000
0001
0100
,
0010
0000
0000
0000
1000
0010
0000
0000
0001
0010
0000
0000
1000
0010
0000
0000
,
0100
0000
0001
0010
0100
0000
0110
0000
0000
0000
1000
0001
1000
0000
1001
0000
,
0000
0000
0001
0010
0100
1000
0000
0000
0100
0001
0000
0000
0100
1000
0000
0000
,
1100
0000
1000
0010
0100
0001
0010
0000
0011
0000
0001
1000
0010
0100
0001
0000
,
0101
0100
1010
0010
1000
1100
0011
0000
,
2002
0000
0000
3003
,
1000
0000
0000
0010
0100
0001
0000
0001
1000
0000
0000
1000
0001
0000
0010
0100
,
1000
0000
1000
0000
0001
0100
0000
0100
0010
0000
1000
0001
1000
0000
0001
0000
,
0010
0100
0010
0100
1000
0001
1000
0001
0000
0000
0001
0100
0010
1000
0001
0000
,
0010
0000
0000
0010
1000
0010
0001
0010
0100
0000
0000
0000
1001
0000
0000
0000
,
0000
0000
0000
0000
;
#NOTES:
     dance-double:
     :
     Easy:
     7:
     :
00000000
00000000
00000000
00000000
,
00000000
00000000
00000000
00000000
,
00000000
00000000
00000000
00000000
,
00000000
00000000
00000000
00000000
,
00000000
00000000
00000000
00000000
,
00000000
00000000
00000000
00000000
,
00010000
00001000
00010000
00000100
,
00001000
00001000
00000100
00000100
,
00000010
00000001
00000010
00001000
,
00010000
00001000
00011000
00000000
,
00100000
00010000
10000000
10000000
,
01000000
00010000
00001000
00001000
,
00010000
00000100
00001000
00000010
,
00001000
00000000
00000001
00000000
00000000
00000010
00000010
00000000
,
00000100
00001000
00000010
00000010
,
00010000
00001000
00100000
00100000
,
00010000
00000000
10000000
00000000
00000000
01000000
01000000
00000000
,
01100000
00000000
00000000
00000000
00001000
00010000
00001000
00000000
,
00010000
00010000
00000100
00000100
,
00001000
00001000
00000001
00000001
,
00000100
00000010
00001000
00000000
00000001
00000000
00000100
00000000
,
00002000
00000000
00013000
00011000
,
01000000
01000000
00100000
00100000
,
10000000
10000000
00010000
00010000
,
02000000
00000000
03002000
00000000
,
00013000
00000010
00001000
00000001
,
00000100
00001000
00010000
00001000
,
00010000
01000000
10000000
01000000
,
00010000
00001000
00010000
00000010
,
00001000
00000100
00001000
00000000
00000001
00000010
00000001
00000000
,
00000100
00000001
00000010
00001000
,
00010000
00001000
00010000
00100000
,
10000000
01000000
00010000
01000000
,
10000000
00100000
01000000
00000000
00010000
00100000
00001000
00000000
,
00010000
00000000
00000000
00010000
00000000
00000000
00000000
00000000
00000100
00000000
00000000
00000100
00000000
00000000
00000000
00000000
,
00001000
00000001
00000010
00000010
,
00000001
00000000
00000000
00000001
00000000
00000000
00000000
00000000
00000100
00000000
00000000
00000100
00000000
00000000
00000000
00000000
,
00001000
00010000
01000000
10000000
,
00100000
00000000
00000000
00100000
00000000
00000000
00000000
00000000
01000000
00000000
00000000
01000000
00000000
00000000
00000000
00000000
,
00001000
00010000
00000010
00000010
,
00000100
00000000
00000000
00000100
00000000
00000000
00000000
00000000
00000001
00000000
00000000
00000001
00000000
00000000
00000000
00000000
,
00000010
00001000
00010000
00011000
,
01000000
00000000
00000000
10000000
00100000
00000000
00000000
00100000
,
00010000
00010000
00001000
00001000
,
00000010
00000000
00000000
00000001
00000100
00000000
00000000
00000100
,
00001000
00010000
00001000
00100000
,
00010000
00000000
00000000
10000000
01000000
00000000
00000000
01000000
,
00100000
00010000
00100000
00001000
,
00010000
00000000
00001000
00010000
00000000
00000100
00002000
00000000
,
00000000
00003001
00000010
00000110
,
00002002
00000000
00000000
00000000
,
00000000
00000000
00000000
00003003
,
00001000
00000100
00010000
00010000
,
00001000
00010000
00100000
10000000
,
00010000
00100000
00001000
00001000
,
00010000
00001000
00000100
00000001
,
00001000
00000000
00000100
00000100
00000000
00010000
00000000
00002000
,
00000000
00013000
00100000
01000000
,
10010000
00000000
00011000
00000000
,
00000110
00000010
00000001
00000100
,
00000010
00000000
00001000
00000000
00000100
00000000
00010000
00001000
,
00010000
00001000
01000000
00010000
,
10000000
00000000
01000000
00000000
00010000
00000000
00001000
00010000
,
00001000
00000100
00000001
00000010
,
00000000
00000001
00001000
00000001
00000000
00000100
00000000
00001000
,
00000000
00010000
00100000
10000000
,
10010000
00000000
00011000
00000000
,
00001001
00000001
00000010
00001000
,
00022000
00000000
00000000
00033000
,
00001000
00010000
00001000
01000000
,
00100000
00100000
10000000
10000000
,
00010000
01000000
00001000
00010000
,
00001000
00000100
00000001
00000000
00000010
00000000
00000110
00000000
,
00000000
00000000
00000000
00000000
;
#NOTES:
     dance-double:
     :
     Medium:
     12:
     :
00000000
00000000
00000000
00000000
,
00000000
00000000
00000000
00000000
,
00000000
00000000
00000000
00000000
,
00000000
00000000
00000000
00000000
,
00000000
00000000
00000000
00000000
,
00000000
00000000
00000000
00000000
,
10000000
00100000
01000000
00010000
,
00100000
00001000
00100000
00000000
00010000
00000100
00010000
00000000
,
00000010
00001000
00000010
00000000
00000100
00000000
00000001
00000000
,
00000010
00000100
00000010
00000000
00001100
00000000
00011000
00000000
,
00100000
00010000
00100000
00000000
01000000
00000000
01000000
00000000
,
10000000
00100000
10000000
00000000
00010000
00000000
00010000
00000000
,
10000000
01000000
00010000
00000000
00001000
00000100
00000001
00000000
,
00000010
00000000
00000000
00000010
00000000
00000100
00000000
00000100
00000000
00000000
00010000
00000000
00001000
00000000
00000000
00000000
,
00001000
00010000
00001000
00000000
01000000
00000000
01000000
00000000
,
00010000
00100000
00010000
00000000
10000000
00000000
10000000
00000000
,
01000000
00000000
00000000
01000000
00000000
00010000
00000000
00010000
00000000
00000000
00000000
00000000
00011000
00000000
00000000
00000000
,
00000100
00000000
00000000
00000100
00000000
00000001
00000000
00000000
00000010
00000000
00000100
00000000
00000010
00000000
00000000
00000000
,
00001000
00000000
00000100
00000000
00001000
00000100
00000000
00000000
00010000
00000000
00000000
00000000
00010000
00000000
00000000
00000000
,
00001000
00000000
00100000
00000000
00001000
00100000
00000000
00000000
00010000
00000000
00000000
00000000
00010000
00000000
00000000
00000000
,
10000000
00100000
10000000
00010000
01000000
00000000
01000000
00000000
,
00002000
00023000
00030200
00002300
00003001
00000000
00000101
00000000
,
00001000
00000000
00000010
00000000
00001000
00000010
00000000
00000000
00010000
00000000
00000000
00000000
00010000
00000000
00000000
00000000
,
00001000
00000000
01000000
00000000
00001000
01000000
00000000
00000000
00010000
00000000
00000000
00000000
00010000
00000000
00000000
00000000
,
20000000
30100000
00020000
00031000
,
00000010
00000000
00000001
00000000
00000100
00000010
00001000
00000000
,
00000001
00000100
00001000
00000000
00010000
01000000
10000000
00000000
,
00100000
01000000
00010000
00100000
,
00001000
00010000
00000100
00000000
00001000
00000010
00000100
00000000
,
00000001
00001000
00000100
00000000
00010000
00001000
00100000
00000000
,
00010000
01000000
00100000
00000000
10000000
01000000
00100000
00000000
,
00010000
10000000
01000000
00010000
,
00001000
00010000
00000010
00000000
00001000
00000100
00000010
00000000
,
00000001
00000100
00000010
00000000
00001000
00000100
00010000
00000000
,
00001000
00000000
00000000
00001000
00000000
00000000
00010000
00000000
01000000
00000000
00000000
01000000
00000000
00000000
10000000
00000000
,
00010000
00000000
01000000
00000000
00100000
01000000
00100000
00000000
,
10000000
00000000
00000000
10000000
00000000
00000000
00100000
00000000
00010000
00000000
00000000
00010000
00000000
00000000
00001000
00000000
,
00010000
00000000
00000000
00000000
00001000
00000000
00000000
00000100
00000000
00000000
00000001
00000000
00000010
00000000
00000000
00000000
,
00000001
00000000
00000000
00000001
00000000
00000000
00000100
00000000
00001000
00000000
00000000
00001000
00000000
00000000
00010000
00000000
,
00001000
00000000
00100000
00000000
00010000
01000000
00010000
00000000
,
10000000
00000000
00000000
00100000
00000000
00000000
00010000
00000000
00001000
00000000
00000000
00000010
00000000
00000000
00000001
00000000
,
00000100
00000010
00000000
00000000
00000100
00000000
00000000
00000001
00000000
00000000
00001000
00000000
00000100
00000000
00000000
00000000
,
00010000
00001000
00000000
00001000
00000000
00000000
00010000
00000000
00001000
01000000
00000000
01000000
00000000
00000000
00010000
00000000
,
10000000
00100000
10000000
00000000
01000000
00100000
01000000
00000000
,
00100000
00010000
00000000
00010000
00000000
00000000
01000000
00000000
00001000
00010000
00000000
00010000
00000000
00000000
00000100
00000000
,
00001000
00000010
00001000
00000000
00000001
00000100
00000001
00000000
,
00001000
00000010
00000000
00000010
00000000
00000000
00010000
00000000
00001000
00100000
00000000
00100000
00000000
00000000
00010000
00000000
,
10000000
01000000
10000000
00000000
00010000
00100000
00010000
00000000
,
00100000
00000000
00001000
00010000
00000000
00010000
00002000
00000000
,
00000000
00013000
00001100
00000110
,
00000022
00000000
00000000
00000000
,
00000000
00000000
00000000
00000033
,
00000100
00000000
00001000
00000000
00010000
00001000
00010000
00000000
,
00001000
00010000
00100000
10000000
,
01000000
00000000
00010000
00000000
00001000
00010000
00001000
00000000
,
00010000
00001000
00000010
00000001
,
00000100
00000000
00001000
00001000
00000000
00010000
00000000
00011000
,
00000000
00001000
00010000
01000000
,
10000000
00100000
10000000
00000000
00010000
00100000
00010000
00000000
,
10000000
01000000
00010000
00001000
,
00010000
00001000
00010000
00001000
00000100
00000000
00000001
00000010
,
00000001
00000100
00001000
00010000
,
00001000
00010000
00001000
00010000
00100000
00000000
10000000
01000000
,
10000000
00100000
00010000
00001000
,
00000000
00000100
00000010
00000100
00000000
00000001
00000000
00001000
,
00000000
00000100
00010000
00001000
,
00011000
00000000
10010000
00000000
,
01100000
10000000
01000000
00010000
,
00022000
00000000
00000000
00033000
,
00010000
00000000
00000000
00000000
00000100
00000000
00000000
00000000
00001000
00000000
00000000
00000000
00000010
00000000
00000000
00000100
,
00000001
00000000
00000010
00000100
00000010
00000000
00000001
00000000
,
00000100
00000000
00000000
00000000
00001000
00000000
00000000
00010000
00001000
00000000
00000000
00000000
00010000
00000000
00000000
01000000
,
00100000
01000000
10000000
00000000
10010000
00000000
01100000
00000000
,
00000000
00000000
00000000
00000000
;
#NOTES:
     dance-double:
     :
     Hard:
     15:
     :
00000000
00000000
00000000
00000000
,
00000000
00000000
00000000
00000000
,
00000000
00000000
00000000
00000000
,
00000000
00000000
00000000
00000000
,
00000000
00000000
00000000
00000000
,
00000000
00000000
00000000
00000000
,
00000001
00000000
00000000
00001000
00000100
00000000
00000000
00010000
00001000
00000000
00000000
00100000
00010000
00000000
00000000
10000000
,
01000000
00100000
01000000
00000000
00100000
00010000
00100000
00000000
,
00001000
00000000
00000000
00010000
00001000
00000000
00000000
00000100
00000010
00000000
00000000
00001000
00000100
00000000
00000000
00000010
,
00000001
00000100
00000001
00000000
00001010
00000000
00011000
00000000
,
00001000
00010000
01000000
10000000
01000000
00010000
00001000
00000000
,
00010000
00001000
00000100
00000001
00000100
00001000
00010000
00000000
,
00001000
00001000
01000000
00010000
10000000
00100000
01000000
00000000
,
10000000
00000000
00000000
01000000
00000000
00010000
00000000
00001000
00000000
00000000
00010000
00000000
00011000
00000000
00000000
00000000
,
00000010
00001000
00000001
00000100
00001000
00010000
00001000
00000000
,
00100000
00010000
10000000
01000000
00010000
00001000
00010000
00000000
,
00000100
00001000
00000000
00000001
00000000
00000010
00000000
00000100
00000000
00000000
00000000
00000000
00001000
00000000
00000000
00000000
,
00011000
00000000
00000000
00100000
00000000
00010000
00000000
00000000
10000000
00000000
00010000
00000000
10010000
00000000
00000000
00000000
,
01000000
00000000
00010000
00000000
00100000
00001000
00000000
00100000
00001000
00000000
00010000
00000000
00000010
00000000
00001000
00000000
,
00000001
00000000
00000100
00000000
00000010
00001000
00000000
00000010
00001000
00000000
00000100
00000000
00010000
00000000
00000000
00000000
,
00001000
00010000
00100000
01000000
00010000
10000000
00100000
10000000
,
02000000
03020000
00032000
00003020
00000032
00000103
00000001
00000000
,
00001000
00000000
00000010
00000000
00010000
00001000
00000000
00001000
00010000
00000000
01000000
00000000
10000000
00000000
01000000
00000000
,
00100000
00000000
00010000
00000000
01000000
00001000
00000000
00001000
01000000
00000000
00001000
00000000
00010000
00000000
00000100
00000000
,
00001000
00000001
00000020
00000000
00001030
00010000
00200000
00000000
,
10300000
00010000
01000000
01000000
00001000
00010000
00011000
00000000
,
00002000
00003100
00000002
00000103
00002000
00013000
02000000
13000000
,
02000000
03010000
00001000
00010000
00001000
00000010
00000100
00000000
,
00001000
00000001
00000100
00000000
00000010
00001000
00000100
00000000
,
00010000
00010000
00001000
00100000
00010000
10000000
10010000
00000000
,
20000000
30100000
00020000
00031000
00000020
00000031
00000020
00001030
,
00020000
00031000
00100000
00010000
00100000
01000000
10000000
00000000
,
00010000
01000000
00100000
00000000
10000000
00010000
00100000
00000000
,
00001000
00001000
00010000
00000010
00001000
00000001
00001001
00000000
,
00000100
00000010
00000000
00000100
00000010
00000000
00001000
00000000
00000100
00010000
00000000
00000100
00010000
00000000
00001000
00000000
,
01000000
01000000
00010000
10000000
01000000
00010000
00001000
00010000
,
00000010
00001000
00000000
00000010
00001000
00000000
00000100
00000000
00000010
00000001
00000000
00000010
00000001
00000000
00001000
00000000
,
00000100
00010000
00000000
00001000
00100000
00000000
00010000
00100000
00000000
01000000
00100000
00000000
00010000
00000000
00010000
00000000
,
10000000
00100000
00000000
10000000
00010000
00000000
01000000
00000000
00001000
00100000
00000000
00010000
00100000
00000000
00001000
00000000
,
00010000
00001000
00000010
00000001
00000010
00001000
00010000
00001000
,
00010000
00000100
00000000
00001000
00000100
00000000
00000010
00000000
00000001
00000100
00000000
00000010
00000100
00000000
00000010
00000000
,
00001000
00000100
00000000
00010000
00000100
00000000
00010000
00001000
00000000
00001000
00010000
00000000
00011000
00000000
00000000
00000000
,
00100000
00010000
00000000
00010000
01000000
00000000
00100000
00000000
10000000
01000000
00000000
01000000
00100000
00000000
00010000
00000000
,
01000000
00001000
00010000
00001000
00000010
00000001
00000100
00000010
,
00001000
00000100
00000000
00000100
00010000
00000000
00001000
00000000
00100000
00010000
00000000
00010000
10000000
00000000
01000000
00000000
,
10000000
00100000
00010000
00001000
00000100
00000001
00001000
00000100
,
00000010
00000001
00000000
00000001
00000100
00000000
00001000
00000000
00010000
00001000
00000000
00001000
00010000
00000000
01000000
00000000
,
10000000
00100000
01000000
00010000
00100000
00001000
00010000
00001000
,
00000010
00000000
00000001
00001000
00000000
00000100
00020000
00000000
,
00000000
00000000
00000000
00000000
00031000
00010000
00001000
00000000
00100000
00000000
00000000
00000000
01100000
00000000
00000000
00000000
,
22000000
00000000
00000000
00000000
,
00000000
00000000
00000000
33000000
,
10000000
00100000
00010000
00001000
00000100
00000001
00000010
00001000
,
00010000
00000000
00000000
00000000
00010000
00001000
00000000
00000000
00001000
00000100
00000000
00000000
00000100
00000010
00000000
00000000
,
00000001
00000100
00001000
00010000
00100000
10000000
01000000
00010000
,
00001000
00000000
00000000
00000000
00001000
00010000
00000000
00000000
00010000
00100000
00000000
00000000
00100000
01000000
00000000
00000000
,
10000000
00100000
01000000
01010000
00000000
00011000
00000000
00002200
,
00000000
00000000
00003300
00000000
00000001
00000100
00000000
00000000
00000100
00001000
00000000
00000000
00001000
00010000
00000000
00000000
,
00002000
00103000
00010000
00100000
00020000
10030000
01000000
10000000
,
00200000
00000000
00000000
00000000
10300000
01000000
00000000
00000000
01000000
00010000
00000000
00000000
00010000
00001000
00000000
00000000
,
00010000
00000000
00001000
00000000
00010000
00000000
00000100
00000000
00001000
00000010
00001000
00000000
00000001
00000000
00000010
00000000
,
00000001
00000000
00000000
00000000
00000100
00000010
00000000
00000000
00001000
00000100
00000000
00000000
00010000
00001000
00000000
00000000
,
01000000
00000000
00010000
00000000
01000000
00000000
00100000
00000000
10000000
01000000
10000000
00000000
00100000
00000000
01000000
00000000
,
00100000
00000000
00000000
00000000
01000000
00010000
00000000
00000000
00100000
00001000
00000000
00000000
00010000
00000100
00000000
00000000
,
00000000
00001000
00000010
00001010
00000000
00000011
00000000
00000101
,
00000000
00000000
00000000
00000000
00001000
00000100
00000000
00000000
00000100
00010000
00000000
00000000
00010000
00001000
00000000
00000000
,
00011000
00000000
10000000
00010000
10010000
00000000
01000000
00100000
,
01100000
00000000
00000000
00000000
10000000
01000000
00000000
00000000
01000000
00010000
00000000
00000000
00010000
00001000
00000000
00000000
,
00022000
00000000
00000000
00033000
,
00000010
00000000
00000000
00001000
00000100
00000000
00000000
00000010
00000001
00000000
00000000
00000100
00001000
00000000
00000000
00010000
,
00001000
00010000
00001000
00010000
00100000
10000000
01000000
00000000
,
01100000
00000000
00000000
10000000
01000000
00000000
00000000
00010000
00001000
00000000
00000000
00000100
00000001
00000000
00000000
00000010
,
00001000
00010000
00001000
00100000
00110000
00000000
11000000
00000000
,
00000000
00000000
00000000
00000000
;
#NOTES:
     dance-double:
     :
     Challenge:
     17:
     :
00000000
00000000
00000000
00000000
,
00000000
00000000
00000000
00000000
,
00000000
00000000
00000000
00000000
,
00000000
00000000
00000000
00000000
,
00000000
00000000
00000000
00000000
,
00000000
00000000
00000000
00000000
,
00000001
00000000
00000000
00000001
00000100
00001000
00000000
00001000
00010000
00000000
00000000
00010000
00001000
00000000
00001000
00010000
,
00100000
00000000
00100000
00000000
10000000
00010000
00000000
00010000
10000000
00000000
01000000
00100000
00010000
00000000
00100000
00000000
,
00001000
00010000
00001000
00010000
00001000
00000010
00001000
00000010
00000000
00000000
00000001
00000010
00000100
00001000
00000001
00000000
,
00000100
00000000
00000000
00000100
00001000
00010000
00000000
00010000
00001000
00000000
00000000
00000000
00011000
00000000
00000000
00000000
,
00001000
00000000
00001000
00010000
01000000
00000000
01000000
00100000
00010000
00000000
00010000
10000000
00010000
00000000
01000000
00000000
,
00100000
00000000
10000000
01000000
00010000
00000000
00010000
01000000
20000000
00000000
30020000
00000000
10030000
00000000
00000000
00000000
,
10000000
00000000
01000000
00000000
00100000
00010000
00100000
00001000
00000000
00000000
00001000
00010000
00001000
00010000
00001000
00000000
,
00010000
00001000
00000000
00000010
00000000
00001000
00000000
00010000
00000000
00000000
00001000
00010000
00001000
00000000
00000000
00000000
,
00010000
00000000
00010000
00001000
00000100
00000000
00000100
00000010
00001000
00000000
00001000
00000001
00001000
00000000
00000100
00000000
,
00000010
00000000
00000001
00000100
00001000
00000000
00001000
00000100
00000002
00000000
00002003
00000000
00003001
00000000
00000000
00000000
,
00000001
00000100
00000000
00000010
00000000
00001000
00000010
00010000
00000000
00000000
00010000
00001000
00010000
00001000
00010000
00000000
,
00001000
00010000
00000000
00100000
00000000
00010000
00000000
00000000
00001000
00000000
00010000
00000000
00011000
00000000
00000000
00000000
,
00001000
00010000
00000000
00010000
00100000
00010000
00000000
00010000
00001000
00010000
01000000
00100000
00001000
00010000
01000000
00000000
,
10000000
01000000
00000000
01000000
00010000
01000000
00000000
01000000
10000000
00100000
01000000
00100000
00010000
00001000
00010000
00000000
,
00002000
00000000
00103000
01000000
00020000
00000000
01030000
00100000
00002000
00000000
00023000
00000000
00230000
00000000
00320000
00000000
,
00031000
00000010
00000100
00010000
00011000
00001000
00011000
00000000
,
00010000
00001000
00000000
00001000
00000010
00001000
00000000
00001000
00010000
00001000
00000100
00000010
00010000
00001000
00000100
00000000
,
00000001
00000100
00000000
00000100
00001000
00000100
00000000
00000100
00000001
00000010
00000100
00000010
00001000
00010000
00001000
00000000
,
00020000
00000000
00030010
00000100
00002000
00000000
00003100
00000010
00020000
00000000
00032000
00000000
00003020
00000000
00002030
00000000
,
00013000
00000000
00100000
00000000
01000000
00001000
00010000
00000000
00011000
00000000
00001000
00000000
00011000
00000000
00000000
00000000
,
00001000
00010000
00000000
00000000
00100000
10000000
00000000
00000000
01000000
00010000
00000000
00000000
00001000
00000010
00000000
00000000
,
00000001
00001000
00001000
00010000
00010000
10000000
10010000
00000000
,
10000000
01000000
00100000
00010000
00001000
00000100
00000010
00000001
,
00000100
00000010
00001000
00010000
01000000
00001000
00011000
00000000
,
00010000
00001000
00000000
00000000
00000010
00000001
00000000
00000000
00000100
00001000
00000000
00000000
00010000
00100000
00000000
00000000
,
10000000
00010000
00010000
00001000
00001000
00000001
00001001
00000000
,
00000001
00000100
00000010
00001000
00010000
01000000
00100000
10000000
,
01000000
00100000
00001000
00010000
00000000
00010000
00011000
00000000
,
00001000
00000000
00000000
00000110
00000000
00000000
00000000
00000000
00000001
00000000
00000000
00000110
00000000
00000000
00000000
00000000
,
00000001
00000010
00000000
00000010
00000100
00000000
00000100
00010000
00000000
00010000
00001000
00000000
00010000
00000000
00001000
00000000
,
00010000
00000000
00000000
01100000
00000000
00000000
00000000
00000000
10000000
00000000
00000000
01100000
00000000
00000000
00000000
00000000
,
10000000
00100000
00000000
00100000
01000000
00000000
01000000
00001000
00000000
00001000
00010000
00000000
00001000
00000000
00010000
00000000
,
00001000
00000000
00000000
00000110
00000000
00000000
00000000
00000000
00000001
00000000
00000000
00000110
00000000
00000000
00000000
00000000
,
00000001
00000100
00000010
00001000
00000010
00000000
00010000
00001000
00000000
00001000
01000000
00000000
00010000
00100000
00000000
00001000
,
00010000
00000000
00000000
01100000
00000000
00000000
00000000
00000000
10000000
00000000
00000000
01100000
00000000
00000000
00000000
00000000
,
10000000
01000000
00100000
00010000
00100000
00000000
00001000
00010000
00000000
00010000
00000100
00000000
00001000
00000000
00000000
00000000
,
00000001
00000100
00000000
00000100
00000001
00000010
00000100
00000000
00001000
00000100
00000000
00000100
00010000
00001000
00010000
00000000
,
00001000
00100000
00001000
00100000
00010000
00000000
01000000
10000000
00000000
01000000
00010000
00000000
01000000
00100000
10000000
01000000
,
00100000
00010000
00000000
00010000
01000000
00010000
01000000
00000000
00001000
00010000
00000000
00010000
00000010
00001000
00000010
00000000
,
00001000
00000100
00001000
00000100
00000010
00000000
00001000
00000010
00000000
00000001
00000010
00000000
00000100
00001000
00000100
00010000
,
00001000
00010000
00000000
00010000
00100000
01000000
00100000
00000000
10000000
01000000
00000000
01000000
00010000
00001000
00010000
00000000
,
00001000
00010000
00000010
00001000
00000100
00000000
00000001
00000100
00000000
00000100
00001000
00000000
00000001
00000010
00000100
00001000
,
00000200
00000000
00010300
00012000
00000000
01003000
01010000
00000000
,
00000000
00000000
00000000
00000000
00010000
01000000
10000000
00000000
01100000
00000000
00000000
00000000
10010000
00000000
00000000
00000000
,
02200000
00000000
00000000
00000000
,
00000000
00000000
00000000
03300000
,
10000000
00000000
01000000
00100000
00010000
00000000
00100000
00001000
00010000
00000000
00001000
00010000
00000100
00000000
00001000
00000010
,
00000100
00000000
00000000
00000000
00000001
00000100
00000000
00000000
00001000
00010000
00000000
00000000
00001000
00000100
00000000
00000000
,
00000001
00000000
00000100
00000010
00001000
00000000
00000010
00010000
00001000
00000000
00010000
00001000
01000000
00000000
00010000
00100000
,
01000000
00000000
00000000
00000000
10000000
01000000
00000000
00000000
00010000
00001000
00000000
00000000
00010000
01000000
00000000
00000000
,
10000000
00000000
00100000
01000000
00010000
00000000
01010000
00000000
00000000
00000000
01000000
00001000
00010000
00000000
00011000
00000000
,
00000000
00000000
00010000
00000010
00001000
00000010
00000000
00000000
00000001
00000010
00000000
00000000
00001000
00000010
00000000
00000000
,
00000010
00001000
00000010
00001000
00000100
00010000
00000100
00000000
00010000
00001000
00010000
00001000
00100000
00010000
00100000
00000000
,
00010000
01000000
00100000
00000000
10000000
01000000
00100000
00000000
00110000
00000000
00010000
00000000
10010000
00000000
00000000
00000000
,
10000000
00000000
00100000
01000000
00010000
00000000
00100000
01000000
00010000
00000000
00001000
00000010
00000100
00000000
00001000
00000010
,
00000100
00000000
00000000
00000000
00000001
00000010
00000000
00000000
00001000
00010000
00000000
00000000
00001000
00000010
00000000
00000000
,
00000001
00000000
00000010
00000100
00001000
00000000
00000010
00000100
00001000
00000000
00010000
00100000
01000000
00000000
00010000
00100000
,
01000000
00000000
00000000
00000000
10000000
00100000
00000000
00000000
00010000
00001000
00000000
00000000
00010000
00100000
00000000
00000000
,
10000000
00000000
01000000
00100000
00010000
00000000
00110000
00000000
00000000
00000000
00100000
00001000
00010000
00000000
00011000
00000000
,
00000000
00000000
00010000
00000100
00001000
00000100
00000000
00000000
00000001
00000100
00000000
00000000
00001000
00000100
00000000
00000000
,
00000100
00001000
00000010
00001000
00000100
00010000
00001000
00000000
00010000
00001000
00100000
00010000
01000000
00100000
01000000
00000000
,
00010000
00100000
01000000
00000000
10000000
00100000
01000000
00000000
01010000
00000000
00010000
00000000
10010000
00000000
00000000
00000000
,
20020000
00000000
00000000
30030000
,
10000000
00000000
00000000
10000000
01000000
00010000
00000000
00010000
00001000
00000000
00000000
00001000
00010000
00000000
00010000
00001000
,
00000010
00000000
00000010
00000000
00000001
00001000
00000000
00001000
00000001
00000000
00000100
00000010
00001000
00000000
00000010
00000000
,
00010000
00001000
00010000
00001000
00010000
00100000
00010000
00100000
00000000
00000000
10000000
00100000
01000000
00010000
10000000
00000000
,
01000000
00000000
00000000
01000000
00010000
00001000
00000000
00001000
00010000
00000000
00000000
00000000
00011000
00000000
00000000
00000000
,
00000000
00000000
00000000
00000000
;
