
//----- song ID: blak -----//
#TITLE:BLAKE;
#ARTIST:A.T.park;
#BANNER:BLAKE.png;
#BACKGROUND:BLAKE-bg.png;
#CDTITLE:./CDTitles/OVER 200.png;
#MUSIC:BLAKE.ogg;
#SAMPLESTART:59.954;
#SAMPLELENGTH:15;
#BPMS:0=200;
#NOTES:
     dance-single:
     :
     Beginner:
     3:
     :
0000
0000
0000
0000
,
0000
0000
0000
0000
,
0000
0000
0000
0000
,
0000
0000
0000
0000
,
0000
0000
0000
0000
,
0000
0000
0000
0000
,
0000
0000
0000
0000
,
0000
0000
0000
0000
,
0000
0000
0000
0000
,
0001
0000
0100
0000
,
0001
0000
0100
0000
,
0001
0000
0010
0000
,
0001
0000
0000
0000
,
1000
0000
0100
0000
,
1000
0000
0100
0000
,
1000
0000
0010
0000
,
1000
0000
0000
0000
,
0200
0000
0000
0000
,
0300
0000
0000
0000
,
2000
0000
0000
0000
,
3000
0000
0000
0000
,
0020
0000
0000
0000
,
0030
0000
0000
0000
,
0002
0000
0000
0000
,
0003
0000
0000
0000
,
0000
0000
0000
0000
,
0001
0000
0000
0000
,
0010
0000
0000
0000
,
0100
0000
0100
0000
,
0100
0000
0000
0000
,
1000
0000
0000
0000
,
0100
0000
0000
0000
,
0010
0000
0010
0000
,
0010
0000
0000
0000
,
0001
0000
0100
0000
,
0001
0000
0100
0000
,
0010
0000
1000
0000
,
0100
0000
0000
0000
,
1000
0000
0010
0000
,
1000
0000
0010
0000
,
0100
0000
0001
0000
,
0010
0000
0000
0000
,
0001
0000
0001
0000
,
0001
0000
0000
0000
,
0010
0000
0010
0000
,
0010
0000
0000
0000
,
0100
0000
0100
0000
,
0100
0000
0000
0000
,
1000
0000
1000
0000
,
1000
0000
0000
0000
,
1001
0000
0000
0000
,
1001
0000
0000
0000
,
0010
0000
1000
0000
,
0100
0000
0000
0000
,
1000
0000
0100
0000
,
0001
0000
0100
0000
,
0001
0000
0000
0000
,
0010
0000
0000
0000
,
1001
0000
0000
0000
,
1001
0000
0000
0000
,
0010
0000
0001
0000
,
0100
0000
0000
0000
,
0020
0000
0000
0000
,
0030
0000
0000
0000
,
0200
0000
0000
0000
,
0300
0000
0000
0000
,
1001
0000
0000
0000
,
1001
0000
0000
0000
,
0100
0000
0001
0000
,
0010
0000
0000
0000
,
0001
0000
0010
0000
,
1000
0000
0010
0000
,
1000
0000
0000
0000
,
0100
0000
0000
0000
,
1001
0000
0000
0000
,
1001
0000
0000
0000
,
0100
0000
1000
0000
,
0010
0000
0000
0000
,
0200
0000
0000
0000
,
0300
0000
0000
0000
,
0020
0000
0000
0000
,
0030
0000
0000
0000
,
0001
0000
0001
0000
,
0100
0000
0000
0000
,
0010
0000
0010
0000
,
1000
0000
0000
0000
,
1001
0000
0000
0000
,
0000
0000
0000
0000
,
1000
0000
0100
0000
,
0001
0000
0000
0000
,
0001
0000
0100
0000
,
1000
0000
0000
0000
,
1000
0000
0010
0000
,
0001
0000
0000
0000
,
0001
0000
0010
0000
,
1000
0000
0000
0000
,
0200
0000
0000
0000
,
0300
0000
0000
0000
,
0020
0000
0000
0000
,
0030
0000
0000
0000
,
0002
0000
0000
0000
,
0003
0000
0000
0000
,
2000
0000
0000
0000
,
3000
0000
1001
0000
,
0000
0000
0000
0000
;
#NOTES:
     dance-single:
     :
     Easy:
     7:
     :
0000
0000
0000
0000
,
0000
0000
0000
0000
,
0000
0000
0000
0000
,
0000
0000
0000
0000
,
0000
0000
0000
0000
,
0000
0000
0000
0000
,
0000
0000
0000
0000
,
0000
0000
0000
0000
,
0000
0000
0000
0000
,
0001
0000
1000
0000
,
0100
1000
0010
0000
,
1000
0000
0001
0000
,
0100
0001
0010
0000
,
0001
0000
0100
0000
,
0010
1000
0010
0000
,
1000
0000
0100
0000
,
0010
0001
0010
0001
,
2000
0000
0010
0000
,
0001
0000
3001
0000
,
0002
0000
0010
0000
,
1000
0000
1003
0000
,
0020
0000
1030
0000
,
1000
0000
0001
0000
,
0020
0000
0031
0000
,
0001
0000
0000
0100
0000
0000
1000
0000
,
0000
0000
0000
0000
,
0010
0000
1000
0000
,
0100
0100
0100
0000
,
0010
0000
0001
0000
,
0100
0001
1000
0000
,
0010
0000
1000
0000
,
0100
0100
0100
0000
,
1000
0000
0001
0000
,
2002
0000
0000
3003
,
0010
1000
0010
0000
,
0100
0001
0100
0000
,
0001
0010
0001
0100
,
0001
1000
0001
0000
,
1000
0100
1000
0000
,
0001
0010
0001
0000
,
1000
0010
1000
0100
,
1000
0001
1000
0000
,
1000
0000
1000
0100
,
0000
0010
0010
0000
,
0001
0000
0001
0100
,
0000
0010
0010
0000
,
0010
1000
0100
0000
,
0010
0001
0100
0000
,
0010
0000
0000
0010
0000
0010
0000
0020
,
0000
0000
0000
0030
,
1000
0010
1000
0000
,
0001
0010
0001
0000
,
1000
0100
0010
0000
,
0001
0010
0100
0000
,
1000
0100
0010
0001
,
0100
0010
1000
0100
,
1000
1000
0000
0001
,
0001
0000
0000
0010
0000
0000
0001
0000
,
0100
0010
0100
0000
,
0001
1000
0001
0000
,
1000
0010
0100
0000
,
0001
0100
0010
0000
,
1000
1000
0100
0010
,
0001
0001
0100
0010
,
1000
0100
0001
0100
,
2000
3000
0002
0003
,
0001
0100
0001
0000
,
1000
0100
1000
0000
,
0001
0010
0100
0000
,
1000
0100
0010
0000
,
0001
0010
0100
1000
,
0010
0100
0001
0010
,
0001
0001
0000
1000
,
1000
0000
0000
0100
0000
0000
1000
0000
,
0010
0100
0010
0000
,
1000
0001
1000
0000
,
0001
0100
0010
0000
,
1000
0010
0100
0000
,
0001
0001
0010
0100
,
1000
1000
0010
0100
,
0001
0010
1000
0010
,
0001
0100
1000
0100
,
0001
0000
0000
0001
0000
0000
0001
0000
,
1000
0000
0000
1000
0000
0000
1000
0000
,
0100
0010
0100
0010
,
0002
0003
2000
3000
,
2002
0000
0000
0000
,
0000
0000
0000
3003
,
1000
0100
0010
0001
,
1000
0010
0100
0001
,
0010
0100
0010
0010
,
0001
1000
0001
0001
,
0100
0010
1000
0001
,
0010
0100
1000
0001
,
0010
0000
0100
0000
1000
0001
1000
0000
,
0020
0030
0200
0300
,
0001
0001
0001
0000
,
1000
1000
1000
0000
,
0010
1000
0100
1000
,
0010
0100
0001
0000
,
0100
0100
0100
0000
,
0010
0010
0010
0000
,
0100
0001
0010
0001
,
0100
0010
1000
0001
,
0000
0000
0000
0000
;
#NOTES:
     dance-single:
     :
     Medium:
     11:
     :
0000
0000
0000
0000
,
0000
0000
0000
0000
,
0000
0000
0000
0000
,
0000
0000
0000
0000
,
0000
0000
0000
0000
,
0000
0000
0000
0000
,
0000
0000
0000
0000
,
0000
0000
0000
0000
,
0000
0000
0000
0000
,
1000
0000
0001
0000
1000
0000
0100
0010
,
0000
0100
0010
0000
0001
0000
0100
0000
,
0001
0000
1000
0000
0001
0000
0100
0010
,
0000
0100
0010
0000
1000
0000
0100
0000
,
0010
0000
0001
0000
0100
0000
0010
1000
,
0000
0100
1000
0000
0010
0000
0100
0000
,
0001
0000
1000
0000
0100
0000
0010
0001
,
0010
0000
0000
0110
0000
0000
1000
0001
,
2000
0000
0010
0000
,
0100
0100
3100
0000
,
0002
0000
0010
0000
,
0100
0100
0103
0000
,
0200
0000
0001
0000
,
0010
0010
0310
0000
,
0020
0000
1000
0000
,
0130
0000
0001
0010
0000
0100
1000
0000
,
0000
0000
0000
0000
,
1000
0000
0100
0000
1000
0000
0010
0100
,
0000
0100
0000
0100
0000
0010
1000
0000
,
0100
0000
0001
0000
0100
1000
0000
0001
,
0020
1000
0000
0031
,
0100
0000
0001
0000
0010
0000
0100
1000
,
0000
1000
0000
1000
0000
0001
0100
0001
,
0000
0010
0100
0000
0000
1000
0001
1000
,
0020
0000
0000
0030
,
0100
0000
0001
0010
0000
0010
0000
0010
,
0100
0000
1000
0010
0000
0010
0100
0000
,
0001
0100
1000
0100
,
0001
0010
1000
0010
,
0001
0000
1000
0100
0000
0100
0000
0100
,
0010
0000
0001
0100
0000
0100
0010
0000
,
1000
0000
0001
2000
0000
0000
3000
0000
,
0010
0100
0010
1000
0001
0000
0010
0000
,
0001
0101
1100
0101
,
0000
0010
1000
0100
,
1000
1010
0011
1010
,
0000
0000
0100
0001
0100
0000
0001
0000
,
0011
0110
1010
0110
,
0000
0000
1000
0000
0010
0000
0100
0001
,
0100
0000
0001
0010
0000
0001
0000
2002
,
0000
0000
0000
3003
,
0000
0000
0100
0010
0000
1001
0000
0000
,
0000
0000
0100
0010
0000
1001
0000
0000
,
0000
0000
0001
0000
0100
2000
0000
3200
,
0000
0302
0000
2003
0000
3100
0000
0000
,
0010
0001
0010
0001
,
0100
0010
0100
0010
,
1000
0100
1000
0000
0100
0000
1000
0001
,
1000
0000
0000
0110
0000
0000
0001
1000
,
0001
0000
0010
0100
0000
1001
0000
0000
,
0000
0000
0010
0100
0000
1001
0000
0000
,
0000
0000
1000
0000
0010
0000
0001
0020
,
0000
2030
0000
3002
0000
0013
0000
0000
,
0100
0000
1000
0000
0100
1000
0100
0000
,
0010
0000
0100
0000
0010
0100
0010
0000
,
0001
0010
0001
0000
0010
0000
0001
1000
,
0002
0103
2000
3100
,
0001
0000
0010
0001
0000
0101
0000
0000
,
0000
0000
0010
1000
0000
1100
0000
0000
,
0000
0000
0010
0000
0100
2000
0000
3020
,
0000
0230
0000
0302
0000
0013
0000
0000
,
0100
1000
0100
1000
,
0010
0100
0010
0100
,
0001
0010
0001
0000
1000
0000
0100
1000
,
0010
0000
0000
0010
0000
0000
0010
0100
,
0010
0000
1000
0100
0000
1000
0001
0100
,
0000
0000
0001
1000
0001
0000
0100
0000
,
0010
0000
1000
0100
0000
0010
0000
0001
,
0000
1000
0000
0100
0000
0010
0001
0000
,
1000
0100
1000
0000
0010
0000
0010
0000
,
0001
0100
0001
0000
0010
0000
0010
0000
,
1000
0010
1000
0000
0001
0010
0001
0000
,
1000
0100
1000
0001
1000
0000
0001
0000
,
0200
0000
0000
0310
0000
0000
1000
0000
,
0020
0000
0000
0130
0000
0000
0001
0000
,
0100
0010
1000
0000
0100
0010
0001
0000
,
2000
3100
0002
0013
,
0220
0000
0000
0000
,
0000
0000
0000
0330
,
0100
0000
1000
0000
0010
0000
0100
0001
,
0000
0100
0001
0000
0010
0000
0100
1000
,
0000
0100
1000
0000
0010
0000
1000
0001
,
0000
0000
0100
0000
0001
1000
0001
0000
,
0010
0000
0001
0000
0100
0000
0010
1000
,
0000
0010
1000
0000
0100
0000
0010
0001
,
0010
0000
0001
0000
0100
0000
0001
1000
,
0020
0030
0200
0300
,
0001
0000
0100
1000
0000
0100
0000
0000
,
0001
0000
0100
1000
0000
0100
0000
0000
,
0001
0010
0100
1000
,
0010
0100
0001
0000
,
1000
0000
0100
0001
0000
0100
0000
0000
,
1000
0000
0100
0001
0000
0100
0000
0000
,
1000
0010
0100
0001
,
0010
0000
0100
0000
1000
0001
1000
0001
,
0000
0000
0000
0000
;
#NOTES:
     dance-single:
     :
     Hard:
     14:
     :
0000
0000
0000
0000
,
0000
0000
0000
0000
,
0000
0000
0000
0000
,
0000
0000
0000
0000
,
0000
0000
0000
0000
,
0000
0000
0000
0000
,
0000
0000
0000
0000
,
0000
0000
0000
0000
,
0000
0000
0000
0000
,
0010
0000
0001
0100
0010
1000
0100
1000
,
0000
0010
0100
0000
0001
1000
0001
0000
,
0100
0000
0010
1000
0100
1000
0010
0100
,
0000
0001
1000
0000
0100
0010
0100
0000
,
1000
0000
0001
0100
0010
1000
0001
0100
,
0000
0001
1000
0000
0100
0010
0001
0000
,
1000
0000
0010
0100
0001
1000
0001
0000
,
1000
0100
0010
0001
0100
0010
1000
0000
,
0100
0010
1001
0000
,
0010
0100
0010
0000
1001
0000
0000
0000
,
0001
1000
0110
0000
,
1000
0001
1000
0000
0110
0000
0000
0000
,
0010
1000
0101
0000
,
0010
0001
0010
0000
1100
0000
0000
0000
,
0100
1000
0011
0000
,
0100
0001
0100
0000
0010
1000
0010
1000
,
0000
0000
0000
0000
,
1000
0000
0100
0001
0100
0000
1000
0010
,
0000
0100
0000
0100
0010
1000
0010
0100
,
0001
0000
0010
1000
0010
0001
0000
1000
,
0200
0001
0010
1300
,
1001
0000
0100
0010
1000
0000
0010
0100
,
0000
0001
0000
1000
0010
0001
0010
1000
,
0000
0001
0100
0000
0010
1000
0010
0100
,
0020
0000
0000
0030
,
1000
0100
1000
0100
0000
1000
0000
1100
,
0001
0010
0001
0010
0000
0010
0001
0100
,
0010
1000
0010
1000
0000
0100
0100
0000
,
0010
0001
0010
0001
0000
0100
0100
0000
,
0001
0100
0001
0100
0000
0001
0000
0101
,
1000
0010
1000
0010
0000
1000
0100
0010
,
0001
0000
1000
0002
0000
0000
0003
0000
,
1000
0010
1000
0000
0001
0000
0100
0000
0001
0000
0000
0000
1000
0000
0000
0000
,
0100
0000
0010
0001
0000
0001
0100
0000
,
0110
0000
0010
1000
0000
1000
0100
0000
,
0110
0000
0100
1000
0000
1000
0010
0000
,
0110
0000
0100
0001
0000
0001
0010
0000
,
1001
0000
0001
0100
0000
0100
1000
0000
,
1001
0000
1000
0010
0000
0010
0001
0000
,
1000
0000
0100
0000
0001
0000
0100
0000
1000
0000
0001
0100
0001
0000
0020
0000
,
0000
0000
0000
0030
,
0110
0000
0100
0010
0001
0100
0010
0001
,
0000
0000
0001
0010
1000
0001
0100
1000
,
0000
0000
1000
0100
0010
1000
0100
0002
,
0000
0203
0000
2300
0000
3010
0010
0000
,
1001
0200
0302
0023
,
1000
0000
0032
0000
0103
0010
0000
0010
,
1000
0100
0010
0000
0110
0000
0010
0100
,
1000
0010
0001
0010
1000
0001
0100
0000
,
0011
0000
0010
0100
1000
0010
0100
1000
,
0000
0000
1000
0100
0001
1000
0010
0001
,
0000
0000
0001
0010
0100
0001
0010
2000
,
0000
3020
0000
0032
0000
0103
0000
0100
,
0010
0000
0100
0010
2000
0000
3200
0000
,
0302
0000
0203
0000
1300
0010
0100
0001
,
0010
0100
1000
0010
0100
0001
0010
0001
,
0100
0010
1000
0100
0010
0001
1000
0000
,
1010
0000
0100
0010
1000
0100
0010
1000
,
0000
0000
1000
0010
0001
1000
0100
0001
,
0000
0000
0001
0100
0010
0001
0100
2000
,
0000
3200
0000
0302
0000
0013
0010
0000
,
1001
0200
2300
3020
,
0001
0000
2030
0000
3100
0010
0000
0010
,
0001
0100
0010
0000
0110
0000
0010
0100
,
0001
0010
1000
0010
0001
1000
0100
0000
,
1010
0000
0010
0100
0001
0010
0100
0001
,
0000
0000
0001
0100
1000
0001
0010
0000
,
0011
0000
0100
1000
0000
0001
0010
0002
,
0000
0023
0000
0230
0000
1300
0100
0000
,
0010
0001
0101
0000
0010
1000
0100
1100
,
0000
0010
0100
0000
1000
0010
0001
0000
,
0010
1000
0010
1000
0001
0100
0001
0100
,
0010
1000
0100
0010
0100
0010
0001
0000
,
0200
0000
0000
1000
0000
0000
0301
1000
,
0200
0000
0000
0001
0000
0000
1300
0001
,
0100
0010
1000
0001
0100
0010
1000
0001
,
0010
0010
0000
0100
0000
0010
0000
0110
,
0000
0000
0000
0000
,
0000
0000
0000
0000
,
1000
0010
0100
0001
0100
0010
1000
1001
,
0000
1000
0100
0010
0001
1000
0001
0011
,
0000
1000
0100
0001
0100
1000
0001
0011
,
0000
0000
0001
0000
0100
0000
0010
0000
1000
0000
0100
0000
1000
0001
1000
0000
,
0001
0100
0010
1000
0010
0100
0001
1001
,
0000
0000
0001
0000
0010
0000
0100
0000
1000
0000
0001
0000
1000
0000
0100
1000
,
0001
0010
1000
0010
0001
1000
0100
0010
,
0100
0000
0000
0100
0000
0000
0100
0000
0010
0000
0000
0010
0000
0000
0010
0000
,
0001
0000
0000
0000
1000
0000
0010
0000
0001
0000
0010
1000
0010
0000
0100
0000
,
0001
0000
0000
0000
1000
0000
0010
0000
0001
0000
0010
1000
0010
0000
0100
0000
,
0001
0000
1000
0010
0001
0010
0001
0010
,
2000
0000
0000
0000
0100
0000
0000
0000
3001
0000
0000
0000
0001
1000
0001
0000
,
1000
0000
0000
0000
0001
0000
0010
0000
1000
0000
0010
0001
0010
0000
0100
0000
,
1000
0000
0000
0000
0001
0000
0010
0000
1000
0000
0010
0001
0010
0000
0100
0000
,
1000
0000
0001
0010
1000
0010
1000
0010
,
0001
0000
0001
0000
0001
0000
0100
0000
0100
0000
0100
0000
0010
1000
0001
0000
,
0000
0000
0000
0000
;
#NOTES:
     dance-double:
     :
     Easy:
     7:
     :
00000000
00000000
00000000
00000000
,
00000000
00000000
00000000
00000000
,
00000000
00000000
00000000
00000000
,
00000000
00000000
00000000
00000000
,
00000000
00000000
00000000
00000000
,
00000000
00000000
00000000
00000000
,
00000000
00000000
00000000
00000000
,
00000000
00000000
00000000
00000000
,
00000000
00000000
00000000
00000000
,
00000010
00000000
00000001
00000000
,
00000100
00000010
00000100
00000000
,
00001000
00000000
00010000
00000000
,
00001000
00010000
00001000
00000000
,
00100000
00000000
00010000
00000000
,
01000000
00100000
01000000
00000000
,
00010000
00000000
10000000
00000000
,
01000000
00100000
00001000
00000000
,
00020000
00000000
00000010
00000000
,
00001000
00000000
00031000
00000000
,
00002000
00000000
00100000
00000000
,
00010000
00000000
00013000
00000000
,
00020000
00000000
00000100
00000000
,
00001000
00000000
00031000
00000000
,
00002000
00000000
01000000
00000000
,
00013000
00000000
00000000
00100000
00000000
00000000
10000000
00000000
,
00000000
00000000
00000000
00000000
,
00100000
00000000
10000000
00000000
,
00010000
00010000
00010000
00000000
,
00100000
00000000
00001000
00000000
,
00010000
00000000
00010000
00000000
,
00000100
00000000
00001000
00000000
,
00000001
00000001
00000001
00000000
,
00000100
00000000
00000010
00000000
,
00000220
00000000
00000000
00000330
,
00000010
00000000
00010000
00000000
,
00001000
00010000
00001000
00000000
,
00100000
00010000
01000000
00000000
,
00100000
10000000
01000000
00000000
,
00100000
00000000
00001000
00000000
,
00010000
00001000
00010000
00000000
,
00000100
00001000
00000010
00000000
,
00000100
00000001
00000010
00000000
,
00000001
00001000
00000001
00001000
,
00000000
00000000
00000110
00000000
,
00001000
00010000
00001000
00010000
,
00000000
00000000
00011000
00000000
,
00100000
00010000
01000000
00000000
,
00100000
10000000
01000000
00000000
,
00100000
00000000
00000000
00001000
00000000
00010000
00000000
00002000
,
00000000
00000000
00000000
00003000
,
00001000
00010000
00001000
00000000
,
00010000
00000100
00010000
00000000
,
00000010
00001000
00000100
00000000
,
00000010
00000001
00000100
00000000
,
00000001
00000100
00000010
00001000
,
00000100
00010000
00001000
00100000
,
00010000
00010000
00000000
10000000
,
10000000
00000000
00000000
00100000
00000000
00000000
01000000
00000000
,
00010000
00100000
00010000
00000000
,
01000000
00001000
01000000
00000000
,
00001000
00010000
00000100
00000000
,
00001000
00000010
00000100
00000000
,
00000001
00000100
00000001
00000100
,
00000010
00001000
00000010
00010000
,
00001000
01000000
00010000
01000000
,
00100000
00010000
00001000
00000000
,
00010000
00001000
00010000
00000000
,
00001000
00100000
00001000
00000000
,
01000000
00010000
00100000
00000000
,
01000000
10000000
00100000
00000000
,
10000000
00100000
01000000
00010000
,
00100000
00001000
00010000
00000100
,
00001000
00001000
00000000
00000001
,
00000001
00000000
00000000
00000100
00000000
00000000
00000010
00000000
,
00001000
00000100
00001000
00000000
,
00000010
00010000
00000010
00000000
,
00010000
00001000
00100000
00000000
,
00010000
01000000
00100000
00000000
,
10000000
00100000
10000000
00100000
,
01000000
00010000
01000000
00001000
,
00010000
00000010
00001000
00000010
,
00000100
00001000
00010000
00000000
,
00001000
00000000
00000000
00001000
00000000
00000000
00001000
00000000
,
00010000
00000000
00000000
00010000
00000000
00000000
00010000
00000000
,
00001000
00000010
00000001
00000100
,
00001000
00000000
00010000
00000000
,
00022000
00000000
00000000
00000000
,
00000000
00000000
00000000
00033000
,
00100000
00001000
01000000
00010000
,
00100000
01000000
10000000
00100000
,
01000000
00010000
00100000
00001000
,
00010000
00010000
00001000
00001000
,
00000010
00000100
00001000
00000010
,
00000100
00000001
00001000
00000100
,
00000001
00000100
00001000
00000100
,
00020000
00030000
00002000
00003000
,
01000000
01000000
01000000
00000000
,
00100000
00100000
00100000
00000000
,
10000000
01000000
00010000
00001000
,
00010000
00001000
00000010
00000000
,
00000100
00000100
00000100
00000000
,
00000010
00000010
00000010
00000000
,
00000001
00000100
00001000
00010000
,
00001000
00010000
00100000
10000000
,
00000000
00000000
00000000
00000000
;
#NOTES:
     dance-double:
     :
     Medium:
     11:
     :
00000000
00000000
00000000
00000000
,
00000000
00000000
00000000
00000000
,
00000000
00000000
00000000
00000000
,
00000000
00000000
00000000
00000000
,
00000000
00000000
00000000
00000000
,
00000000
00000000
00000000
00000000
,
00000000
00000000
00000000
00000000
,
00000000
00000000
00000000
00000000
,
00000000
00000000
00000000
00000000
,
00000001
00000000
00000100
00000000
00000010
00000000
00001000
00000010
,
00000000
00001000
00000010
00000000
00000100
00000000
00001000
00000000
,
00010000
00000000
00001000
00000000
00100000
00000000
00010000
01000000
,
00000000
00010000
01000000
00000000
00100000
00000000
10000000
00000000
,
01000000
00000000
00100000
00000000
00010000
00000000
00100000
00001000
,
00000000
00100000
00001000
00000000
00010000
00000000
00000100
00000000
,
00001000
00000000
00000010
00000000
00000100
00000000
00000001
00000010
,
00000002
00000000
00000000
00002003
00000000
00000000
00003020
00000000
,
00000130
00001000
00011000
00000000
,
01000000
00100000
01000000
00000000
10010000
00000000
00000000
00000000
,
10000000
00100000
01100000
00000000
,
00001000
00010000
00001000
00000000
00011000
00000000
00000000
00000000
,
00000100
00001000
00000011
00000000
,
00000100
00000001
00001000
00000000
00001100
00000000
00000000
00000000
,
00000100
00010000
00011000
00000000
,
00100000
00000000
00010000
01000000
00000000
00100000
10000000
00000000
,
00000000
00000000
00000000
00000000
,
00100000
00000000
10000000
00000000
00100000
00000000
01000000
00010000
,
00000000
00010000
00000000
00100000
00000000
00100000
00001000
00000000
,
00010000
00000000
00000100
00000000
00000010
00000001
00000000
00000100
,
00000002
00000000
00002000
00003003
,
00000010
00000000
00001000
00000000
00000100
00000000
00010000
00001000
,
00000000
00001000
00000000
00100000
00000000
00100000
00010000
01000000
,
00000000
00100000
01000000
00000000
00000000
01000000
00100000
20000000
,
00000000
00000000
00000000
30000000
,
10000000
00000000
00100000
01000000
00000000
00100000
01000000
00000000
,
00100000
00000000
00010000
00001000
00000000
00010000
00001000
00000000
,
00000010
00000000
00000100
00000000
00010000
00001000
00010000
00000000
,
00000010
00000000
00000100
00000000
00001000
00010000
00001000
00000000
,
00000010
00000000
00000001
00001000
00000000
00000001
00001000
00000000
,
00000010
00000000
00000100
00001000
00000000
00000100
00001000
00000000
,
00010000
00000000
00100000
00000000
00010000
00001000
00010000
00000000
,
01000000
00000000
00010000
00000000
00001000
00010000
00001000
00000000
,
00000100
00000001
00000011
00000110
,
00000000
00000010
00001000
00010000
,
01000000
10000000
10100000
01100000
,
00000000
00000000
01000000
00100000
01000000
00000000
00010000
00000000
,
00110000
00001000
00010000
00000100
,
00001100
00000000
00001000
00000000
00000010
00000000
00000100
00001000
,
00010000
00000000
00010000
00001000
00000000
00001000
00000000
00022000
,
00000000
00000000
00000000
00033000
,
00000000
00000000
00010000
00100000
00000000
10100000
00000000
00000000
,
00000000
00000000
10000000
01000000
00000000
01010000
00000000
00000000
,
00000000
00000000
00010000
00000000
00001000
00000010
00000000
00000100
,
00000000
00001000
00000000
00000010
00000000
00000110
00000000
00000000
,
00001001
00002000
00003020
00000032
,
00000023
00000000
00000230
00000000
00001300
00010000
00000000
00010000
,
00001000
01000000
00010000
00000000
00100000
00000000
00010000
10000000
,
00010000
00000000
00000000
01000000
00000000
00000000
01100000
00000000
,
00000000
00000000
00100000
01000000
00000000
01100000
00000000
00000000
,
00000000
00000000
00001000
00010000
00000000
00011000
00000000
00000000
,
00000000
00000000
00001000
00000000
00010000
00000000
00000100
00001000
,
00000000
00000010
00000000
00000001
00000000
00000010
00001000
00000000
,
00000001
00000100
00000001
00000000
00001000
00000100
00001000
00000000
,
00000100
00000000
00010000
00000000
00001000
00010000
00001000
00000000
,
01000000
00010000
00100000
00000000
01000000
00010000
00001000
00000000
,
00000020
00000130
00020000
00031000
,
00011000
00000000
00001000
00000010
00000000
00000011
00000000
00000000
,
00000000
00000000
00000001
00000100
00000000
00001100
00000000
00000000
,
00000000
00000000
00001000
00000000
00010000
00100000
00000000
01000000
,
00000000
00010000
00000000
00100000
00000000
01100000
00000000
00000000
,
10010000
00020000
00230000
20300000
,
30200000
00000000
02300000
00000000
03010000
00001000
00000000
00001000
,
00010000
00000100
00001000
00000000
00000010
00000000
00001000
00000001
,
00001000
00000000
00000000
00000100
00000000
00000000
00000110
00000000
,
00000000
00000000
00000010
00000100
00000000
00000110
00000000
00000000
,
00000000
00010000
00001000
00011000
,
00001000
00000000
00010000
00100000
00000000
01000000
00000000
00010000
,
00000000
00100000
00000000
10000000
00000000
00100000
00010000
00000000
,
10000000
01000000
10000000
00000000
00010000
01000000
00010000
00000000
,
00100000
00001000
00100000
00000000
00001000
00010000
00001000
00000000
,
00000010
00000100
00001000
00000000
00000010
00000100
00001000
00000000
,
00020000
00000000
00130000
00000000
01000000
00100000
01000000
00000000
,
00200000
00000000
00000000
10300000
00000000
00000000
10000000
00000000
,
02000000
00000000
00000000
03100000
00000000
00000000
00100000
00000000
,
00001000
00000000
00010000
00000010
00010000
00000000
00000100
00001000
,
00000200
00000300
00000020
00000030
,
00000220
00000000
00000000
00000000
,
00000000
00000000
00000000
00000330
,
00000001
00000000
00001000
00000000
00000010
00000000
00000100
00000010
,
00000000
00000100
00000010
00000000
00010000
00000000
00001000
00010000
,
00000000
00001000
00010000
00000000
00001000
00000000
01000000
00010000
,
00000000
01000000
00010000
00000000
00100000
00000000
00100000
00000000
,
01000000
00000000
10000000
00000000
00010000
00000000
00100000
01000000
,
00000000
00100000
01000000
00000000
00010000
00000000
00001000
00010000
,
00001000
00000000
00001000
00000000
00000010
00000100
00000010
00000000
,
00000002
00000003
00002000
00003000
,
00001001
00000000
00000010
00001000
00000000
00000100
00000000
00000000
,
00000000
00000000
00100000
00010000
00000000
01000000
00000000
00000000
,
00001000
00010000
00000010
00000100
,
00001000
00010000
00100000
00000000
,
01100000
00000000
01000000
00010000
00000000
00100000
00000000
00000000
,
00000000
00000000
00000100
00001000
00000000
00000010
00000000
00000000
,
00000100
00001000
00010000
00100000
,
10000000
00000000
00000000
01000000
00000000
00000000
00100000
01000000
,
00000000
00000000
00000000
00000000
;
#NOTES:
     dance-double:
     :
     Hard:
     14:
     :
00000000
00000000
00000000
00000000
,
00000000
00000000
00000000
00000000
,
00000000
00000000
00000000
00000000
,
00000000
00000000
00000000
00000000
,
00000000
00000000
00000000
00000000
,
00000000
00000000
00000000
00000000
,
00000000
00000000
00000000
00000000
,
00000000
00000000
00000000
00000000
,
00000000
00000000
00000000
00000000
,
00000001
00000000
00000010
00000000
00000100
00000010
00000100
00000010
,
00000000
00001000
00000010
00000000
00001000
00010000
00001000
00000000
,
00010000
00000000
00001000
00000000
00010000
00100000
00010000
00100000
,
00000000
01000000
00100000
00000000
10000000
00010000
10000000
00000000
,
00010000
00000000
10000000
00000000
01000000
00010000
01000000
00010000
,
00000000
00001000
00010000
00000000
00001000
00000100
00001000
00000000
,
00000100
00000000
00000010
00000000
00001000
00000001
00001000
00000000
,
00000001
00000100
00000010
00001000
00000100
00010000
00001000
00100000
,
00010000
01000000
01100000
00000000
,
10000000
01000000
00100000
00000000
01100000
00000000
00000000
00000000
,
00010000
00001000
00011000
00000000
,
00000010
00001000
00000100
00000000
00000110
00000000
00000000
00000000
,
00000010
00000001
00001100
00000000
,
00000001
00000100
00001000
00000000
00011000
00000000
00000000
00000000
,
01000000
00010000
10100000
00000000
,
10000000
01000000
00010000
00000000
00001000
00010000
00001000
00010000
,
00000000
00000000
00000000
00000000
,
00001000
00000000
00000010
00000001
00000010
00000000
00000001
00001000
,
00000000
00000100
00000000
00000100
00010000
00001000
00010000
00000000
,
00001000
00000000
00010000
00100000
01000000
00100000
00000000
10000000
,
02000000
00010000
03200000
00301000
,
00011000
00000000
00001000
01000000
00100000
00000000
00010000
00100000
,
00000000
01000000
00001000
00010000
00000010
00001000
00000100
00000010
,
00000000
00000001
00001000
00000000
00000010
00000100
00000010
00000200
,
00000000
00000000
00000000
00000300
,
00000001
00000100
00000001
00000100
00000000
00001010
00000000
00000010
,
00001000
00000100
00001000
00000100
00000000
00000100
00010000
00001000
,
00010000
00000000
00001000
00001000
00000000
01000000
01000000
00000000
,
00010000
00000000
00100000
00100000
00000000
01000000
01000000
00000000
,
10000000
00100000
10000000
00100000
00000000
01010000
00000000
01000000
,
00010000
00100000
00010000
00100000
00000000
00100000
00001000
00010000
,
00001000
00000000
00010000
00010000
00000000
00000010
00000010
00000000
,
00001000
00000000
00000100
00000010
00000100
00000010
00000001
00000000
,
00000100
00000000
00000001
00000100
00000000
00000100
00001000
00000000
,
00011000
00000000
00010000
00100000
00000000
00100000
10000000
00000000
,
01100000
00000000
10000000
01000000
00000000
01000000
00010000
00000000
,
00011000
00000000
00001000
00000010
00000000
00000010
00000001
00000000
,
00000010
00000001
00000100
00000000
00000010
00001000
00000100
00000000
,
00010000
00001000
00100000
00000000
00001000
00010000
01000000
00000000
,
10000000
00000000
00100000
00000000
01000000
00000000
00100000
00000000
00010000
00000000
00001000
00010000
00001000
00000000
00020000
00000000
,
00000000
00000000
00000000
00030000
,
00011000
00000000
00001000
00000100
00000001
00001000
00000100
00000001
,
00000000
00000000
00000001
00000100
00000010
00000001
00000100
00000010
,
00000000
00000000
00000002
00000000
00000013
00001000
00000000
00001100
,
00000000
00010100
00000000
00011000
00000000
00001000
01000000
00000000
,
01100000
00200000
00320000
00230000
,
10300000
01000000
00100000
00000000
00010000
00100000
00000000
00100000
,
00001000
00010000
00001000
00000000
00011000
00000000
00000100
00001000
,
00000010
00000000
00000100
00000010
00000000
00010000
00001000
00000000
,
00011000
00000000
00010000
01000000
10000000
00010000
01000000
10000000
,
00000000
00000000
10000000
01000000
00100000
10000000
01000000
00100000
,
00000000
00000000
20000000
00000000
30200000
00000000
00310000
01000000
,
00000000
01001000
00000000
00011000
00000000
00010000
00000100
00001000
,
00000100
00000010
00000100
00000000
00001000
00000010
00001000
00000000
,
00000001
00000100
00000010
00000000
00001000
00000010
00001000
00000000
,
00000100
00000000
00010000
00001000
00000000
00001000
00010000
00000000
,
00100000
01000000
00100000
00000000
10000000
00010000
10000000
00000000
,
10100000
00000000
00100000
01000000
00001000
00010000
00000010
00000100
,
00000000
00000000
00000100
00000010
00010000
00001000
01000000
00100000
,
00000000
00000000
00010000
00100000
01000000
00001000
00010000
00000020
,
00000000
00002030
00000000
00003200
00000000
00000310
00000010
00000000
,
00000110
00000002
00000203
00002300
,
00023000
00000000
00230000
00000000
01300000
00100000
00000000
00100000
,
10000000
01000000
00100000
00000000
00010000
01000000
00100000
00000000
,
00010000
00100000
01000000
00010000
00100000
01000000
00100000
00000000
,
01100000
00000000
01000000
00100000
00001000
00010000
00000100
00000010
,
00000000
00000000
00000010
00000100
00010000
00001000
00100000
00000000
,
01100000
00000000
10000000
00100000
00000000
01000000
00010000
00200000
,
00000000
00320000
00000000
00032000
00000000
00003100
00000010
00000000
,
00000001
00000010
00000100
00001000
00000010
00010000
00001000
00010000
,
00000000
00001000
00100000
00010000
01000000
00010000
00100000
00000000
,
01000000
10000000
01000000
10000000
00100000
01000000
00100000
01000000
,
00010000
00100000
00001000
00000000
01000000
00001000
00010000
00000000
,
00001000
00000000
00000100
00000001
00000000
00000100
00000001
00000000
,
00000100
00000000
00001000
00010000
00000000
00001000
00010000
00000000
,
00100000
10000000
01000000
00100000
00001000
00010000
00000100
00001000
,
00000010
00000010
00000000
00001000
00000000
00000001
00000000
00001001
,
00000000
00000000
00000000
00000000
,
00000000
00000000
00000000
00000000
,
00000010
00000001
00000100
00000001
00000010
00000100
00000010
00000100
,
00000000
00001000
00000100
00010000
00001000
00010000
00001000
01000000
,
00000000
00010000
00100000
00010000
01000000
00100000
01000000
00100000
,
00000000
10000000
01000000
00100000
00010000
00100000
00010000
00000000
,
01000000
00001000
00010000
00001000
00010000
00000100
00001000
00000010
,
00000000
00000100
00000001
00000010
00000100
00001000
00000100
00000010
,
00000000
00000001
00000100
00000001
00001000
00000100
00010000
00001000
,
00010000
00000000
00000000
00010000
00000000
00000000
00010000
00000000
00001000
00000000
00000000
00001000
00000000
00000000
00001000
00000000
,
00011000
00000000
00000000
00000000
00001000
00000000
01000000
00000000
00010000
00000000
00100000
00010000
00100000
00000000
01000000
00000000
,
10000000
00000000
00000000
00000000
00100000
00000000
00010000
00000000
00100000
00000000
01000000
00001000
01000000
00000000
00001000
00000000
,
00010000
00000000
00001000
00000010
00000100
00001000
00000010
00000100
,
00000002
00000000
00000000
00000000
00000203
00000000
00000000
00000000
00002300
00000000
00000000
00000000
00013000
00001000
00010000
00001000
,
00010000
00000000
00000000
00000000
00001000
00000000
00000100
00000000
00000010
00000000
00001000
00000001
00001000
00000000
00000100
00000000
,
00000010
00000000
00000000
00000000
00000100
00000000
00010000
00000000
00001000
00000000
00100000
00010000
00100000
00000000
01000000
00000000
,
10000000
00000000
00100000
10000000
00010000
00100000
00001000
00010000
,
00000100
00000100
00000100
00001000
00001000
00001000
00000010
00000010
,
00000000
00000000
00000000
00000000
;
