
//----- song ID: bich -----//
#TITLE:BITTER CHOCOLATE STRIKER;
#ARTIST:L.E.D.-G;
#BANNER:BITTER CHOCOLATE STRIKER.png;
#BACKGROUND:BITTER CHOCOLATE STRIKER-bg.png;
#CDTITLE:./CDTitles/bm IIDX 16 EMPRESS.png;
#MUSIC:BITTER CHOCOLATE STRIKER.ogg;
#SAMPLESTART:106.163;
#SAMPLELENGTH:15;
#BPMS:0=165;
#NOTES:
     dance-single:
     :
     Beginner:
     3:
     :
0000
0000
0000
0000
,
0000
0000
0000
0000
,
0000
0000
0000
0000
,
0000
0000
0000
0000
,
0000
0000
0000
0000
,
0000
0000
0000
0000
,
0000
0000
0000
0000
,
0000
0000
0000
0000
,
0000
0000
0000
0000
,
1000
0000
0100
0000
,
1000
0000
0000
0000
,
0001
0000
0100
0000
,
0001
0000
0000
0000
,
0010
0000
0010
0000
,
0010
0000
0000
0000
,
0100
0000
0100
0000
,
0100
0000
0000
0000
,
0001
0000
0100
0000
,
0001
0000
0010
0000
,
0100
0000
1000
0000
,
0100
0000
0000
0000
,
1000
0000
0100
0000
,
1000
0000
0010
0000
,
0100
0000
0001
0000
,
0100
0000
0100
0000
,
1001
0000
0000
0000
,
0000
0000
0000
0000
,
0001
0001
0001
0000
,
0100
0000
0010
0000
,
0100
0000
1000
0000
,
0100
0000
0100
0000
,
1000
1000
1000
0000
,
0100
0000
0010
0000
,
0100
0000
0001
0000
,
0100
0000
0100
0000
,
1001
0000
0001
0000
,
1001
0000
1000
0000
,
0010
0010
0010
0000
,
0100
0100
0100
0000
,
1001
0000
1000
0000
,
1001
0000
0001
0000
,
0010
0010
0010
0000
,
0100
0100
0100
0000
,
1000
0000
0010
0000
,
0100
0000
0001
0000
,
0001
0000
0100
0000
,
1000
0000
0010
0000
,
0001
0000
0010
0000
,
0100
0000
1000
0000
,
1000
0000
0100
0000
,
0001
0000
0010
0000
,
2002
0000
0000
0000
,
0000
0000
0000
0000
,
3003
0000
0000
0000
,
0000
0000
0000
0000
,
0020
0000
0000
0000
,
0030
0000
0000
0000
,
0200
0000
0000
0000
,
0300
0000
0000
0000
,
0001
0000
0001
0000
,
0010
0000
0010
0000
,
0100
0000
0100
0000
,
1000
0000
1000
0000
,
0100
0000
0100
0000
,
1000
0000
1000
0000
,
0010
0000
0010
0000
,
0001
0000
0001
0000
,
1000
1000
1000
0000
,
0010
0010
0010
0000
,
0001
0001
0001
0000
,
0100
0100
0100
0000
,
1001
0000
0000
0000
,
0000
0000
0000
0000
,
0010
0000
1000
0000
,
0010
0000
1000
0000
,
0100
0000
0001
0000
,
0100
0000
0100
0000
,
0010
0000
0001
0000
,
0010
0000
0001
0000
,
0100
0000
1000
0000
,
0100
0000
0100
0000
,
1000
1000
1000
0000
,
0100
0000
0010
0000
,
0001
0001
0001
0000
,
0100
0000
0010
0000
,
0001
0001
0001
0000
,
1000
1000
1000
0000
,
0010
0010
0010
0000
,
0100
0100
0100
0000
,
1001
0000
0000
0000
,
0000
0000
0000
0000
;
#NOTES:
     dance-single:
     :
     Easy:
     6:
     :
0000
0000
0000
0000
,
0000
0000
0000
0000
,
0000
0000
0000
0000
,
0000
0000
0000
0000
,
0000
0000
0000
0000
,
0000
0000
0000
0000
,
0000
0000
0000
0000
,
0000
0000
0000
0000
,
0000
0000
0000
0000
,
0001
1000
0001
0000
,
1000
0001
1000
0000
,
0010
0100
0010
0000
,
0100
0010
0100
0000
,
0001
0001
0010
0000
,
0001
0001
0100
0000
,
1000
1000
0010
0000
,
1000
1000
0100
0000
,
1000
0100
1000
0100
,
0010
0001
0010
0001
,
0100
0010
0100
0010
,
1000
0001
1000
0001
,
1000
1000
0010
0010
,
1000
1000
0100
0100
,
0001
0001
0010
0010
,
0001
0001
1000
1000
,
2002
0000
0000
0000
,
3003
0000
0000
0000
,
0001
0100
0001
1000
,
0100
1000
0010
0010
,
1000
0010
1000
0001
,
0010
0010
0010
0000
,
0001
0010
0001
1000
,
0010
1000
0100
0100
,
1000
0100
1000
0001
,
0100
0100
0100
0000
,
0011
0000
1010
0000
,
0011
0000
1010
0000
,
0100
0100
0100
0000
,
0100
0100
0100
0000
,
1100
0000
0101
0000
,
1100
0000
0101
0000
,
0010
0010
0010
0000
,
0010
0010
0010
0000
,
0001
0100
1000
0100
,
0001
1000
0001
0000
,
1000
0100
0001
0100
,
1000
0001
1000
0000
,
0001
0010
0100
1000
,
0010
0100
0001
0000
,
1000
0100
0010
0001
,
0100
0010
1000
0000
,
2002
0000
0000
0000
,
0000
0000
0000
0000
,
3003
0000
0000
0000
,
0000
0000
0000
0000
,
0002
0000
0000
0003
,
0020
0000
0000
0030
,
0200
0000
0000
0300
,
2000
0000
0000
3000
,
0001
0010
0001
0000
,
1000
0100
1000
0000
,
0010
1000
0010
0000
,
0100
0001
0100
0000
,
0100
0100
0001
0000
,
0100
0100
0010
0000
,
0010
0010
1000
0000
,
0010
0010
0100
0000
,
0001
0001
1000
1000
,
0001
0001
1000
1000
,
0100
0100
0010
0010
,
0100
0010
0100
0000
,
0220
0000
0000
0000
,
0330
0000
0000
0000
,
0010
1000
0010
0100
,
0001
1000
0001
0000
,
0100
0001
0010
0001
,
1000
0100
1000
0000
,
0010
1000
0100
0010
,
0001
0010
0100
0000
,
1000
0001
0100
0010
,
1000
0001
0100
0000
,
0001
0100
0010
0100
,
0001
0010
0100
0100
,
1000
0010
0100
0001
,
1000
1000
0001
0001
,
1000
0100
1000
0100
,
1000
0001
1000
0001
,
0010
0100
0010
0100
,
0010
0010
0010
0000
,
0110
0000
0000
0000
,
0000
0000
0000
0000
;
#NOTES:
     dance-single:
     :
     Medium:
     10:
     :
0000
0000
0000
0000
,
0000
0000
0000
0000
,
0000
0000
0000
0000
,
0000
0000
0000
0000
,
0000
0000
0000
0000
,
0000
0000
0000
0000
,
0000
0000
0000
0000
,
0000
0000
0000
0000
,
0000
0000
0000
0000
,
0001
1000
0001
0001
,
1000
0001
1000
1000
,
0010
0100
0010
0010
,
0100
0010
0100
0100
,
0001
0010
0100
1000
,
0001
0010
0100
1000
,
0010
1000
0001
0100
,
0010
1000
0001
0100
,
0010
0000
0000
0010
0000
0000
1000
0000
0100
1000
0000
0000
,
0010
0000
0000
0010
0000
0000
0100
0000
0001
0100
0000
0000
,
0001
0000
0000
0001
0000
0000
1000
0000
0100
1000
0000
0000
,
0001
0001
1000
1000
,
0010
0000
0000
1000
0000
0000
0010
0000
1000
0010
0000
0000
,
0100
0000
0000
0001
0000
0000
0100
0000
0001
0100
0000
0000
,
0001
0000
1000
0001
0000
0000
1000
0000
0001
1000
0000
0000
,
0010
0010
0100
0100
,
0220
0000
0000
0000
,
0330
0000
0000
0000
,
0001
0000
0000
0100
0000
0000
0010
0000
1000
0010
0000
0000
,
1000
0000
0000
0100
0000
0000
0010
0000
0001
0010
0000
0000
,
0001
0000
0100
0001
0000
0000
1000
0000
0100
1000
0000
0000
,
1010
1010
1001
0000
,
1000
0000
0000
0100
0000
0000
0010
0000
0001
0010
0000
0000
,
0001
0000
0000
0100
0000
0000
0010
0000
1000
0010
0000
0000
,
1000
0000
0100
1000
0000
0000
0001
0000
0100
0001
0000
0000
,
0011
0011
1001
0000
,
0011
0001
0101
0001
,
1010
1000
1100
1000
,
1001
0001
1001
1000
,
0010
0000
0100
0010
0000
0100
0010
0000
0000
0000
0000
0000
,
0101
0001
0011
0001
,
1100
1000
1010
1000
,
1001
0001
1001
1000
,
0100
0000
0010
0100
0000
0010
0100
0000
0000
0000
0000
0000
,
0001
0000
0000
0100
0000
0000
0010
0000
1000
0001
0000
0000
,
0100
0010
0100
0000
,
0010
0000
0000
1000
0000
0000
0100
0000
0010
0001
0000
0000
,
0100
0010
0100
0000
,
1000
0000
0000
0001
0000
0000
0100
0000
0001
1000
0000
0000
,
0010
0100
0010
0000
,
1000
0000
0000
0100
0000
0000
0010
0000
0001
0010
0000
0000
,
0001
1000
0001
1001
,
0220
0000
0000
0000
,
0000
0000
0000
0000
,
0330
0000
0000
0000
,
0000
0000
0000
0000
,
2000
0000
3200
0000
,
0320
0000
0230
0000
,
2300
0000
3020
0000
,
0230
0000
0302
0000
,
1003
1000
1000
0000
,
0001
0001
0001
0000
,
0010
0010
0010
0000
,
0100
0100
0100
0000
,
0001
0100
0001
0100
,
0010
1000
0100
1000
,
0001
0100
0001
0100
,
0001
0010
0001
0001
,
1000
0000
1000
0001
0000
0000
1000
0000
1000
0001
0000
0000
,
0010
0000
0010
0100
0000
0000
0010
0000
0010
0100
0000
0000
,
0001
0000
1000
0100
0000
1000
0100
0000
0010
0001
0000
0010
,
0001
0000
0000
1001
0000
0000
0010
0000
0100
0000
0010
0000
,
0220
0000
0000
0000
,
0330
0000
0000
0000
,
0010
0000
0000
1000
0000
0000
0001
0000
0100
0010
0000
0000
,
1000
0000
0000
0001
0000
0000
0010
0000
0100
1000
0000
0000
,
0001
0000
0010
0001
0000
0000
1000
0000
0010
1000
0000
0000
,
0100
0000
0010
0100
0000
0010
0100
0000
0000
0000
0000
0000
,
0001
0000
0000
0100
0000
0000
0001
0000
1000
0010
0000
0000
,
1000
0000
0000
0100
0000
0000
0010
0000
0001
1000
0000
0000
,
0010
0000
1000
0100
0000
0000
0010
0000
0001
0100
0000
0000
,
0010
0000
0100
0010
0000
0100
0010
0000
0000
0000
0000
0000
,
1000
0000
0000
0001
0000
0000
0100
0000
0010
1000
0000
0000
,
0001
0000
0000
0010
0000
0000
0100
0000
1000
0001
0000
0000
,
0100
0000
0001
0010
0000
0000
0100
0000
1000
0010
0000
0000
,
1000
0000
0001
1000
0000
0001
1000
0000
0000
0000
0000
0000
,
0010
0000
0000
0100
0000
0000
0001
0000
1000
0100
0000
0000
,
0010
0000
0000
0100
0000
0000
1000
0000
0001
0100
0000
0000
,
0001
0000
1000
0010
0000
0000
1000
0000
0001
0010
0000
0000
,
0100
0000
0010
0100
0000
0010
0100
0000
0010
0000
0100
0000
,
0110
0000
0000
0000
,
0000
0000
0000
0000
;
#NOTES:
     dance-single:
     :
     Hard:
     14:
     :
0000
0000
0000
0000
,
0000
0000
0000
0000
,
0000
0000
0000
0000
,
0000
0000
0000
0000
,
0000
0000
0000
0000
,
0000
0000
0000
0000
,
0000
0000
0000
0000
,
0000
0000
0000
0000
,
0000
0000
0000
0000
,
0001
0001
0001
0001
,
1000
1000
1000
1000
,
0100
0100
0100
0100
,
0010
0010
0010
0010
,
0001
1000
0001
1000
,
0001
1000
0001
1000
,
0010
0100
0010
0100
,
0010
0100
0010
0100
,
0001
0000
0001
1000
0000
1000
0010
0000
0010
0100
0000
0000
,
0010
0000
0010
1000
0000
1000
0001
0000
0001
0100
0000
0000
,
0001
0000
0001
0010
0000
0010
0100
0000
0100
1000
0000
1000
,
0001
0000
0001
0100
0000
0110
0000
0000
0000
0010
1000
0010
,
1000
0000
1000
0100
0000
0100
0010
0000
0010
0001
0000
0001
,
1000
0000
1000
0010
0000
0010
0100
0000
0100
0001
0000
0001
,
1000
0000
0100
0010
0000
0001
1000
0000
0100
0010
0000
0001
,
1000
0000
0010
0100
0000
0010
0100
0000
0001
1000
0000
0001
,
2000
0000
0000
0000
,
0000
0000
0000
3000
,
1000
0000
1000
0100
0010
0100
0010
0000
0010
0001
0000
1000
,
0000
0000
0001
0100
0000
0010
0100
0000
0010
1000
0000
1000
,
0001
0000
0001
0010
0100
0010
0100
0000
0100
1000
0000
1000
,
0010
0000
0100
0010
0000
1000
0010
0000
0100
0010
0000
1000
,
0010
0000
0010
1000
0100
1000
0100
0000
0100
0010
0000
0001
,
0000
0000
0100
0001
0000
0010
0001
0000
0100
0001
0000
0010
,
0001
0000
0001
1000
0010
1000
0010
0000
0010
0100
0000
0100
,
0001
0000
1000
0010
0000
0100
0001
0000
1000
0010
0000
0100
,
0001
0000
1000
0001
0010
0100
1000
0000
0001
1000
0010
0100
,
0001
0000
1000
0001
0100
0010
1000
0000
0001
1000
0100
0010
,
0001
0000
0001
0100
0000
0100
0010
0000
0010
1000
0000
1000
,
0100
0000
0100
0001
0000
0001
0100
0000
0100
1000
0000
0000
,
1000
0000
0001
0100
0010
1000
0010
0000
1000
0100
0010
0001
,
0010
0000
0001
1000
0100
0010
0100
0000
1000
0001
0100
0010
,
0100
0000
0100
0010
0000
0010
1000
0000
1000
0001
0000
0001
,
0010
0000
0010
1000
0000
1000
0010
0000
0010
0001
0000
0000
,
1000
0000
0010
0100
0001
0010
0100
0000
0100
1000
0000
0001
,
0000
0000
0001
1000
0000
0100
0001
0000
0100
1000
0000
0001
,
0100
0000
0100
0010
1000
0100
0010
0000
0010
0001
0000
0100
,
0001
0000
0100
1000
0000
0100
0001
0000
0100
1000
0000
0100
,
0001
0000
0001
0100
0010
1000
0100
0000
0100
0010
0000
0001
,
1000
0000
0010
0100
0000
0001
1000
0000
0100
0010
0000
0001
,
0100
0010
0100
0010
1000
0010
1000
0100
1000
0100
0010
0100
,
0010
0001
0010
0100
1000
0010
0100
0000
0100
0010
0000
0010
,
0200
0000
0000
0000
,
0000
0000
0000
0000
,
0000
0000
0000
0000
,
0000
0000
0000
0000
,
0302
0100
1000
0100
,
2003
0010
0001
0010
,
3002
0010
0203
0010
,
0302
0010
2003
0100
,
3010
0010
1000
1000
,
0100
0100
0001
0001
,
0010
0010
0001
0001
,
0100
0100
1000
1000
,
0010
0000
1000
0100
0000
1000
0001
0000
1000
0010
0000
0000
,
0100
0000
0001
0010
0000
0001
1000
0000
0001
0100
0000
0000
,
0010
0000
1000
0100
0000
0010
0001
0000
0100
0010
0000
0000
,
1000
0000
0010
0100
0000
0001
0010
0000
0100
1000
0000
0000
,
0001
0000
0001
0100
0010
0100
0010
0000
1000
0100
0010
0100
,
0010
0000
0001
1000
0010
1000
0010
0000
1000
0001
0100
0001
,
0100
0010
0100
0001
1000
0001
0010
0001
0010
0100
1000
0100
,
1000
0010
0100
0001
0010
0100
1000
0010
0100
0001
0010
0100
,
2000
0000
0000
0000
,
0000
0000
0000
3000
,
0001
0000
1000
0010
1000
0100
1000
0000
1000
0001
0000
0001
,
0000
0000
0110
0000
0000
0100
0001
0010
0001
0100
0001
0100
,
0010
0000
0010
1000
0100
1000
0100
0000
0100
0001
0000
0001
,
0100
0000
1000
0010
0000
0001
0010
0000
1000
0010
0000
0001
,
0010
0000
0010
1000
0100
1000
0010
1000
0010
1000
0000
1000
,
0000
0000
0001
0010
1000
0010
0001
0100
0001
0010
1000
0010
,
0001
0100
0001
1000
0010
1000
0100
1000
0100
0010
0001
0010
,
0100
1000
0100
1000
0001
1000
0010
0100
0010
0100
0000
0010
,
1000
0000
0001
0100
0001
0010
0001
0000
0001
1000
0000
1000
,
0000
0000
0110
0000
0000
0010
1000
0100
1000
0010
1000
0010
,
0100
0000
0100
0001
0010
0001
0010
0000
0010
1000
0000
1000
,
0010
0000
0000
1001
0000
0000
0001
0010
0100
1000
0100
0010
,
0001
0000
0100
0001
0010
0001
0100
0000
0100
0001
0000
0001
,
0000
0000
1000
0100
0001
0100
1000
0010
1000
0100
0001
0100
,
1000
0010
1000
0001
0100
0001
0010
0001
0010
0100
1000
0100
,
0010
0001
0010
0001
1000
0001
0100
0000
0010
0000
0100
0000
,
0110
0000
0000
0000
,
0000
0000
0000
0000
;
#NOTES:
     dance-single:
     :
     Challenge:
     17:
     :
0000
0000
0000
0000
,
0000
0000
0000
0000
,
0000
0000
0000
0000
,
0000
0000
0000
0000
,
0000
0000
0000
0000
,
0000
0000
0000
0000
,
0000
0000
0000
0000
,
0000
0000
0000
0000
,
0000
0000
0000
0000
,
0001
0000
0010
0001
0000
0010
0001
0000
0010
0001
0000
0010
,
0001
0000
0100
0010
0000
0100
0010
0000
1000
0001
0000
1000
,
0001
0000
1000
0100
0000
1000
0100
0000
1000
0100
0000
1000
,
0100
0000
0010
0001
0000
0010
0001
0000
0100
0010
0000
0100
,
0110
0000
0001
0100
0000
0001
0100
0000
0001
0100
0000
0001
,
0100
0000
0010
1000
0000
0010
1000
0000
0001
0010
0000
0001
,
0010
0000
0100
0010
0000
0100
0010
0000
0100
0010
0000
0100
,
0010
0000
0001
1000
0000
0010
0100
0000
0001
1000
0000
0010
,
0110
0110
1010
1010
,
1001
0000
0000
1001
0000
0000
0101
0000
0001
0101
0000
0010
,
0011
0000
0000
0011
0000
0000
1100
0000
1000
1100
0000
0100
,
0110
0010
0001
0011
0000
0011
0000
0000
0000
0001
1000
0001
,
1001
0000
0010
1010
0000
0100
0101
0000
0001
0011
0000
1000
,
1100
0000
0100
0110
0000
1000
1001
0000
0001
1001
0000
0010
,
0110
0100
1000
0010
0100
0001
0101
0100
0010
1000
0001
0010
,
0110
0000
0000
0000
0001
0010
0100
0000
0000
0000
1000
0010
0100
0000
0000
0000
0001
0010
0100
0000
0000
0000
1000
0010
,
0200
0000
0000
0000
,
0300
0000
0000
2002
0000
0000
3003
0000
0000
0001
1000
0001
,
1001
0000
0010
1010
1000
0001
0101
0000
0010
0110
0000
0110
,
0000
0000
0001
0010
0100
0010
0100
1000
0001
0100
0010
1000
,
1010
0000
0100
1000
0001
0010
0011
0001
0100
0010
1000
0001
,
0101
0100
0010
1010
1000
0001
0011
0010
0100
0110
0010
0001
,
1001
0000
0100
0010
1000
0100
0110
0000
0010
0001
0000
0011
,
0000
0000
0001
1000
0010
0100
0010
1000
0001
0010
0100
1000
,
1100
0000
0100
0010
0001
1000
0100
1000
0010
1000
0100
0010
,
0011
0001
0100
0110
0010
1000
1001
0001
0010
0110
0100
1000
,
1001
0000
0001
0010
0100
1000
1001
0000
1000
0010
0100
0001
,
1001
0000
0001
0100
0010
1000
1001
0000
1000
0100
0010
0001
,
1001
0000
0010
1000
0100
0010
1001
0000
0010
0001
0100
0010
,
1001
0000
1000
1100
0000
1000
1010
0000
1000
1001
0000
0000
,
0110
0000
0001
1000
0010
0100
0110
0000
1000
0001
0100
0010
,
0110
0000
0001
1000
0100
0010
0110
0000
1000
0001
0010
0100
,
0110
0000
0100
0010
0001
1000
0110
0000
0010
0100
1000
0001
,
0110
0000
0001
0011
0000
0001
0101
0000
0001
1001
0000
0000
,
1001
0000
0100
0010
1000
0100
0110
0000
0001
0101
0000
1001
,
0000
0000
0010
1000
0100
0010
0100
1000
0001
0011
0000
0100
,
0110
0000
1000
0001
0100
0010
0100
0001
0010
0100
0000
1000
,
1010
0000
0000
0000
0100
0010
0001
0000
0000
0000
0100
0010
1000
0000
0000
0000
0100
0010
0001
0000
0000
0000
0100
0010
,
1000
0100
1000
0100
1000
0100
1000
0010
1000
0010
0100
0001
,
0010
0001
0010
0001
0010
0001
0100
0001
0010
0100
1000
0001
,
0100
0001
0100
0001
0100
0001
1000
0010
1000
0010
1000
0010
,
1000
0000
0000
0000
1000
0000
0001
0100
0001
0100
0001
0100
0001
0000
0000
0000
1000
0000
1100
0000
0000
0000
0001
0000
,
1001
0000
0000
0000
,
0000
0000
0000
0000
,
0000
0000
0000
0000
,
0000
0000
0000
0000
,
0001
0010
0100
1000
0100
0010
0001
0000
0001
0100
0000
0110
,
0000
0000
0010
1000
0000
1000
0001
1000
0001
0100
0001
0100
,
0010
1000
0010
0100
0001
0100
0010
0000
0010
1000
0000
1000
,
0100
0000
0010
0001
0000
1000
0100
0000
0010
0001
0000
0001
,
1000
0000
1000
0100
0010
0001
0010
0000
0010
0100
0000
0110
,
0000
0000
1001
0000
0000
1000
0001
0100
0001
1000
0010
1000
,
0100
0000
0100
0010
0001
0100
0010
1000
0100
1000
0000
1000
,
0010
0000
0010
0100
0000
0100
0001
0000
0001
1000
0000
1000
,
0002
0100
0100
0100
,
0100
0100
0100
0100
,
2003
0100
0100
0100
,
0100
0100
0100
3100
,
0001
0000
0001
1000
0000
1000
0001
0000
0001
1000
0000
1000
,
0100
0000
0100
0010
0000
0010
0100
0000
0100
0010
0000
0010
,
0011
1010
0101
1100
,
0001
0000
1000
0000
0010
0000
0100
0001
0100
0010
1000
0010
1000
0000
0000
0000
1100
0000
0000
0000
0011
0000
0000
0000
,
2002
0000
0000
0000
,
3003
0000
0000
0000
,
1001
0000
0010
1000
0001
0100
0110
0000
1000
1100
0000
0011
,
0000
0000
0110
0000
0000
1001
1001
0001
0100
1000
0100
0001
,
1001
0000
0001
0100
0001
0010
0100
0000
0100
1010
0000
0100
,
0011
0000
0001
0110
0000
1000
0110
0000
0010
1001
0000
0100
,
1001
0000
1000
0010
1000
0100
0110
0000
0001
0101
0000
0110
,
0000
0000
0000
0000
1000
0010
0100
0001
0100
0010
1000
0001
1000
0000
0010
0000
1000
0000
0100
0000
0010
0000
0001
0000
,
0011
0010
0100
1100
1000
0001
0101
0100
0010
1010
1000
0001
,
1001
1000
0100
0110
0010
0001
1100
0001
0100
1010
0001
0100
,
1001
0000
0100
0001
1000
0010
0110
0000
0001
0011
0000
1100
,
0000
0000
0110
0000
0000
1001
1001
1000
0010
0001
0010
1000
,
1001
0000
1000
0010
1000
0100
0010
0000
0010
0101
0000
0010
,
1100
0000
1000
0110
0000
0001
0110
0000
0100
1001
0000
0010
,
1001
0000
0001
0100
0001
0010
0110
0000
1000
1010
0000
0110
,
0000
0000
0000
0000
0001
0100
0010
1000
0010
0100
0001
1000
0001
0000
0100
0000
0001
0000
0010
0000
0100
0000
1000
0000
,
1100
0100
0010
0011
0001
1000
1010
0010
0100
0101
0001
1000
,
1001
0001
0010
0110
0100
1000
0011
1000
0101
1000
0110
0000
,
1001
0000
0000
0000
,
0000
0000
0000
0000
;
#NOTES:
     dance-double:
     :
     Easy:
     6:
     :
00000000
00000000
00000000
00000000
,
00000000
00000000
00000000
00000000
,
00000000
00000000
00000000
00000000
,
00000000
00000000
00000000
00000000
,
00000000
00000000
00000000
00000000
,
00000000
00000000
00000000
00000000
,
00000000
00000000
00000000
00000000
,
00000000
00000000
00000000
00000000
,
00000000
00000000
00000000
00000000
,
00000001
00000010
00000001
00000000
,
00000010
00000001
00000010
00000000
,
00000100
00001000
00000100
00000000
,
00010000
00000100
00010000
00000000
,
00001000
00001000
00010000
00000000
,
00001000
00001000
00010000
00000000
,
01000000
01000000
00100000
00000000
,
10000000
10000000
00100000
00000000
,
10000000
01000000
10000000
01000000
,
00100000
00010000
00100000
00001000
,
00010000
00001000
00010000
00000010
,
00001000
00000010
00001000
00000010
,
00001000
00001000
00000001
00000000
,
00000010
00000010
00000100
00000000
,
00010000
00010000
00001000
00001000
,
01000000
00010000
00100000
00000000
,
20020000
00000000
00000000
00000000
,
30030000
00000000
00000000
00000000
,
10000000
01000000
00100000
00100000
,
00010000
01000000
00100000
00100000
,
00010000
00001000
00010000
00001000
,
00000100
00000010
00000100
00000000
,
00000001
00000010
00000100
00000100
,
00001000
00000010
00000100
00000100
,
00001000
00010000
00001000
00010000
,
00100000
01000000
00100000
00000000
,
10100000
00000000
11000000
00000000
,
00110000
00000000
01010000
00000000
,
00001000
00001000
00001000
00000000
,
00010000
00010000
00010000
00000000
,
00001100
00000000
00001010
00000000
,
00000101
00000000
00000011
00000000
,
00000001
00000001
00000001
00000000
,
00001000
00001000
00001000
00000000
,
00000100
00010000
00001000
00010000
,
00000100
00010000
00001000
00000000
,
00100000
00001000
00010000
00001000
,
00100000
00001000
00010000
00000000
,
00010000
00100000
10000000
00000000
,
10000000
01000000
00010000
00000000
,
00001000
00000010
00000001
00000000
,
00000001
00000100
00001000
00000000
,
00022000
00000000
00000000
00000000
,
00000000
00000000
00000000
00000000
,
00033000
00000000
00000000
00000000
,
00000000
00000000
00000000
00000000
,
00200000
00000000
00000000
00300000
,
00002000
00000000
00000000
00003000
,
00020000
00000000
00000000
00030000
,
00000020
00000000
00000000
00000030
,
00000100
00000001
00000100
00000000
,
00000010
00010000
00001000
00000000
,
00100000
00001000
00100000
00000000
,
00010000
01000000
00100000
00000000
,
10000000
10000000
01000000
00000000
,
01000000
01000000
00100000
00000000
,
00100000
00100000
00001000
00000000
,
00001000
00001000
00010000
00000000
,
00000100
00000100
00001000
00001000
,
00000001
00000001
00000010
00000010
,
00000001
00000100
00001000
00000000
,
00010000
00001000
00010000
00000000
,
00022000
00000000
00000000
00000000
,
00033000
00000000
00000000
00000000
,
01000000
00010000
00100000
01000000
,
10000000
10000000
01000000
00010000
,
00001000
00000100
00001000
00010000
,
01000000
00010000
00001000
00000000
,
00000100
00001000
00000010
00000100
,
00000001
00000001
00000100
00001000
,
00010000
00100000
00010000
00001000
,
00000010
00001000
00010000
00000000
,
00001000
00010000
00100000
00100000
,
10000000
01000000
00010000
00010000
,
00001000
00000010
00001000
00010000
,
00000100
00001000
00000010
00000000
,
00000100
00000001
00000100
00000001
,
00001000
00000100
00001000
00000100
,
00010000
00001000
01000000
00010000
,
00100000
00100000
00100000
00000000
,
01100000
00000000
00000000
00000000
,
00000000
00000000
00000000
00000000
;
#NOTES:
     dance-double:
     :
     Medium:
     10:
     :
00000000
00000000
00000000
00000000
,
00000000
00000000
00000000
00000000
,
00000000
00000000
00000000
00000000
,
00000000
00000000
00000000
00000000
,
00000000
00000000
00000000
00000000
,
00000000
00000000
00000000
00000000
,
00000000
00000000
00000000
00000000
,
00000000
00000000
00000000
00000000
,
00000000
00000000
00000000
00000000
,
00001000
00010000
00001000
00001000
,
00010000
00001000
00010000
00010000
,
00100000
01000000
00100000
00100000
,
01000000
00100000
01000000
01000000
,
00001000
00010000
00001000
00001000
,
00010000
00001000
00010000
00010000
,
00000100
00000010
00000100
00000100
,
00000010
00000100
00000010
00000010
,
00000001
00000000
00000000
00000001
00000000
00000000
00000100
00000000
00000010
00000100
00000000
00000000
,
00001000
00000000
00000000
00001000
00000000
00000000
00010000
00000000
00100000
01000000
00000000
00000000
,
00100000
00000000
00000000
00100000
00000000
00000000
10000000
00000000
00010000
10000000
00000000
00000000
,
01000000
00100000
01100000
00000000
,
00010000
00000000
00000000
01000000
00000000
00000000
00001000
00000000
00010000
00001000
00000000
00000000
,
00010000
00000000
00000000
00000010
00000000
00000000
00001000
00000000
00000010
00001000
00000000
00000000
,
00000001
00000000
00000100
00000001
00000000
00000000
00000010
00000000
00000001
00000010
00000000
00000000
,
00000100
00000100
00010000
00010000
,
00022000
00000000
00000000
00000000
,
00033000
00000000
00000000
00000000
,
00001000
00000000
00000000
00010000
00000000
00000000
00100000
00000000
01000000
00100000
00000000
00000000
,
10000000
01000000
00010000
01000000
,
00100000
00000000
00001000
00100000
00000000
00000000
00001000
00000000
00010000
00001000
00000000
00000000
,
00000010
00000000
00000100
00000010
00000000
00000000
00000001
00000000
00001000
00000001
00000000
00000000
,
00000100
00000000
00000000
00000010
00000000
00000000
00001000
00000000
00000001
00001000
00000000
00000000
,
00000100
00000001
00000100
00010000
,
00001000
00000000
00100000
00001000
00000000
00000000
01000000
00000000
00010000
01000000
00000000
00000000
,
00100000
00000000
01000000
00100000
00000000
00000000
10000000
00000000
00010000
10000000
00000000
00000000
,
11000000
00100000
00110000
00000000
,
01001000
00010000
00011000
00000000
,
00010010
00001000
00001010
00000000
,
00000100
00000000
00000010
00000100
00000000
00000010
00000100
00000000
00000000
00000000
00000000
00000000
,
00000101
00000010
00001010
00000000
,
00010100
00001000
00011000
00000000
,
00101000
00010000
00110000
00000000
,
01000000
00000000
00100000
01000000
00000000
00100000
01000000
00000000
00000000
00000000
00000000
00000000
,
10000000
00000000
00000000
01000000
00000000
00000000
00100000
00000000
01000000
10000000
00000000
00000000
,
00010000
00100000
00001000
00010000
,
00001000
00000000
00000000
00000100
00000000
00000000
00000010
00000000
00001000
00000100
00000000
00000000
,
00000010
00000001
00001000
00000000
,
00000001
00000000
00000000
00000100
00000000
00000000
00000010
00000000
00000100
00000001
00000000
00000000
,
00001000
00000010
00010000
00001000
,
00010000
00000000
00000000
01000000
00000000
00000000
00100000
00000000
00010000
01000000
00000000
00000000
,
00100000
10000000
00010000
00000000
,
20020000
00000000
00000000
00000000
,
00000000
00000000
00000000
00000000
,
30030000
00000000
00000000
00000000
,
00000000
00000000
00000000
00000000
,
02000000
00000000
03020000
00000000
,
00032000
00000000
00003010
00000000
,
00000200
00000000
00002300
00000000
,
00023000
00000000
00130000
00000000
,
10000000
10000000
10000000
00000000
,
00010000
00010000
00010000
00000000
,
00001000
00001000
00001000
00000000
,
00000001
00000001
00000001
00000000
,
00000001
00000010
00000001
00000010
,
00000100
00001000
00000100
00001000
,
00010000
00100000
00010000
00100000
,
01000000
10000000
01000000
10000000
,
00100000
00000000
00100000
01000000
00000000
00000000
00100000
00000000
00100000
01000000
00000000
00000000
,
01000000
00000000
01000000
00010000
00000000
00000000
01000000
00000000
01000000
00001000
00000000
00000000
,
00010000
00000000
00000010
00001000
00000000
00000010
00001000
00000000
00000001
00000100
00000000
00000001
,
00000100
00000000
00000000
00001000
00000000
00000000
00010000
00000000
00001000
00000000
00010000
00000000
,
00022000
00000000
00000000
00000000
,
00033000
00000000
00000000
00000000
,
00010000
00000000
00000000
01000000
00000000
00000000
10000000
00000000
00010000
00100000
00000000
00000000
,
01000000
00000000
00000000
00010000
00000000
00000000
00001000
00000000
00000010
00000100
00000000
00000000
,
00001000
00000000
00000001
00000100
00000000
00000000
00000001
00000000
00001000
00000100
00000000
00000000
,
00000010
00000000
00000001
00001000
00000000
00000001
00001000
00000000
00000000
00000000
00000000
00000000
,
00000001
00000000
00000000
00000100
00000000
00000000
00000010
00000000
00010000
00001000
00000000
00000000
,
00100000
00000000
00000000
00010000
00000000
00000000
01000000
00000000
00100000
10000000
00000000
00000000
,
01000000
00000000
00100000
00010000
00000000
00000000
01000000
00000000
00100000
00010000
00000000
00000000
,
00001000
00000000
00010000
00001000
00000000
00010000
00001000
00000000
00000000
00000000
00000000
00000000
,
00001000
00000000
00000000
00000010
00000000
00000000
00000001
00000000
00000010
00001000
00000000
00000000
,
00010000
00000000
00000000
00000100
00000000
00000000
00001000
00000000
00000010
00000100
00000000
00000000
,
00001000
00000000
00010000
00100000
00000000
00000000
01000000
00000000
10000000
01000000
00000000
00000000
,
00010000
00000000
00100000
00001000
00000000
00010000
00001000
00000000
00000000
00000000
00000000
00000000
,
00010000
00000000
00000000
01000000
00000000
00000000
10000000
00000000
00100000
00010000
00000000
00000000
,
00100000
00000000
00000000
01000000
00000000
00000000
00001000
00000000
00100000
00010000
00000000
00000000
,
00100000
00000000
00001000
00010000
00000000
00000000
00000100
00000000
00001000
00000100
00000000
00000000
,
00000010
00000000
00000001
00001000
00000000
00000001
00001000
00000000
00000010
00000000
00000100
00000000
,
00000110
00000000
00000000
00000000
,
00000000
00000000
00000000
00000000
;
#NOTES:
     dance-double:
     :
     Hard:
     14:
     :
00000000
00000000
00000000
00000000
,
00000000
00000000
00000000
00000000
,
00000000
00000000
00000000
00000000
,
00000000
00000000
00000000
00000000
,
00000000
00000000
00000000
00000000
,
00000000
00000000
00000000
00000000
,
00000000
00000000
00000000
00000000
,
00000000
00000000
00000000
00000000
,
00000000
00000000
00000000
00000000
,
10000000
10000000
00100000
00100000
,
01000000
01000000
00010000
00010000
,
00001000
00001000
00000010
00000010
,
00000100
00000100
00000001
00000001
,
00001000
00000001
00001000
00000001
,
00000100
00000010
00000100
00000010
,
00010000
00001000
00010000
00001000
,
00100000
01000000
00100000
01000000
,
10000000
00000000
10000000
00100000
00000000
00100000
01000000
00000000
01000000
00010000
00000000
00000000
,
00100000
00000000
00100000
00001000
00000000
00001000
00010000
00000000
00010000
00000100
00000000
00000000
,
00001000
00000000
00001000
00000010
00000000
00000010
00000100
00000000
00000100
00000001
00000000
00000001
,
00001000
00000000
00001000
00000100
00000000
00000110
00000000
00000000
00000000
00000100
00001000
00000100
,
00001000
00000000
00001000
00000010
00000000
00000010
00010000
00000000
00010000
00001000
00000000
00001000
,
01000000
00000000
01000000
00010000
00000000
00010000
00100000
00000000
00100000
01000000
00000000
01000000
,
10000000
00000000
00100000
01000000
00000000
00100000
01000000
00000000
00001000
00010000
00000000
00001000
,
00010000
00000000
00000100
00001000
00000000
00000100
00000010
00000000
00000001
00001000
00000000
00000001
,
00002000
00000000
00000000
00000000
,
00000000
00000000
00000000
00003000
,
00000001
00000000
00000001
00000010
00000100
00000010
00000100
00000000
00000100
00001000
00000000
00001000
,
00000000
00000000
00000100
00010000
00000000
00010000
00001000
00000000
00001000
01000000
00000000
01000000
,
00010000
00000000
00010000
01000000
00100000
01000000
00100000
00000000
00100000
10000000
00000000
10000000
,
01000000
00000000
00100000
00010000
00000000
00100000
01000000
00000000
00100000
00010000
00000000
00000000
,
01000000
00000000
01000000
00001000
00010000
00001000
00010000
00000000
00010000
00000100
00000000
00001000
,
00000000
00000000
00000010
00000100
00000000
00000001
00000100
00000000
00000010
00000100
00000000
00000001
,
00000100
00000000
00000100
00000010
00001000
00000010
00001000
00000000
00001000
00000100
00000000
00000100
,
00010000
00000000
00001000
00100000
00000000
00001000
00010000
00000000
00000100
00010000
00000000
00001000
,
00010000
00000000
00001000
01000000
00010000
01000000
00010000
00000000
00100000
01000000
10000000
01000000
,
10000000
00000000
00100000
01000000
00010000
01000000
00010000
00000000
00100000
00001000
00010000
00001000
,
00010000
00000000
00010000
00000010
00000000
00000010
00001000
00000000
00001000
00000100
00000000
00000100
,
00000001
00000000
00000001
00000100
00000000
00000100
00001000
00000000
00001000
00000001
00000000
00000000
,
00001000
00000000
00000001
00000010
00000100
00000010
00000100
00000000
00001000
00000010
00010000
00000010
,
00010000
00000000
00001000
01000000
00010000
01000000
00010000
00000000
00100000
01000000
10000000
01000000
,
10000000
00000000
10000000
01000000
00000000
01000000
00010000
00000000
00010000
00001000
00000000
00001000
,
00100000
00000000
00100000
00001000
00000000
00001000
00000010
00000000
00000010
00000001
00000000
00000000
,
00001000
00000000
00000010
00000100
00000001
00000100
00000010
00000000
00000010
00001000
00000000
00000100
,
00000000
00000000
00000100
00010000
00000000
00001000
00010000
00000000
01000000
00010000
00000000
01000000
,
10000000
00000000
10000000
00100000
01000000
00100000
10000000
00000000
10000000
01000000
00000000
00100000
,
00010000
00000000
01000000
00010000
00000000
00100000
00001000
00000000
01000000
00001000
00000000
00100000
,
00010000
00000000
00010000
00100000
00001000
00010000
00001000
00000000
00001000
00000010
00000000
00000001
,
00001000
00000000
00000001
00000100
00000000
00000010
00000100
00000000
00000010
00001000
00000000
00000100
,
00010000
00001000
00010000
00001000
01000000
00001000
00100000
00010000
00100000
01000000
10000000
01000000
,
00100000
00010000
01000000
00010000
00100000
00001000
00010000
00000000
00010000
00000100
00000000
00000100
,
00000020
00000000
00000000
00000000
,
00000000
00000000
00000000
00000000
,
00000000
00000000
00000000
00000000
,
00000000
00000000
00000000
00000000
,
00000032
00000100
00001000
00000000
,
00002003
00000010
00000100
00000000
,
00003200
00001000
00010000
00000000
,
00020300
00001000
00100000
00000000
,
00130000
00100000
10000000
10000000
,
01000000
01000000
00010000
00010000
,
00001000
00001000
00000100
00000100
,
00000001
00000001
00000010
00000010
,
00000001
00000000
00000100
00000010
00000000
00000000
00001000
00000000
00000100
00010000
00000000
00000000
,
00100000
00000000
10000000
01000000
00000000
00000000
00010000
00000000
00001000
00100000
00000000
00000000
,
00001000
00000000
00010000
00000100
00000000
00000000
00001000
00000000
00000010
00000001
00000000
00000000
,
00000010
00000000
00001000
00000100
00000000
00000000
00000010
00000000
00001000
00010000
00000000
00000000
,
01000000
00000000
01000000
10000000
00100000
10000000
00100000
00000000
01000000
00010000
00100000
00010000
,
00100000
00000000
00001000
00010000
00000100
00010000
00000100
00000000
00001000
00000010
00000100
00000010
,
00000100
00000001
00001000
00000100
00010000
00001000
00100000
00010000
00100000
01000000
10000000
01000000
,
00100000
00001000
00010000
00000100
00001000
00000010
00000100
00000001
00000010
00000100
00001000
00000100
,
00000020
00000000
00000000
00000000
,
00000000
00000000
00000000
00000030
,
00000001
00000000
00000100
00000010
00000100
00001000
00000100
00000000
00000100
00001000
00000000
00010000
,
00000000
00000000
00011000
00000000
00000000
00010000
00100000
10000000
00100000
10000000
01000000
10000000
,
01000000
00000000
10000000
01000000
00100000
01000000
00010000
00000000
00010000
00001000
00000000
00001000
,
00010000
00000000
00100000
00010000
00000000
00010000
00001000
00000000
00001000
00000100
00000000
00000000
,
00000001
00000000
00000010
00000100
00000010
00001000
00000010
00000000
00000010
00001000
00000000
00010000
,
00000000
00000000
00001000
00010000
00100000
10000000
01000000
00010000
01000000
10000000
00000000
00000000
,
00100000
01000000
00010000
00100000
00001000
00010000
00000100
00001000
00000010
00000100
00000001
00000010
,
00000100
00000001
00000100
00001000
00000100
00010000
00001000
00100000
00010000
01000000
00000000
00100000
,
10000000
00000000
01000000
00100000
01000000
00010000
01000000
00000000
01000000
00010000
00000000
00001000
,
00000000
00000000
00011000
00000000
00000000
00001000
00000010
00000001
00000010
00000001
00000100
00000001
,
00000100
00000000
00000001
00000100
00000010
00000100
00001000
00000000
00001000
00010000
00000000
00010000
,
00001000
00000000
00000010
00001000
00000000
00001000
00010000
00000000
00010000
01000000
00000000
00000000
,
10000000
00000000
00100000
01000000
00100000
00010000
00100000
00000000
00100000
00010000
00000000
00001000
,
00000000
00000000
00010000
00001000
00000010
00000001
00000100
00001000
00000100
00000001
00000000
00000000
,
00000010
00000100
00001000
00000010
00010000
00001000
01000000
00010000
00100000
01000000
10000000
00100000
,
01000000
10000000
01000000
00010000
01000000
00001000
00010000
00000000
00000100
00000000
00000010
00000000
,
00000110
00000000
00000000
00000000
,
00000000
00000000
00000000
00000000
;
#NOTES:
     dance-double:
     :
     Challenge:
     17:
     :
00000000
00000000
00000000
00000000
,
00000000
00000000
00000000
00000000
,
00000000
00000000
00000000
00000000
,
00000000
00000000
00000000
00000000
,
00000000
00000000
00000000
00000000
,
00000000
00000000
00000000
00000000
,
00000000
00000000
00000000
00000000
,
00000000
00000000
00000000
00000000
,
00000000
00000000
00000000
00000000
,
10000000
00000000
01000000
10000000
00000000
01000000
10000000
00000000
01000000
10000000
00000000
01000000
,
00100000
00000000
00010000
00100000
00000000
00010000
00100000
00000000
00001000
00010000
00000000
00001000
,
00010000
00000000
00000010
00001000
00000000
00000010
00001000
00000000
00000010
00001000
00000000
00000010
,
00001000
00000000
00000100
00000010
00000000
00000100
00000010
00000000
00000001
00000100
00000000
00000001
,
00000101
00000000
00000010
00000001
00000000
00000010
00000001
00000000
00000010
00000001
00000000
00000010
,
00000001
00000000
00000100
00000010
00000000
00000100
00000010
00000000
00001000
00000100
00000000
00001000
,
00000100
00000000
00010000
00001000
00000000
00010000
00001000
00000000
00010000
00001000
00000000
00010000
,
00001000
00000000
00010000
00100000
00000000
10000000
00100000
00000000
00010000
00100000
00000000
10000000
,
10010000
10010000
11000000
11000000
,
00110000
00000000
00000000
00110000
00000000
00000000
00101000
00000000
00001000
00011000
00000000
00010000
,
00010100
00000000
00000000
00010100
00000000
00000000
00001100
00000000
00001000
00001100
00000000
00000100
,
00000110
00000010
00000001
00000100
00000000
00000110
00000000
00000000
00000000
00000001
00001000
00000001
,
00001001
00000000
00000010
00000001
00000100
00000010
00001010
00000000
00001000
00000100
00010000
00001000
,
00011000
00000000
00100000
00010000
01000000
00100000
10100000
00000000
10000000
01000000
00100000
00010000
,
00110000
00100000
00001000
00011000
00010000
00000100
00001100
00001000
00000010
00001010
00001000
00000001
,
00000010
00001000
00010000
01000000
10000000
00100000
00010000
00001000
00000100
00000001
00000010
00001000
,
00020000
00000000
00000000
00000000
,
00000000
00000000
00000000
00000000
00000000
00000000
00030000
00000000
00000000
00010000
00001000
00010000
,
00011000
00000000
00001000
00010000
00100000
10000000
10100000
00000000
01000000
01100000
00000000
00010000
,
00110000
00000000
00100000
00101000
00000000
00001000
00011000
00000000
00010000
00010010
00000000
00000010
,
00000110
00000000
00000100
00001000
00000100
00000001
00000010
00000100
00001000
00001100
00000000
00000010
,
00000110
00000000
00001000
00011000
00000000
00100000
01100000
00000000
10000000
10010000
00000000
00000000
,
01100000
00000000
10000000
01000000
00010000
01000000
10000000
00100000
01000000
01010000
00000000
00100000
,
00110000
00000000
00001000
00011000
00000000
00000100
00000110
00000000
00001000
00001001
00000000
00000010
,
00000110
00000000
00001000
00000100
00000001
00000100
00001000
00000010
00000100
00001000
00010000
00100000
,
01100000
01000000
00010000
10010000
10000000
01000000
01100000
00100000
00001000
00011000
00000000
00010000
,
00011000
00000000
00001000
00000010
00000001
00000010
00001000
00000000
00010000
00100000
10000000
00100000
,
00010000
00000000
00001000
00000100
00000001
00000100
00001000
00000000
00010000
01000000
10000000
01000000
,
00010000
00001000
00000010
00001000
00000010
00000001
00000100
00001000
00000100
00000010
00010000
00001000
,
00100000
00010000
01000000
10000000
01000000
00010000
00100000
01000000
00010000
00001000
00010000
00001000
,
00011000
00000000
00001000
00000010
00000001
00000100
00001000
00000000
00010000
00100000
10000000
01000000
,
00010000
00000000
00001000
00000100
00000001
00000010
00001000
00000000
00010000
01000000
10000000
00100000
,
00010000
00001000
00000100
00000001
00001000
00000100
00000010
00000001
00000100
00000001
00000010
00000100
,
00000001
00000100
00010000
00001000
00100000
10000000
00010000
01000000
10000000
00100000
00000000
00000000
,
01100000
00000000
00100000
10000000
01000000
00100000
00110000
00010000
01000000
01001000
00000000
00011000
,
00000000
00000000
00001000
00010000
00001000
00000010
00001000
00010000
00001000
00000010
00000001
00000100
,
00000110
00000000
00000001
00001000
00000100
00010000
00000010
00001000
00000100
00010000
00001000
00100000
,
00010000
01000000
10000000
00010000
00100000
00010000
00001000
00000100
00000001
00000010
00000100
00001000
,
00001100
00000000
00000010
00000001
00000100
00000010
00001010
00001000
00000100
00010100
00000000
00011000
,
00000000
00000000
00010000
00001000
00010000
00100000
00010000
00001000
00010000
00100000
10000000
01000000
,
01100000
00000000
10000000
00010000
01000000
00001000
00100000
00010000
01000000
00001000
00010000
00000010
,
00001000
00000000
00000100
00000000
00000010
00000000
00000001
00001000
00000001
00001000
00000001
00001000
00000001
00000000
00000100
00000000
00001000
00000000
00010000
00000000
00000000
00000000
00010000
00000000
,
01100000
00000000
00000000
00000000
,
00000000
00000000
00000000
00000000
,
00000000
00000000
00000000
00000000
,
00000000
00000000
00000000
00000000
,
10000000
00100000
01000000
00010000
00100000
01000000
10000000
00000000
10000000
01000000
00000000
01100000
,
00000000
00000000
00010000
00001000
00000000
00001000
00010000
00000010
00010000
00000100
00001000
00000100
,
00000010
00000001
00000100
00000001
00000010
00000100
00001000
00000000
00001000
00000010
00000000
00000010
,
00000100
00000000
00000001
00000010
00000000
00000100
00001000
00000000
00010000
00100000
00000000
01000000
,
10000000
00000000
10000000
00100000
00010000
00100000
10000000
00000000
10000000
01000000
00000000
01100000
,
00000000
00000000
00011000
00000000
00000000
00001000
00000001
00000100
00000010
00001000
00000100
00000010
,
00000001
00000010
00001000
00000001
00000100
00001000
00000001
00000100
00001000
00010000
00000000
00100000
,
10000000
00000000
10000000
00010000
00000000
00010000
00001000
00000000
00001000
00000001
00000000
00000000
,
00000002
00001003
00002000
00013000
,
00020000
10030000
01100000
10010000
,
20000000
30010000
00020000
00031000
,
00002000
00003001
00000110
00001001
,
00000001
00000000
00000001
00001000
00000000
00001000
00010000
00000000
00010000
10000000
00000000
00000000
,
10000000
00000000
10000000
00010000
00000000
00010000
00001000
00000000
00001000
00000001
00000000
00000000
,
00000101
00001010
01010000
10100000
,
10000000
00000000
01000000
00000000
00100000
00000000
00001000
00010000
00001000
00010000
00001000
00010000
00001000
00000000
00000000
00000000
00000010
00000000
00000000
00000000
00000001
00000000
00000000
00000000
,
00002002
00000000
00000000
00000000
,
00003003
00000000
00000000
00000000
,
00001001
00000000
00000010
00001000
00000100
00000010
00000011
00000000
00000100
00001100
00000000
00000110
,
00000000
00000000
00011000
00000000
00000000
01100000
01100000
00100000
10000000
00010000
01000000
00100000
,
01100000
00000000
10000000
01000000
00010000
01000000
00100000
00000000
00100000
00011000
00000000
00001000
,
00010100
00000000
00001000
00000110
00000000
00000001
00000110
00000000
00000100
00001001
00000000
00000010
,
00001001
00000000
00000001
00000100
00001000
00000100
00000110
00000000
00010000
00010100
00000000
00011000
,
00000000
00000000
00000000
00000000
00100000
00010000
00100000
00010000
00100000
01000000
10000000
01000000
10000000
00000000
00100000
00000000
00010000
00000000
00001000
00000000
00000100
00000000
00000001
00000000
,
00000011
00000010
00000100
00010100
00010000
00001000
00101000
00100000
00010000
01010000
01000000
00100000
,
10100000
10000000
00010000
00011000
00001000
00000001
00001001
00001000
00010000
00011000
00000000
00000000
,
00011000
00000000
00010000
01000000
10000000
00100000
01100000
00000000
00001000
00011000
00000000
00010100
,
00000000
00000000
00000110
00000000
00000000
00001001
00001001
00001000
00000010
00000001
00000010
00001000
,
00001001
00000000
00000001
00000100
00001000
00010000
00100000
00000000
00100000
11000000
00000000
00100000
,
01010000
00000000
00100000
00011000
00000000
00000010
00011000
00000000
01000000
00011000
00000000
00000100
,
00011000
00010000
00000010
00001000
00000001
00000010
00000110
00000100
00010000
00001000
01000000
00100000
,
01100000
00000000
00000000
00000000
00100000
10000000
00100000
10000000
00100000
01000000
00010000
01000000
00010000
00000000
10000000
00000000
01000000
00000000
00010000
00000000
00001000
00000000
00000010
00000000
,
00000011
00000100
00000001
00001010
00010000
00000100
00011000
00100000
00010000
01010000
00100000
10000000
,
11000000
00000000
01000000
00000000
00010000
00000000
00001000
00010000
00001000
00010000
00001000
00010000
00001000
00000000
00000000
00000000
00001010
00000000
00000000
00000000
00000011
00000000
00000000
00000000
,
00001001
00000000
00000000
00000000
,
00000000
00000000
00000000
00000000
;
