
//----- song ID: bfos -----//
#TITLE:B4U (The Acolyte mix);
#ARTIST:J-RAVERS;
#BANNER:B4U (The Acolyte mix).png;
#BACKGROUND:B4U (The Acolyte mix)-bg.png;
#CDTITLE:./CDTitles/DDR HOTTEST PARTY.png;
#MUSIC:B4U (The Acolyte mix).ogg;
#SAMPLESTART:52.645;
#SAMPLELENGTH:15;
#BPMS:0=155;
#NOTES:
     dance-single:
     :
     Beginner:
     2:
     :
0000
0000
0000
0000
,
0000
0000
0000
0000
,
0000
0000
0000
0000
,
0000
0000
0000
0000
,
0000
0000
0000
0000
,
0000
0000
0000
0000
,
0001
0000
0000
0000
,
1000
0000
0000
0000
,
0001
0000
0001
0000
,
0010
0000
0000
0000
,
0001
0000
0000
0000
,
1000
0000
0000
0000
,
0010
0000
0000
0000
,
1000
0000
1000
0000
,
0001
0000
0000
0000
,
1000
0000
0000
0000
,
1001
0000
0000
0000
,
0001
0000
1000
0000
,
0010
0000
0000
0000
,
1000
0000
0000
0000
,
0001
0000
0000
0000
,
1001
0000
0000
0000
,
0001
0000
0000
0000
,
1000
0000
0000
0000
,
0001
0000
0000
0000
,
1000
0000
0010
0000
,
1000
0000
0000
0000
,
1000
0000
0000
0000
,
0001
0000
0000
0000
,
1001
0000
0000
0000
,
0001
0000
0000
0000
,
0100
0000
0000
0000
,
0001
0000
1000
0000
,
0002
0000
0000
0003
,
1000
0000
0000
0000
,
0001
0000
0001
0000
,
1000
0000
0000
0000
,
1001
0000
0000
0000
,
0010
0000
0000
0000
,
1000
0000
1000
0000
,
0010
0000
0000
0000
,
1000
0000
0001
0000
,
0001
0000
0000
0000
,
1000
0000
0001
0000
,
0100
0000
0000
0000
,
1001
0000
0000
0000
,
1001
0000
0000
0000
,
0001
0000
0100
0000
,
0010
0000
0000
0000
,
1001
0000
0000
0000
,
0001
0000
0000
1000
,
1000
0000
0000
0000
,
1000
0000
0000
0001
,
0001
0000
0000
0000
,
0001
0000
0000
0010
,
0010
0000
0000
0000
,
1000
0000
0000
0010
,
0010
0000
0000
0000
,
1001
0000
0000
0000
,
0000
0000
0000
0000
;
#NOTES:
     dance-single:
     :
     Easy:
     4:
     :
0000
0000
0000
0000
,
0000
0000
0000
0000
,
0000
0000
0000
0000
,
0000
0000
0000
0000
,
0000
0000
0000
0000
,
0000
0000
0000
0000
,
0001
0000
0100
0000
,
0010
0100
0100
0000
,
0100
0000
0001
0000
,
2002
0000
3003
0000
,
1000
0000
0100
0100
,
0010
0000
0001
0001
,
1000
0000
1000
0010
,
0200
0000
0310
0000
,
1001
0000
0100
0010
,
0100
0000
0010
0000
,
0110
0000
1001
0000
,
0001
1000
0001
0010
,
0001
0000
0010
0000
,
0001
0000
1000
0000
,
0010
0000
0100
0000
,
0010
0010
0010
0000
,
0100
0000
0001
0000
,
1000
0000
0001
0000
,
0010
0000
0100
0000
,
0010
0010
0010
0010
,
0100
0000
0000
0000
,
1000
0000
0000
0000
,
0001
0000
0100
0000
,
0010
0010
0010
0000
,
0100
0000
1001
0000
,
0010
0000
1001
0000
,
0001
0000
0100
0010
,
0200
0000
0000
0300
,
0001
0000
0100
0000
,
0010
1000
0010
0000
,
0100
0000
0001
0000
,
0010
0010
0010
0000
,
1001
0000
0001
0000
,
0100
0010
0100
0000
,
0001
0000
1000
0000
,
0001
0001
1000
0001
,
0010
0000
0100
0000
,
0010
0001
1000
0000
,
0001
0000
0100
0000
,
0010
0010
0010
0000
,
1001
0000
1000
0000
,
0100
1000
0001
0000
,
0100
0000
0100
0000
,
0220
0000
0330
0000
,
0002
0000
0003
0100
,
0200
0000
0300
0010
,
0020
0000
0030
1000
,
2000
0000
3000
0010
,
0020
0000
0030
0100
,
0200
0000
0300
0001
,
0002
0000
0003
1000
,
2000
0000
3000
0000
,
1001
0000
0000
0000
,
0000
0000
0000
0000
;
#NOTES:
     dance-single:
     :
     Medium:
     9:
     :
0000
0000
0000
0000
,
0000
0000
0000
0000
,
0000
0000
0000
0000
,
0000
0000
0000
0000
,
0000
0000
0000
0000
,
0000
0000
0000
0000
,
0010
0000
0100
0000
0001
0000
1000
0100
,
0001
0000
0100
0000
0010
0000
0001
1000
,
0010
0000
0001
0000
0010
0000
1000
0100
,
0020
0000
0000
0000
,
0130
0000
1000
0000
0001
0100
0010
0000
,
0100
0000
0001
0000
0010
0100
1000
0000
,
0100
0000
0001
0000
0100
1000
0001
0000
,
0100
0010
0100
0001
0100
0000
0101
0000
,
0002
0103
0200
0310
,
0020
1030
2000
3100
,
0001
0100
0000
0000
1000
0010
0010
0000
,
1000
0010
0001
0000
0010
1000
0010
0100
,
0001
0000
0000
1000
,
0100
1000
0001
0000
1000
0010
0100
0000
,
0010
1000
0001
0000
0010
0100
1000
0000
,
0010
0000
0010
0000
0010
0000
1000
0100
,
0001
0000
0100
0100
,
0010
0001
1000
0000
0100
0000
0010
0000
,
0001
1000
0010
0100
0010
1000
0100
0000
,
0010
0001
0010
0001
0010
0100
0010
0100
,
1000
0000
0000
0000
0000
0000
0000
0010
,
0100
0000
0000
0000
0000
0000
0000
0001
,
1000
0000
1000
0000
,
0010
0000
0010
0000
0010
0000
1000
0010
,
0001
0010
1000
0100
,
0001
0010
1000
0100
,
0010
1001
0010
1001
,
0010
0100
0010
0100
0010
0000
0000
0000
,
1000
0000
0100
0000
0010
0100
1000
0000
,
0100
0000
0010
0000
0001
1000
0100
1000
,
0010
0100
1000
0100
,
0101
0000
0101
0000
0101
0000
0001
0100
,
1000
0100
0010
1000
,
0100
0000
0010
0000
0100
1000
0001
0000
,
0100
0010
0001
0010
,
0200
0000
0001
0000
0302
0000
0010
0003
,
0001
0100
1000
0000
1000
0100
0001
0000
,
0100
0000
0001
0000
0010
0100
1000
0000
,
1000
0100
0001
0000
0001
0100
1000
0000
,
1100
0000
0101
0000
1100
0000
1000
0010
,
0001
0000
0000
0000
0010
0000
0000
0000
0100
0000
0000
0100
0001
0000
0000
0000
,
0010
0000
0000
0000
0001
0000
0000
0000
0100
0000
0000
0010
1000
0000
0000
0000
,
0100
0000
0000
0000
0010
0000
0000
0000
0001
0000
0000
0100
0010
0000
0000
0000
,
0200
0000
0020
0330
,
1000
0000
0000
1000
0000
0000
1000
0000
0000
0000
0001
0000
0100
0000
0000
0000
,
0010
0000
0000
0010
0000
0000
0010
0000
0000
0000
1000
0000
0001
0000
0000
0000
,
0100
0000
0000
0100
0000
0000
0100
0000
0000
0000
0010
0000
1000
0000
0000
0000
,
0001
0000
0000
0001
0000
0000
0001
0000
0000
0000
0100
0000
0001
0000
0000
0000
,
1000
0000
0000
1000
0000
0000
1000
0000
0000
0000
0001
0000
0100
0000
0000
0000
,
0001
0000
0000
0001
0000
0000
0001
0000
0000
0000
0010
0000
1000
0000
0000
0000
,
0010
0000
0000
0010
0000
0000
0010
0000
0000
0000
0100
0000
1000
0000
0000
0000
,
0100
0000
0000
0100
0000
0000
0100
0000
0000
0000
0100
0000
0010
0000
0000
0000
,
1001
0000
0000
0000
,
0000
0000
0000
0000
;
#NOTES:
     dance-single:
     :
     Hard:
     13:
     :
0000
0000
0000
0000
,
0000
0000
0000
0000
,
0000
0000
0000
0000
,
0000
0000
0000
0000
,
0000
0000
0000
0000
,
0000
0000
0000
0000
,
0001
0000
0000
0000
1000
0000
0000
0010
0000
0000
1000
0000
0100
0000
1000
0000
,
0010
0000
0000
0000
0100
0000
0000
0001
0000
0000
0010
0000
1000
0000
0010
0000
,
0001
0000
0000
0000
0100
0000
0000
1000
0000
0000
0001
0000
0010
0000
1000
0000
,
2002
0000
0000
3003
,
1000
0010
1000
0010
0100
0001
0010
0001
,
0010
1000
0010
0001
0010
1000
0010
0001
,
0100
0001
0010
0001
1000
0010
0010
0000
,
1000
0000
0001
0010
0001
0000
0010
0100
0010
0000
0100
0000
1000
0000
0100
0000
,
0010
0001
0001
0000
0100
0001
0100
0010
,
1000
0010
0001
0010
1000
0010
0001
0010
,
1000
0000
1001
0000
0000
0000
0000
0000
1000
0000
0010
0100
0010
0000
0000
0000
,
0100
0001
0020
0000
0130
0100
0010
0010
,
0100
0000
1000
0100
0000
0000
0100
0000
0010
0001
0000
0000
0001
0000
0010
0100
,
0000
0100
1000
0100
1000
0010
0100
0010
,
0001
0000
0010
0100
0000
0000
0100
0000
0010
1000
0000
0000
0100
0000
1000
0000
,
1100
0000
0110
0000
0011
0000
0010
0001
,
0100
0000
0001
0010
0000
0000
0100
0000
1000
0010
0000
0000
0100
0000
0001
0010
,
0000
0001
1000
0001
1000
0100
1000
0010
,
0100
0000
0010
0001
0000
0000
0010
0000
1000
0100
0000
0000
0010
0000
1000
0000
,
0010
0000
0001
0000
0010
0000
0010
0000
0100
0000
0010
0000
1000
0010
1000
0010
,
2000
0000
0000
0000
0000
0000
0000
3010
,
0020
0000
0000
0000
0000
0000
0000
0130
,
0200
0000
0010
0301
,
0101
1010
0011
1100
,
0010
0001
1000
0000
0010
1000
0001
0000
,
0010
0001
1000
0100
0001
1000
0010
0000
,
0001
0010
0100
0001
0100
1000
0001
0100
,
0002
0000
2000
3003
,
0010
0000
0000
0010
1000
0000
0000
1000
0100
0000
0000
0100
0020
0000
0000
0000
,
0130
1000
0100
0010
0001
0100
0010
0000
,
0100
0000
0000
0100
0001
0000
0000
0001
0010
0000
0000
0010
0100
0000
0010
0000
,
0002
0000
0010
0000
1000
0000
0103
0100
,
0001
0000
0000
0100
0010
0000
0000
0010
1000
0000
0000
1000
0002
0000
0000
0000
,
0013
1000
0010
0001
1000
0010
0100
0010
,
1000
0000
0000
0010
1000
0000
0000
1000
0001
0000
0000
0001
0010
0000
0000
0000
,
0100
0010
0100
0010
0100
0010
0100
0010
,
0100
0010
0000
0001
0000
0010
0000
0001
0000
0001
0000
0010
0100
0000
2000
0000
,
3100
0010
0001
0100
1000
0100
0001
1000
,
0010
0100
0000
0010
0000
0100
0000
0010
0000
0010
0000
0100
0001
0000
2000
0000
,
3200
0000
0010
0000
0301
0000
0100
0100
,
0001
0100
0000
1000
0000
0001
0000
0001
0000
0100
0000
0100
0001
0000
2000
0000
,
3100
0000
1000
0000
0100
0000
1000
0000
0010
1000
0001
0000
0100
0000
1000
0000
,
0100
0001
0000
0010
0000
0100
0000
0100
0000
0010
0000
0010
0100
0000
0010
0000
,
0220
0000
0000
0330
,
0001
0000
0000
1000
0000
0000
0001
0000
0000
1000
0000
0000
0100
0000
0100
0000
,
0010
0000
0000
1000
0000
0000
0010
0000
0000
1000
0000
0000
0110
0000
0100
0000
,
1000
0000
0000
0001
0000
0000
1000
0000
0000
0001
0000
0000
0100
0000
0100
0000
,
1000
0000
0000
0100
0000
0000
1000
0000
0000
0100
0000
0000
0110
0000
0010
0000
,
1000
0000
0000
1100
0000
0000
0001
0000
0000
0010
0000
0000
0100
0000
0010
0000
,
0001
0000
0000
0101
0000
0000
1000
0000
0000
0010
0000
0000
0001
0000
0010
0000
,
1000
0000
0000
0101
0000
0000
1000
0000
0000
1000
0000
0000
0100
0000
0010
0000
,
0001
0000
0000
1100
0000
0000
0001
0000
0000
0001
0000
0000
1000
0000
0001
0000
,
0110
0000
0000
0000
,
0000
0000
0000
0000
;
#NOTES:
     dance-double:
     :
     Easy:
     4:
     :
00000000
00000000
00000000
00000000
,
00000000
00000000
00000000
00000000
,
00000000
00000000
00000000
00000000
,
00000000
00000000
00000000
00000000
,
00000000
00000000
00000000
00000000
,
00000000
00000000
00000000
00000000
,
10000000
00000000
10000000
00000000
,
01000000
00000000
00100000
00000000
,
00100000
00000000
00001000
00010000
,
00001000
00000000
00000000
00000000
,
00010000
00000000
00000100
00000010
,
00000100
00000000
00000010
00000001
,
00000010
00000000
00000001
00000100
,
00000001
00000000
00000010
00000010
,
00000100
00000000
00001000
00000000
,
00010000
00000000
00100000
00000000
,
10010000
00000000
01100000
00000000
,
10000000
01000000
10000000
01000000
,
00100000
00000000
00000000
00000000
,
00100000
00000000
00001000
00000000
,
00001000
00000000
00000100
00000000
,
00000010
00000010
00000010
00000000
,
00001001
00000000
00000000
00000000
,
00000001
00000000
00000100
00000000
,
00000010
00000000
00000100
00000000
,
00001000
00010000
00001000
00010000
,
00001000
00000000
00000000
00000000
,
00001000
00000000
00000000
00000000
,
00010000
00000000
00100000
00000000
,
01000000
01000000
01000000
00000000
,
00011000
00000000
00010000
00000000
,
01000000
00000000
10000000
00000000
,
00010000
00000000
00100000
01000000
,
00200000
00000000
00000000
00300000
,
01000000
00000000
01000000
00000000
,
00100000
00010000
00100000
00000000
,
00001000
00000000
00010000
00000000
,
00000010
00000010
00000010
00000000
,
00000110
00000000
00000010
00000000
,
00000100
00000001
00000100
00000000
,
00000010
00000000
00000100
00000000
,
00001000
00001000
00010000
00010000
,
00001000
00000000
00100000
00000000
,
01000000
00010000
00001000
00000000
,
00001000
00000000
00000100
00000000
,
00001001
00001001
00001001
00000000
,
00001100
00000000
00010000
00000000
,
01000000
00100000
01000000
00100000
,
01000000
00000000
10000000
00000000
,
00100000
00010000
00001000
00000000
,
00020000
00000000
00030000
00001000
,
00002000
00000000
00003000
00000100
,
00000200
00000000
00000300
00000001
,
00000002
00000000
00000003
00000000
,
00002000
00000000
00003000
00000010
,
00000020
00000000
00000030
00010000
,
00020000
00000000
00030000
00000100
,
00000200
00000000
00000300
00000000
,
00011000
00000000
00000000
00000000
,
00000000
00000000
00000000
00000000
;
#NOTES:
     dance-double:
     :
     Medium:
     9:
     :
00000000
00000000
00000000
00000000
,
00000000
00000000
00000000
00000000
,
00000000
00000000
00000000
00000000
,
00000000
00000000
00000000
00000000
,
00000000
00000000
00000000
00000000
,
00000000
00000000
00000000
00000000
,
00010000
00000000
00001000
00000000
00000010
00000000
00000001
00000100
,
00001000
00000000
00010000
00000000
00100000
00000000
01000000
00010000
,
00100000
00000000
01000000
00000000
00100000
00000000
10000000
00100000
,
00020000
00000000
00000000
00000000
,
10030000
00000000
00100000
00000000
10000000
00100000
01000000
00000000
,
00100000
00000000
00010000
00000000
00001000
00010000
00001000
00000000
,
00010000
00000000
00000100
00000000
00001000
00000100
00000010
00000000
,
00000100
00000001
00000100
00000010
00000100
00000000
00000110
00000000
,
00000020
00001030
00002000
00013000
,
00020000
00130000
00200000
10300000
,
01000000
00100000
00000000
00000000
00010000
10000000
00100000
00000000
,
00100000
00010000
00001000
00000000
00000100
00001000
00010000
00000000
,
00011000
00000000
00010000
00100000
,
10000000
00000000
01000000
00000000
00010000
01000000
10000000
00000000
,
00100000
01000000
00100000
00000000
10000000
00100000
00010000
00000000
,
00011000
00000000
00011000
00000000
00001100
00000000
00001000
00000100
,
00000001
00000000
00000010
00000001
,
00001000
00000000
00000010
00000000
00001000
00000001
00000010
00000000
,
00000001
00000100
00001000
00000000
00000100
00001000
00010000
00000000
,
00001000
00010000
00001000
00010000
00001000
00100000
01000000
00100000
,
00010000
00000000
00000000
00000000
00000000
00000000
00000000
00001000
,
00000100
00000000
00000000
00000000
00000000
00000000
00000000
00000010
,
00000001
00000000
00000100
00000000
,
00011000
00000000
00011000
00000000
00001100
00000000
00000010
00001000
,
00010000
01010000
01000000
01100000
,
00100000
10100000
10000000
11000000
,
00010000
00000000
00100000
00000000
00001000
00010000
00001000
00010000
,
00002000
00000000
00020000
00033000
,
00001000
00000000
00011000
00000000
00001000
00010000
00100000
01000000
,
00200000
00000000
01300000
00000000
00100000
01000000
00100000
00000000
,
00010000
00000000
00011000
00000000
00010000
00001000
00000010
00000100
,
00002000
00000000
00000010
00000000
00003001
00000000
00000001
00000100
,
00001000
00000000
00011000
00000000
01000000
00010000
00100000
01000000
,
00200000
00000000
01300000
00000000
10000000
00100000
00010000
00000000
,
00001000
00000000
00011000
00000000
00001000
00000100
00000010
00000100
,
00002000
00000100
00023000
00001000
,
01030000
00010000
00001000
00000000
00010000
00001000
00000100
00000000
,
00000010
00000100
00000010
00000100
00000010
00000000
00000110
00000000
,
00000010
00000100
00001000
00000000
00000100
00001000
00010000
00000000
,
00020000
00000000
00001000
00000000
00130000
00000000
00100000
00010000
,
00001000
00000000
00000010
00000000
00000100
00001000
00000010
00000100
,
00001000
00000000
00100000
00000000
00001000
00100000
01000000
00000000
,
00010000
00000000
01000000
00000000
10000000
01000000
00100000
00001000
,
00020000
00000000
00002000
00033000
,
00100000
00000000
00000000
00100000
00000000
00000000
00100000
00000000
00000000
00000000
00001000
00000000
00010000
00000000
00000000
00000000
,
00000010
00000000
00000000
00000010
00000000
00000000
00000010
00000000
00000000
00000000
00010000
00000000
00001000
00000000
00000000
00000000
,
01000000
00000000
00000000
01000000
00000000
00000000
01000000
00000000
00000000
00000000
00001000
00000000
00010000
00000000
00000000
00000000
,
00000100
00000000
00000000
00000100
00000000
00000000
00000100
00000000
00000000
00000000
00010000
00000000
00001000
00000000
00000000
00000000
,
00100000
00000000
00000000
00100000
00000000
00000000
00100000
00000000
00000000
00000000
00010000
00000000
00000100
00000000
00000000
00000000
,
00000010
00000000
00000000
00000010
00000000
00000000
00000010
00000000
00000000
00000000
00001000
00000000
00100000
00000000
00000000
00000000
,
10000000
00000000
00000000
10000000
00000000
00000000
10000000
00000000
00000000
00000000
00010000
00000000
00001000
00000000
00000000
00000000
,
00000001
00000000
00000000
00000001
00000000
00000000
00000001
00000000
00000000
00000000
00001000
00000000
00010000
00000000
00000000
00000000
,
00011000
00000000
00000000
00000000
,
00000000
00000000
00000000
00000000
;
#NOTES:
     dance-double:
     :
     Hard:
     13:
     :
00000000
00000000
00000000
00000000
,
00000000
00000000
00000000
00000000
,
00000000
00000000
00000000
00000000
,
00000000
00000000
00000000
00000000
,
00000000
00000000
00000000
00000000
,
00000000
00000000
00000000
00000000
,
00001000
00000000
00000000
00000000
00010000
00000000
00000000
00100000
00000000
00000000
10000000
00000000
01000000
00000000
10000000
00000000
,
00100000
00000000
00000000
00000000
00010000
00000000
00000000
00001000
00000000
00000000
00000010
00000000
00000100
00000000
00001000
00000000
,
00000010
00000000
00000000
00000000
00000100
00000000
00000000
00001000
00000000
00000000
00100000
00000000
00001000
00000000
00010000
00000000
,
00022000
00000000
00000000
00033000
,
00010000
00001000
00010000
00001000
00010000
01000000
10000000
00000000
,
00100000
01000000
00100000
10000000
00100000
01000000
00100000
00000000
,
00100000
00010000
00001000
00000010
00001000
00000010
00000001
00000000
,
00000001
00000000
00000100
00000001
00000100
00000000
00000010
00000100
00000010
00000000
00000100
00000000
00001000
00000000
00010000
00000000
,
00100000
00000000
10000000
00000000
10000000
00000000
00000000
00000000
10000000
00000000
01000000
00100000
01000000
00000000
00010000
00000000
,
00001000
00000010
00001000
00010000
00001000
00000010
00000100
00000000
,
00001001
00000000
00001001
00000000
00000000
00000000
00000000
00000000
00001000
00000000
00000010
00000100
00000010
00000000
00000000
00000000
,
00002100
00023000
00100000
00031000
,
00010000
00001000
00000010
00000000
00001000
00000010
00000001
00000000
,
00000001
00000100
00000001
00000010
00001000
00010000
00000010
00001000
,
00100000
00010000
00001000
00000000
00001000
00010000
01000000
00000000
,
10000000
01000000
00000000
00000000
01000000
00010000
00000000
00000000
00010000
00001000
00000000
00000000
00002000
00000000
00003000
00000000
,
00010000
00000000
00000100
00000010
00000000
00000000
00001000
00000000
00000010
00000100
00000000
00000000
00010000
00000000
00000010
00000100
,
00000000
00000001
00000100
00001000
00000100
00000010
00000100
00000001
,
00000100
00000000
00001000
00010000
00000000
00000000
00000100
00000000
00010000
00001000
00000000
00000000
00100000
00000000
00010000
00000000
,
00100000
00000000
00010000
00000000
00100000
00000000
00100000
00000000
10000000
00000000
00100000
00000000
10000000
00100000
10000000
00100000
,
20000000
00000000
00000000
00000000
00000000
00000000
00000000
30100000
,
00200000
00000000
00000000
00000000
00000000
00000000
00000000
00310000
,
00020000
00000000
00032000
00010000
,
00003200
00000001
00000010
00001300
,
00011000
00000000
00000000
00010000
00000000
00000000
00000100
00000000
00000000
00000010
00000000
00000000
00001000
00000000
00000000
00000000
,
00010000
00000000
00000000
00000010
00000000
00000000
00000100
00000000
00000000
00001000
00000000
00000000
00011000
00000000
00000000
00000000
,
00001000
00000000
00000000
01000000
00000000
00000000
00100000
00000000
00000000
10000000
00000000
00000000
00100000
00000000
00010000
00000000
,
00002000
00000000
00020000
00033000
,
00010000
00000000
00000000
00000000
00100000
00000000
00000000
00100000
10000000
00000000
00000000
10000000
00010000
00000000
00100000
00000000
,
00010000
00100000
01000000
00010000
00001000
00000100
00000010
00000000
,
00000010
00000000
00000000
00000000
00010000
00000000
00000000
00010000
00000100
00000000
00000000
00000100
00000010
00000000
00000001
00000000
,
00000020
00000000
00000001
00000000
00000130
00000000
00000100
00000100
,
00010000
00000000
00000000
00000000
00001000
00000000
00000000
01000000
00010000
00000000
00000000
00010000
00100000
00000000
01000000
00000000
,
10000000
00100000
00010000
00001000
00000010
00001000
00010000
00000010
,
00001000
00000000
00000000
00000000
00001000
00000000
00000000
00000100
00000010
00000000
00000000
00000100
00001000
00000000
00000100
00000000
,
00010000
00001000
00010000
00001000
00010000
00001000
00010000
00001000
,
00010000
00001000
00000000
00010000
00000000
00000100
00000000
00001000
00000000
00000100
00000000
00000100
00000010
00000000
00000002
00000000
,
00000013
00000001
00001000
00000010
00000100
00001000
00010000
00100000
,
10000000
00100000
00000000
10000000
00000000
01000000
00000000
00100000
00000000
01000000
00000000
01000000
00100000
00000000
02000000
00000000
,
03020000
00000000
01000000
00000000
00031000
00000000
00000100
00000100
,
00010000
00000100
00000000
00001000
00000000
00000010
00000000
00000010
00000000
00000100
00000000
00000100
00001000
00000000
00020000
00000000
,
01030000
10000000
01000000
00010000
00001000
00000100
00000010
00001000
,
00000001
00001000
00000000
00000010
00000000
00001000
00000000
00001000
00000000
00000100
00000000
00000100
00000010
00000000
00001000
00000000
,
00022000
00000000
00000000
00033000
,
00010000
00000000
00000000
00001000
00000000
00000000
00100000
00000000
00000000
00010000
00000000
00000000
01000000
00000000
01000000
00000000
,
00100000
00000000
00000000
00010000
00000000
00000000
00100000
00000000
00000000
00010000
00000000
00000000
00011000
00000000
00001000
00000000
,
00000010
00000000
00000000
00001000
00000000
00000000
00000010
00000000
00000000
00001000
00000000
00000000
00000010
00000000
00000010
00000000
,
00000001
00000000
00000000
00000010
00000000
00000000
00000001
00000000
00000000
00001000
00000000
00000000
00000001
00000000
00000010
00000000
,
00001000
00000000
00000000
00011000
00000000
00000000
00001000
00000000
00000000
00010000
00000000
00000000
00000010
00000000
00000100
00000000
,
00001000
00000000
00000000
00010000
00000000
00000000
01000000
00000000
00000000
10000000
00000000
00000000
01000000
00000000
00010000
00000000
,
00001000
00000000
00000000
00000010
00000000
00000000
00000001
00000000
00000000
00000100
00000000
00000000
00001000
00000000
00010000
00000000
,
00100000
00000000
00000000
10000000
00000000
00000000
01000000
00000000
00000000
00010000
00000000
00000000
00001010
00000000
00000000
00000000
,
00000011
00000000
00000000
00000000
,
00000000
00000000
00000000
00000000
;
