
//----- song ID: aoga -----//
#TITLE:蒼が消えるとき;
#ARTIST:movies (moimoi×Xceon×Dai.);
#TITLETRANSLIT:Ao ga kieru toki;
#BANNER:Ao ga kieru toki.png;
#BACKGROUND:Ao ga kieru toki-bg.png;
#CDTITLE:./CDTitles/pop'n music eclale.png;
#MUSIC:Ao ga kieru toki.ogg;
#SAMPLESTART:52.727;
#SAMPLELENGTH:15;
#BPMS:0=162;
#NOTES:
     dance-single:
     :
     Beginner:
     3:
     :
0000
0000
0000
0000
,
0000
0000
0000
0000
,
0000
0000
0000
0000
,
0000
0000
0000
0000
,
0000
0000
0000
0000
,
0001
0000
0000
0000
,
0001
0000
0000
0000
,
1000
0000
0000
0000
,
1000
0000
0000
0000
,
1001
0000
0000
0000
,
0001
0000
0001
0000
,
1000
0000
1000
0000
,
0001
0000
0010
0000
,
0001
0000
0001
0000
,
1000
0000
1000
0000
,
0001
0000
0001
0000
,
0010
0000
0100
0000
,
1000
0000
0001
0000
,
1001
0000
0000
0000
,
0001
0000
0000
0000
,
0010
0000
0000
0000
,
0001
0000
0001
0000
,
0001
0001
0001
0000
,
1000
0000
0000
0000
,
0100
0000
0000
0000
,
1000
0000
1000
0000
,
1000
0000
0000
0000
,
0001
0000
0000
0000
,
0001
0001
0001
0000
,
1000
0000
0000
0000
,
1000
1000
1000
0000
,
0001
0000
0001
0000
,
1000
1000
1000
0000
,
0001
0001
0001
0000
,
2002
0000
0000
0000
,
3003
0000
0000
0000
,
0001
0000
0000
0000
,
0010
0000
0000
0000
,
0001
0000
0010
0000
,
0010
0010
0010
0000
,
1000
0000
0000
0000
,
0100
0000
0000
0000
,
1000
0000
0100
0000
,
0100
0100
0100
0000
,
0001
0000
0001
0000
,
1000
0000
1000
0000
,
0001
0000
0100
0000
,
0001
0001
0001
0000
,
0100
0000
0100
0000
,
0010
0000
0010
0000
,
0100
0000
0010
0000
,
0100
0000
0000
0000
,
1001
0000
0000
0000
,
0000
0000
0000
0000
,
0110
0000
0000
0000
,
0000
0000
0000
0000
,
2000
0000
0000
0000
,
3000
0000
0000
0000
,
0002
0000
0000
0000
,
0003
0000
0000
0000
,
0010
0000
0000
0000
,
0100
0000
0000
0000
,
0001
0000
1000
0000
,
2002
0000
0000
0000
,
3003
0000
0000
0000
,
0001
0000
0010
0000
,
0001
0001
0001
0000
,
1000
0000
0100
0000
,
1000
1000
1000
0000
,
0010
0000
0100
0000
,
0010
0000
0100
0000
,
0001
0000
1000
0000
,
1001
0000
0000
0000
,
1000
0000
1000
0000
,
0100
0000
0100
0000
,
0001
0000
0001
0000
,
0010
0000
0010
0000
,
1000
1000
1000
0000
,
0001
0001
0001
0000
,
0010
0000
0100
0000
,
1001
0000
0100
0100
,
0200
0000
0000
0000
,
0000
0000
0000
0000
,
0300
0000
0000
0000
,
0000
0000
0000
0000
;
#NOTES:
     dance-single:
     :
     Easy:
     6:
     :
0000
0000
0000
0000
,
0000
0000
0000
0000
,
0000
0000
0000
0000
,
0000
0000
0000
0000
,
0000
0000
0000
0000
,
0000
0001
0000
0001
,
0000
1000
0000
1000
,
0010
0010
0010
0000
,
0100
0100
0100
0000
,
0220
0000
0330
1001
,
0010
0001
0001
0000
,
0100
1000
1000
0000
,
0001
0001
1000
1000
,
0010
0010
0010
1001
,
0001
0010
0001
0000
,
1000
0100
1000
0000
,
0001
1000
0001
1000
,
1001
0000
0010
0100
,
0020
0000
0030
1001
,
0001
0010
0001
0100
,
0001
0001
0001
0000
,
1000
0010
1000
0100
,
1000
1000
1000
0000
,
0010
0001
0010
0100
,
0010
0010
0100
0000
,
1001
0000
0110
0000
,
2002
0000
3003
1001
,
0001
0000
0001
0000
,
0010
0010
0020
0030
,
1000
0100
0010
0001
,
0110
1001
0220
0330
,
1000
0000
1000
0000
,
0010
0010
0020
0030
,
0001
0010
0100
1000
,
0220
0000
0000
0000
,
0330
0000
0000
1001
,
0010
0001
0001
0000
,
0100
1000
1000
0000
,
0001
0001
1000
1000
,
0010
0010
0010
1001
,
0010
0001
0010
0000
,
0100
1000
0100
0000
,
0002
0000
2000
3003
,
1001
0000
0100
0100
,
0100
0000
0010
1000
,
0100
0000
0010
0001
,
0100
0000
0001
0010
,
0100
1000
0100
0010
,
0010
0000
0001
1000
,
0010
0000
1000
0001
,
0100
0000
0010
0100
,
1001
0000
1000
0010
,
0020
0030
2000
3000
,
0002
0003
0100
1001
,
0010
0000
0010
0000
,
0100
0000
0100
1001
,
0020
0000
0032
0000
,
2003
0000
3200
0000
,
0320
0000
0032
0000
,
0023
0000
0030
1001
,
0000
0110
0000
1001
,
0000
0110
0000
1001
,
0000
0110
0000
1001
,
0220
0000
0000
0000
,
0330
0000
0000
0000
,
0000
1001
0010
0001
,
0001
0000
0100
1000
,
1000
0000
0001
0001
,
1000
1000
0010
1001
,
0010
0001
0100
0000
,
0010
1000
0100
0000
,
1000
0100
0010
0001
,
1001
0000
0010
0010
,
1001
0000
0001
1000
,
0010
0000
0010
0001
,
1000
0000
1000
0010
,
0100
0001
1000
0100
,
0010
0010
1001
0000
,
0100
0100
1001
0000
,
0110
0000
0110
0000
,
2002
3003
0100
0010
,
0200
0000
0000
0000
,
0000
0000
0000
0000
,
0300
0000
0000
0000
,
0000
0000
0000
0000
;
#NOTES:
     dance-single:
     :
     Medium:
     9:
     :
0000
0000
0000
0000
,
0000
0000
0000
0000
,
0000
0000
0000
0000
,
0000
0000
0000
0000
,
0000
0000
0000
0000
,
0000
0001
0000
0001
,
0000
0100
0000
0100
,
0010
0000
0010
0000
0001
0010
0001
0000
,
0010
0000
0010
0000
0001
1000
0100
0000
,
0220
0000
0330
1001
,
0100
0000
1000
0000
0001
1000
0010
0000
,
0100
0000
0001
0000
1000
0001
0100
0000
,
1000
0100
1000
0000
0001
0100
0001
0000
,
0010
0010
0010
1001
,
1000
0000
1000
0000
0010
0100
0010
0000
,
0001
0000
0001
0000
0010
0100
0010
0000
,
0001
0000
1000
0000
0010
1000
0001
0000
,
0100
0000
1001
0000
0010
0001
0100
0001
,
0020
0000
0030
1001
,
0001
0000
0010
0000
0001
0010
0100
0000
,
1000
0010
0100
0000
1001
0000
0000
0000
,
1000
0000
0010
0000
1000
0010
0100
0000
,
0001
0001
0001
1001
,
0010
0000
0001
0000
0010
0001
0100
0000
,
0010
0000
0010
1000
0100
0000
1001
0000
,
0011
0000
1100
0000
,
0220
0000
0330
1001
,
0001
0000
0001
0000
1000
0010
1000
0000
,
1010
0011
2020
3030
,
1000
0100
0010
0001
,
0011
1010
0022
0033
,
0010
0100
0010
0000
0001
0100
0010
0000
,
0101
1100
0202
0303
,
0110
1001
0110
1001
,
0220
0000
0000
0000
,
0330
0000
0000
1001
,
0100
0000
1000
0000
0001
1000
0010
0000
,
0100
0000
0001
0000
1000
0001
0100
0000
,
1000
0100
1000
0000
0001
0100
0001
0000
,
0010
0010
0010
1001
,
0001
0000
0001
0000
0010
0001
0100
0000
,
1000
0000
1000
0000
0010
1000
0100
0000
,
1000
0001
0100
0000
0001
1000
0100
0000
,
1001
0000
0000
0001
1000
0001
1000
0001
,
1000
0000
1001
0000
0010
0001
0100
0000
,
0001
0000
1001
0000
0010
1000
0100
0000
,
0010
0100
1000
0000
0010
0100
0001
0000
,
0010
0100
0010
0100
1000
0001
1000
0000
,
0001
0000
1001
0000
0010
1000
0100
0000
,
0010
0000
1001
0000
0010
0001
0100
0000
,
0001
1000
0100
0000
1000
0001
0100
0000
,
1001
0000
0000
0001
1000
0001
0010
0100
,
0020
0030
0002
0003
,
2000
3000
0001
1001
,
0010
0000
0000
0010
0000
0000
0010
0000
0100
0000
0000
0100
0000
0000
0100
0000
,
0001
0000
0000
0001
0000
0000
0001
0000
1000
0000
0000
0000
1001
0000
0000
0000
,
0020
0000
0032
0000
,
2003
0000
3200
0000
,
0320
0000
0032
0000
,
0023
0000
0100
0130
,
0000
0011
0000
1010
,
0000
0101
0000
1100
,
0000
0110
0000
1001
,
0220
0000
0000
0000
,
0330
0000
0000
0000
,
0000
0000
1001
0000
0001
0010
0100
0000
,
1000
0000
1000
0000
1000
0010
0100
0000
,
0001
0100
0001
0000
1000
0100
1000
0000
,
0010
0010
0010
1001
,
0001
0000
0001
0000
0010
0001
0100
0000
,
1000
0000
1000
0000
0010
1000
0100
0000
,
1000
0001
0100
0000
0001
1000
0100
0000
,
1001
0000
0000
0001
1000
0001
1000
0001
,
0100
0000
0101
0000
0010
0100
0001
0000
,
0100
0000
1100
0000
0010
0100
1000
0000
,
0010
0100
0010
0000
1000
0001
1000
0000
,
0001
0000
0010
0000
1000
0100
0001
0000
,
0100
0000
0010
0000
0001
1000
0100
0000
,
1000
0000
0010
0000
1000
0001
0010
0000
,
1001
0100
1010
0100
,
0011
0000
0000
1000
0001
1000
0001
1000
,
0200
0000
0000
0000
,
0000
0000
0000
0000
,
0300
0000
0000
0000
,
0000
0000
0000
0000
;
#NOTES:
     dance-single:
     :
     Hard:
     12:
     :
0000
0000
0000
0000
,
0000
0000
0000
0000
,
0000
0000
0000
0000
,
0000
0000
0000
0000
,
0000
0000
0000
0000
,
0000
0001
0000
0001
,
0000
1000
0000
1000
,
0010
1000
0100
0000
0010
0001
0100
0000
,
0010
1000
0100
0010
0001
0100
0010
0000
,
0200
0000
0300
1001
,
0001
0000
0011
0000
0001
0010
0100
0000
,
1000
0000
1010
0000
1000
0010
0100
0000
,
0001
0100
1000
0000
1000
0100
0001
0000
,
1000
0100
0010
0001
1000
0000
1001
0000
,
0010
0000
0011
0000
0001
0100
1000
0000
,
0100
0000
0101
0000
0100
0001
0010
0000
,
1000
0010
0100
0010
0001
0100
0010
0100
,
1000
0000
0000
1000
0100
0001
0010
0100
,
2000
0000
3000
1001
,
1000
0000
0000
0000
0100
0000
0000
0000
1000
0000
0000
0001
0000
0000
0010
0000
,
0001
0000
0000
0100
0000
0000
0001
0000
0001
0000
0000
0000
1001
0000
0000
0000
,
1000
0000
0000
0000
0100
0000
0000
0000
1000
0000
0001
1000
0000
0000
0001
0000
,
0010
0000
0000
0100
0000
0000
1000
0000
0001
0000
0000
0000
1001
0000
0000
0000
,
0010
0000
0000
0000
0001
0000
0000
0000
1000
0000
0001
0010
0000
0000
0100
0000
,
1000
0001
1000
0010
1000
0000
1001
0000
,
0100
0000
0000
0000
1000
0000
0000
0000
0001
0000
0000
0010
0000
0000
0100
0000
,
0020
0000
0030
1001
,
1000
0010
0100
0001
0010
0100
1000
0000
,
0001
0100
1000
0100
0001
0000
1001
0000
,
2000
3200
0320
0031
,
0011
1100
0101
1001
,
0001
0010
0100
0000
1000
0010
0100
0000
,
1100
0110
0202
0303
,
1001
0110
1001
0110
,
2002
0000
0000
0000
,
3003
0000
0000
1001
,
0010
1000
0100
0010
0001
0100
0001
0000
,
0100
0001
0010
0100
1000
0100
1000
0000
,
1000
0100
0001
0000
0001
0100
1000
0000
,
1000
0100
0010
0001
1000
0000
1001
0000
,
1000
0010
0100
0001
0010
0100
1000
0000
,
0001
0010
0100
1000
0010
0100
0001
0000
,
0001
0100
1000
0000
1000
0100
0001
0000
,
1000
0000
0000
0000
0000
0000
0001
1000
0001
0000
0010
0000
0001
0000
0100
0000
,
1000
0100
0001
1000
0100
0001
1000
0000
,
1000
0010
0001
0100
1000
0100
0001
0000
,
0010
1000
0100
0000
0010
0001
0100
0000
,
1000
0100
1000
0100
0001
0100
1000
0000
,
0100
0000
1001
0000
0001
0100
1000
0000
,
0100
0000
0101
0000
0100
0001
0010
0000
,
1000
0010
0100
0010
0001
0100
0010
0100
,
1000
0000
0000
1000
0100
0001
0010
0100
,
2000
0000
0000
0000
3000
0000
0100
1000
0002
0000
0000
0000
0003
0000
0100
0001
,
2000
0000
0000
0000
3000
0000
0100
1000
0002
0000
0003
0000
1001
0000
0000
0000
,
0010
0000
0000
1000
0000
0000
0001
0000
0010
0000
0000
0001
0000
0000
0100
0000
,
1000
0000
0000
0100
0000
0000
0001
0000
1000
0000
0000
0000
1001
0000
0000
0000
,
0002
0000
0203
0000
,
2300
0000
3200
0000
,
0302
0000
0023
0000
,
2030
0000
3020
0000
,
0031
0011
1000
1010
,
0001
0101
1000
1100
,
0010
1001
0010
1001
,
1000
0100
1000
0010
0100
0001
0010
0001
,
0200
0000
0000
0000
,
0300
0000
0000
0000
1001
0000
0000
0000
0001
0000
0100
0001
0000
0000
1000
0000
,
0100
0000
0000
0000
1000
0000
0100
0000
0010
0000
0100
1000
0000
0000
0001
0000
,
0100
0000
0000
0000
0001
0000
0010
0000
1000
0000
0000
0010
0000
0000
0001
0000
,
0001
0000
0000
0100
0000
0000
0010
0000
0010
0000
0000
0000
1001
0000
0000
0000
,
1000
0000
0000
0000
0100
0000
1000
0000
0010
0000
1000
0100
0000
0000
0010
0000
,
0001
0000
0000
0000
0010
0000
0001
0000
0100
0000
0001
0010
0000
0000
0100
0000
,
1000
0000
0000
0000
0010
0000
0100
0000
1000
0000
0000
0100
0000
0000
0001
0000
,
0010
0000
0000
0000
0000
0000
0001
1000
0001
0000
0100
0000
1000
0000
0100
0000
,
0001
0000
0010
0100
0010
0001
0100
0001
,
0010
0000
1000
0010
0001
0100
1000
0100
,
0010
0000
0000
0000
1000
0000
0100
0000
0001
0000
0000
0100
0000
0000
1000
0000
,
1000
0000
0000
0010
0000
0000
0001
0000
0001
0000
0000
0010
0000
0000
1000
0000
,
0100
0000
0001
0100
1000
0010
0001
0000
,
0110
0000
1000
0100
0001
0010
1000
0000
,
0010
0100
1000
0010
0100
0001
0010
0001
,
1000
0000
0000
0000
0000
0000
0010
1000
0001
0000
0100
0000
0001
0000
1000
0000
,
0020
0000
0000
0000
0030
0000
1000
0100
2000
0000
0000
0000
3000
0000
0001
0100
,
0002
0000
0000
0000
,
0003
0000
0000
0000
,
0000
0000
0000
0000
;
#NOTES:
     dance-double:
     :
     Easy:
     6:
     :
00000000
00000000
00000000
00000000
,
00000000
00000000
00000000
00000000
,
00000000
00000000
00000000
00000000
,
00000000
00000000
00000000
00000000
,
00000000
00000000
00000000
00000000
,
00000000
00000001
00000000
00000001
,
00000000
00001000
00000000
00001000
,
00000100
00000100
00000100
00000000
,
00010000
00010000
00010000
00000000
,
00022000
00000000
00033000
00011000
,
00000000
00100000
00000000
00100000
,
00000000
00010000
00000000
00010000
,
10000000
10000000
00010000
00010000
,
00100000
00100000
00100000
10010000
,
00000000
00010000
00000000
00010000
,
00000000
00001000
00000000
00001000
,
00000100
00000100
00000010
00000010
,
00001001
00000000
00000010
00000001
,
00002000
00000000
00003000
00001001
,
00000010
00000010
00001000
00001000
,
00010000
00010000
00010000
00000000
,
01000000
01000000
10000000
10000000
,
01000000
01000000
01000000
00000000
,
00100000
10000000
00010000
01000000
,
00010000
00010000
00010000
00000000
,
00001000
00000000
00000010
00000000
,
00002002
00000000
00003003
00001001
,
00000010
00000001
00000100
00001000
,
00010000
01000000
20000000
30000000
,
10000000
10000000
00010000
00010000
,
00100000
01000000
02200000
03300000
,
00010000
00000000
00010000
00000000
,
00001000
00000010
00000002
00000003
,
00000010
00000100
00001000
00000010
,
00002002
00000000
00000000
00000000
,
00003003
00000000
00000000
00001001
,
00000010
00000001
00000001
00000000
,
00000100
00001000
00001000
00000000
,
00010000
00010000
00100000
00100000
,
01000000
00010000
00010000
00011000
,
00001000
00000100
00000100
00000000
,
00000010
00000001
00000001
00000000
,
00002000
00000000
00000002
00003003
,
00001001
00000000
00000010
00000100
,
00001000
00000000
00010000
01000000
,
10000000
00000000
10000000
00100000
,
01000000
00010000
00100000
00100000
,
00010000
00010000
00010000
00001000
,
00001000
00000000
00000100
00000010
,
00000001
00000000
00000010
00000100
,
00010000
00000000
00000100
00001000
,
00001001
00000000
00001000
00000010
,
00000020
00000030
00000200
00000300
,
00000002
00000003
00001000
00001001
,
00000010
00000000
00001000
00000000
,
01000000
00000000
10000000
10010000
,
20000000
00000000
30020000
00000000
,
00230000
00000000
00320000
00000000
,
00230000
00000000
00302000
00000000
,
00023000
00000000
00031000
00011000
,
00000000
00001000
00000000
00000100
,
00000000
00000010
00000000
00000001
,
00000000
00000100
00000000
00001001
,
00000220
00000000
00000000
00000000
,
00000330
00000000
00000000
00000000
,
00000000
00011000
00100000
10000000
,
10000000
00000000
01000000
00010000
,
00010000
00000000
00010000
00010000
,
00001000
00001000
00000010
00000001
,
00001001
00000000
00000100
00001000
,
00001000
00000000
00010000
00100000
,
00100000
00000000
10000000
00010000
,
10000000
00000000
00100000
00100000
,
10010000
00000000
01000000
10000000
,
01000000
00000000
00010000
00100000
,
00010000
00000000
00001000
00010000
,
00001000
00001000
00000100
00000001
,
00000010
00000010
00001001
00000000
,
00000100
00001000
00011000
00000000
,
00100000
00100000
01000000
01000000
,
20020000
30030000
01000000
00100000
,
02000000
00000000
00000000
00000000
,
00000000
00000000
00000000
00000000
,
03000000
00000000
00000000
00000000
,
00000000
00000000
00000000
00000000
;
#NOTES:
     dance-double:
     :
     Medium:
     9:
     :
00000000
00000000
00000000
00000000
,
00000000
00000000
00000000
00000000
,
00000000
00000000
00000000
00000000
,
00000000
00000000
00000000
00000000
,
00000000
00000000
00000000
00000000
,
00000000
00000001
00000000
00000001
,
00000000
00000010
00000000
00000010
,
00001000
00000000
00001000
00000000
00010000
00001000
00010000
00000000
,
00001000
00000000
00001000
00000000
00010000
00100000
01000000
00000000
,
00200000
00000000
00300000
10010000
,
00100000
00000000
00100000
00000000
10000000
00100000
10000000
00000000
,
01000000
00000000
01000000
00000000
10000000
00010000
01000000
00000000
,
00100000
00010000
00100000
00000000
00010000
00001000
00000100
00000000
,
00000010
00000010
00000010
00000110
,
00000001
00000000
00001001
00000000
00000001
00000100
00001000
00000000
,
00010000
00000000
00011000
00000000
00010000
01000000
10000000
00000000
,
01000000
00000000
00010000
00000000
01000000
00000000
00100000
00010000
,
01000000
00000000
10010000
00000000
00100000
00010000
10000000
00100000
,
02000000
00000000
03000000
10010000
,
00100000
00010000
00001000
00000010
,
00000100
00000000
00001000
00000100
00000010
00000000
00001001
00000000
,
00000010
00000000
00000100
00000000
00001000
00010000
00100000
00000000
,
01000000
01000000
01000000
01100000
,
00010000
00000000
00010000
00000000
01000000
00100000
10000000
00000000
,
00100000
00000000
01000000
00010000
00100000
00000000
00010000
00000000
,
00011000
00000000
00001100
00000000
,
00000022
00000000
00000033
00001001
,
00000010
00000000
00000001
00000000
00001000
00000010
00001000
00000000
,
00011000
01010000
22000000
33000000
,
01000000
00100000
01000000
00010000
,
00001000
00000100
00000220
00000330
,
00001000
00000001
00001000
00000000
00000001
00000100
00001000
00000000
,
00011000
01001000
00022000
00033000
,
01000000
00010000
00001000
00000100
,
00022000
00000000
00000000
00000000
,
00033000
00000000
00000000
10010000
,
00100000
00000000
00100000
00000000
10000000
00100000
10000000
00000000
,
01000000
00000000
01000000
00000000
10000000
00010000
01000000
00000000
,
00100000
00010000
00100000
00000000
00010000
00001000
00000100
00000000
,
00000010
00000010
00000010
00000110
,
00000001
00000000
00001001
00000000
00000001
00000100
00001000
00000000
,
00010000
00000000
00011000
00000000
00010000
01000000
10000000
00000000
,
00100000
01000000
00010000
00000000
00100000
00001000
00010000
00000000
,
00011000
00000000
00000000
00001000
00000100
00001000
00000100
00001000
,
00000100
00000000
00000001
00000000
00000001
00001000
00000100
00000000
,
00010000
00001000
00010000
00000000
00110000
00000000
00110000
00000000
,
10000000
00010000
00100000
00000000
00010000
10000000
00100000
00000000
,
10000000
01000000
10000000
01000000
00010000
01000000
00010000
00000000
,
00001000
00000000
00011000
00000000
00001000
00000100
00000001
00000000
,
00000001
00000000
00001001
00000000
00000001
00000100
00001000
00000000
,
00010000
00001000
00010000
00000000
00010000
01000000
10000000
00000000
,
10010000
00000000
00000000
00100000
10000000
00010000
01000000
00100000
,
02000000
03000000
00020000
00030000
,
20000000
30000000
00010000
10010000
,
00100000
00000000
00000000
00100000
00000000
00000000
00100000
00000000
00010000
00000000
00000000
00010000
00000000
00000000
00010000
00000000
,
00001000
00000000
00000000
00001000
00000000
00000000
00001000
00000000
00000100
00000000
00000000
00000000
00001001
00000000
00000000
00000000
,
00000002
00000000
00000023
00000000
,
00000230
00000000
00002300
00000000
,
00003200
00000000
00020300
00000000
,
00032000
00000000
00013000
00011000
,
00000000
00110000
00000000
10100000
,
00000000
11000000
00000000
01010000
,
00000000
00011000
00000000
00001100
,
00002002
00000000
00000000
00000000
,
00003003
00000000
00000000
00000000
,
00000000
00000000
00011000
00000000
00001000
00000010
00000100
00000000
,
00000010
00000000
00000001
00000000
00000001
00000100
00001000
00000000
,
00001000
00010000
00001000
00000000
00010000
00001000
00010000
00000000
,
00001000
00001000
00001000
00011000
,
00010000
00000000
00001000
00000000
00010000
01000000
10000000
00000000
,
00010000
00000000
10000000
00000000
00100000
10000000
01000000
00000000
,
00100000
00010000
01000000
00000000
00001000
00010000
00001000
00000000
,
00011000
00000000
00000000
00001000
00010000
00001000
00010000
00001000
,
00010000
00000000
00001000
00000000
00000010
00000100
00000010
00000000
,
00000001
00000000
00000001
00000000
00000100
00000010
00000100
00000000
,
00001000
00001000
00010000
00010000
,
00001000
00010000
00001000
00000000
00010000
01000000
10000000
00000000
,
10010000
00000000
00100000
00000000
00010000
10000000
01000000
00000000
,
10010000
00000000
00100000
00000000
01000000
10000000
01000000
00000000
,
01010000
00000000
00011000
00000000
,
00001010
00000000
00000000
00000010
00000100
00000010
00000100
00000010
,
00000200
00000000
00000000
00000000
,
00000000
00000000
00000000
00000000
,
00000300
00000000
00000000
00000000
,
00000000
00000000
00000000
00000000
;
#NOTES:
     dance-double:
     :
     Hard:
     12:
     :
00000000
00000000
00000000
00000000
,
00000000
00000000
00000000
00000000
,
00000000
00000000
00000000
00000000
,
00000000
00000000
00000000
00000000
,
00000000
00000000
00000000
00000000
,
00000000
00000001
00000000
00000001
,
00000000
00000100
00000000
00000100
,
00001000
00000000
00001000
00000000
01000000
00010000
10000000
00000000
,
00100000
10000000
01000000
00100000
00001000
00010000
01000000
00000000
,
20000000
00000000
30000000
10010000
,
00010000
00000000
00010000
00000000
00010000
01000000
10000000
00000000
,
10000000
00000000
10000000
00000000
10000000
01000000
00010000
00000000
,
00100000
00001000
00010000
00000000
00001000
00010000
00000100
00000000
,
00000010
00000001
00001000
00000100
00000010
00000000
00000110
00000000
,
00001000
00000000
00011000
00000000
00010000
00100000
10000000
00000000
,
00010000
00000000
00011000
00000000
00001000
00000010
00000001
00000000
,
00000010
00000100
00001000
00000010
00000100
00001000
00010000
01000000
,
10000000
00000000
00000000
01000000
00010000
01000000
10000000
00100000
,
00020000
00000000
00030000
00011000
,
00001000
00000000
00000000
00000000
00000100
00000000
00000000
00000000
00000001
00000000
00000000
00000010
00000000
00000000
00000001
00000000
,
00000010
00000000
00000000
00000100
00000000
00000000
00001000
00000000
00001000
00000000
00000000
00000000
00011000
00000000
00000000
00000000
,
00010000
00000000
00000000
00000000
01000000
00000000
00000000
00000000
10000000
00000000
00100000
10000000
00000000
00000000
01000000
00000000
,
00010000
00000000
00000000
01000000
00000000
00000000
10000000
00000000
10000000
00000000
00000000
00000000
11000000
00000000
00000000
00000000
,
00100000
00000000
00000000
00000000
00010000
00000000
00000000
00000000
01000000
00000000
00001000
00010000
00000000
00000000
00000100
00000000
,
00000010
00000001
00000010
00000100
00000010
00000000
00000011
00000000
,
00000101
00000000
00001100
00000000
,
00022000
00000000
00033000
00011000
,
00010000
01000000
00100000
01000000
10000000
01000000
00010000
00000000
,
00001000
00010000
00001000
00010000
00001000
00000000
00011000
00000000
,
00020000
01000000
00032000
00000100
,
00013000
00001000
00000100
00000110
,
00000100
00001000
00010000
00001000
00010000
00100000
10000000
00000000
,
10000000
01000000
10000000
01000000
00020000
00000000
00030000
00000000
,
01010000
00011000
00001100
00011000
,
00022000
00000000
00000000
00000000
,
00033000
00000000
00000000
10010000
,
00100000
10000000
01000000
00010000
00001000
00000100
00000001
00000000
,
00000010
00000001
00000100
00001000
00010000
01000000
10000000
00000000
,
10000000
01000000
00010000
00000000
00001000
00000010
00000001
00000000
,
00000001
00000100
00001000
00010000
00001000
00000000
00011000
00000000
,
00000010
00001000
00000100
00000010
00000100
00010000
00001000
00000000
,
00001000
00100000
01000000
00100000
10000000
00100000
00010000
00000000
,
00010000
01000000
00100000
00000000
00010000
00001000
00010000
00000000
,
00001000
00000000
00000000
00000000
00000000
00000000
00010000
00001000
00010000
00000000
00001000
00000000
00000010
00000000
00000001
00000000
,
00001000
00000010
00000001
00000010
00001000
00010000
01000000
00000000
,
10000000
01000000
00010000
00100000
10000000
00100000
00010000
00000000
,
00010000
10000000
00010000
00000000
00100000
00001000
00100000
00000000
,
00001000
00010000
00001000
00010000
00001000
00000100
00000001
00000010
,
00000001
00000000
00000101
00000000
00000001
00000100
00001000
00000000
,
00010000
00000000
01010000
00000000
00010000
01000000
10000000
00000000
,
01000000
10000000
00100000
10000000
01000000
00100000
00010000
00000010
,
00000001
00000000
00000000
00000010
00000100
00010000
00001000
00000100
,
00000020
00000000
00000000
00000000
00000030
00000000
00000100
00000001
00000200
00000000
00000000
00000000
00000300
00000000
00000001
00000100
,
00000002
00000000
00000000
00000000
00000003
00000000
00000010
00000001
00000020
00000000
00000030
00000000
00001001
00000000
00000000
00000000
,
00000010
00000000
00000000
00001000
00000000
00000000
00000100
00000000
00010000
00000000
00000000
00001000
00000000
00000000
00010000
00000000
,
01000000
00000000
00000000
10000000
00000000
00000000
01000000
00000000
10000000
00000000
00000000
00000000
10010000
00000000
00000000
00000000
,
20000000
00000000
30200000
00000000
,
00320000
00000000
00032000
00000000
,
00003200
00000000
00000302
00000000
,
00000023
00000000
00002030
00013000
,
00001000
00110000
10000000
10100000
,
01000000
11000000
00010000
01010000
,
00011000
00001100
00000101
00001001
,
00000010
00000100
00000010
00000100
00001000
00010000
00001000
00010000
,
00002000
00000000
00000000
00000000
,
00003000
00000000
00000000
00000000
00011000
00000000
00000000
00000000
00010000
00000000
00100000
00010000
00000000
00000000
00100000
00000000
,
01000000
00000000
00000000
00000000
10000000
00000000
01000000
00000000
00100000
00000000
01000000
10000000
00000000
00000000
01000000
00000000
,
00010000
00000000
00000000
00000000
00001000
00000000
00000100
00000000
00000001
00000000
00000000
00000001
00000000
00000000
00000010
00000000
,
00000001
00000000
00000000
00000001
00000000
00000000
00000100
00000000
00000010
00000000
00000000
00000000
00000001
00000000
00000000
00000000
,
00000100
00000000
00000000
00000000
00001000
00000000
00010000
00000000
00001000
00000000
00010000
00001000
00000000
00000000
00000100
00000000
,
00000001
00000000
00000000
00000000
00000010
00000000
00000001
00000000
00000100
00000000
00001000
00000100
00000000
00000000
00000001
00000000
,
00000010
00000000
00000000
00000000
00000100
00000000
00001000
00000000
00000010
00000000
00000000
00010000
00000000
00000000
00001000
00000000
,
00010000
00000000
00000000
00000000
00000000
00000000
00001000
00010000
00001000
00000000
00010000
00000000
01000000
00000000
10000000
00000000
,
00100000
00000000
00100000
10000000
01000000
00010000
00001000
00000100
,
00000001
00000000
00000010
00000001
00000100
00001000
00010000
01000000
,
10000000
00000000
10010000
00000000
00100000
00010000
00001000
00000000
,
00010000
00001000
00100000
00001000
00010000
01000000
10000000
00010000
,
10000000
00000000
11000000
00000000
10000000
01000000
00010000
00000000
,
00001000
00000000
00001100
00000000
00001000
00000100
00000001
00000000
,
00000100
00000001
00000010
00000001
00000100
00000010
00001000
00100000
,
10000000
00000000
00000000
00100000
01000000
00001000
00010000
01000000
,
00200000
00000000
00000000
00000000
00300000
00000000
01000000
00100000
02000000
00000000
00000000
00000000
03000000
00000000
10000000
01000000
,
00200000
00000000
00000000
00000000
,
00300000
00000000
00000000
00000000
,
00000000
00000000
00000000
00000000
;
