
//----- song ID: aftm -----//
#TITLE:Aftermath;
#ARTIST:BEMANI Sound Team "猫叉Master & あさき & Yvya";
#ARTISTTRANSLIT:BEMANI Sound Team "Nekomata Master & Asaki & Yvya";
#BANNER:Aftermath.png;
#BACKGROUND:Aftermath-bg.png;
#CDTITLE:./CDTitles/DDR A20 PLUS.png;
#MUSIC:Aftermath.ogg;
#SAMPLESTART:80.402;
#SAMPLELENGTH:15;
#BPMS:0=200;
#NOTES:
     dance-single:
     :
     Beginner:
     5:
     :
0000
0000
0000
0000
,
0000
0000
0000
0000
,
0000
0000
0000
0000
,
0000
0000
0000
0000
,
0000
0000
0000
0000
,
0002
0000
0000
0000
,
0000
0003
0000
0000
,
2000
0000
0000
0000
,
0000
3000
0000
0000
,
0010
0000
0000
0000
,
0010
0000
0000
0000
,
1000
0000
0100
0000
,
1000
0000
0000
0000
,
0100
0000
0000
0000
,
0010
0000
0000
0000
,
0001
0000
0000
0000
,
0000
0000
0000
0000
,
0100
0000
0000
0000
,
0100
0000
0000
0000
,
0001
0000
0010
0000
,
0001
0000
0000
0000
,
0100
0000
0000
0000
,
0010
0000
0000
0000
,
1000
0000
0000
0000
,
0000
0000
0000
0000
,
1001
0000
0000
0000
,
0000
0000
0000
0000
,
0000
0000
0000
0000
,
0000
0000
0000
0000
,
0001
0000
0000
0000
,
0010
0000
0000
0000
,
0010
0000
0000
0000
,
0000
0000
0000
0000
,
0100
0000
0000
0000
,
1000
0000
0000
0000
,
1000
0000
0000
0000
,
0000
0000
0000
0000
,
1000
0000
0000
0000
,
0010
0000
0000
0000
,
0010
0000
0000
0000
,
0000
0000
0000
0000
,
0100
0000
0000
0000
,
0001
0000
0000
0000
,
0010
0000
0001
0000
,
0010
0010
0001
0000
,
0001
0000
0000
0000
,
1001
0000
0000
0000
,
0100
0000
0001
0000
,
0100
0000
1000
0000
,
1001
0000
0000
0000
,
0000
0000
0000
0000
,
1000
0000
0100
0000
,
0010
0010
1000
0000
,
1000
0000
0000
0000
,
1001
0000
0000
0000
,
0001
0000
0001
0000
,
0010
0000
1000
0000
,
1001
0000
0000
0000
,
0000
0000
0000
0000
,
0220
0000
0000
0000
,
0000
0000
0000
0000
,
0330
0000
0000
0000
,
0000
0000
0000
0000
,
1000
0000
0100
0000
,
0010
0000
0001
0000
,
0100
0000
0010
0000
,
1000
0000
0000
0000
,
1000
0000
0100
0000
,
0010
0010
1000
0000
,
0010
0000
0001
0000
,
0010
0000
0000
0000
,
0110
0000
0000
0000
,
0000
0000
0000
0000
,
1001
0000
0000
0000
,
0000
0000
0000
0000
,
0001
0000
0100
0000
,
0010
0010
0001
0000
,
0010
0000
1000
0000
,
0010
0000
0000
0000
,
1000
0000
0010
0000
,
0100
0100
1000
0000
,
0100
0000
0001
0000
,
0100
0000
0000
0000
,
0110
0000
0000
0000
,
0000
0000
0000
0000
,
1001
0000
0000
0000
,
0000
0000
0000
0000
,
0001
0000
0010
0000
,
0100
0100
0001
0000
,
0100
0000
1000
0000
,
0100
0000
0000
0000
,
1000
0000
1000
0000
,
0100
0000
0100
0000
,
0010
0001
0010
0000
,
0001
0000
0000
0000
,
1001
0000
0000
0000
,
0000
0000
0000
0000
,
1001
0000
0000
0000
,
0000
0000
0000
0000
,
0001
0001
0100
0000
,
0001
0001
0010
0000
,
0100
0000
0001
0000
,
0100
0000
1000
0000
,
1000
1000
0100
0000
,
1000
1000
0010
0000
,
1000
0000
0100
0000
,
0001
0000
0100
0000
,
0110
0000
0000
0000
,
0000
0000
0000
0000
;
#NOTES:
     dance-single:
     :
     Easy:
     9:
     :
0000
0000
0000
0000
,
0000
0000
0000
0000
,
0000
0000
0000
0000
,
0000
0000
0000
0000
,
0000
0000
0000
0000
,
0002
0000
0000
0000
,
0000
0000
0000
0003
,
2000
0000
0000
0000
,
0000
0000
3000
0000
,
1000
0000
0010
0000
,
1000
0100
1000
0000
,
0001
0000
0010
0000
,
0100
0010
0100
0000
,
1000
0000
0010
0000
,
0100
0001
0100
0000
,
0001
0010
0001
0000
,
1000
0010
1000
0100
,
2000
0000
0010
0000
,
0001
0000
3001
0000
,
0001
0010
0100
1000
,
0001
0100
0010
1000
,
0002
0000
0010
0000
,
1000
0000
1003
0000
,
1000
0100
0010
0001
,
1000
0010
0100
0001
,
2000
0000
0000
0000
,
0000
0000
0000
3000
,
0002
0000
0000
0000
,
0003
0000
1001
0000
,
0001
0100
0010
0000
,
1000
0010
0100
0000
,
0001
1000
0001
1000
,
0100
0010
0001
0000
,
1000
0010
0100
0000
,
0010
0100
0001
0000
,
1000
0001
1000
0001
,
0100
0010
1000
0000
,
0100
0010
0001
0000
,
0100
0010
1000
0000
,
0010
0100
0001
0010
,
0100
1000
0010
0000
,
1000
0100
0001
0100
,
1000
0100
0010
0000
,
0001
0000
0100
0000
0001
0100
0001
0000
,
1000
0010
1000
0000
0010
1000
0010
0000
,
1000
1000
0100
0100
,
0010
0001
0010
0001
0100
0000
0000
0000
,
0001
0000
0010
0000
0001
0010
0001
0000
,
1000
0100
1000
0000
0100
1000
0100
0000
,
1000
1000
0010
0010
,
0100
0010
0100
0000
1001
0000
0000
0000
,
1000
0100
0001
0100
,
1000
0100
1000
0000
0001
0010
0001
0000
,
1000
0100
0001
0100
,
1000
0000
0100
0000
0010
0001
0010
0000
,
0001
0100
0010
1000
,
0100
0010
0001
0100
,
0010
1000
0100
0000
0010
0001
0100
0000
,
0001
1000
0001
1000
0001
0000
0000
0000
,
0220
0000
0000
0000
,
0000
0000
0000
0000
,
0000
0000
0000
0000
,
0000
0000
0330
0000
,
2002
0000
0000
0000
,
0000
0000
0000
0000
,
0000
0000
0000
0000
,
0000
0000
0000
3003
,
0001
0100
0010
0110
,
0000
0000
0010
1000
0010
0000
1000
0000
,
0100
0010
0001
1000
,
0000
0000
1001
0000
0000
0000
1000
0001
,
1000
0100
0010
0001
,
0000
1001
0000
0110
,
0000
2002
0000
0000
,
3003
0000
0001
0100
,
0010
1000
0010
0000
0100
0000
0000
0000
,
0001
0010
0001
0000
1000
0000
0000
0000
,
0100
0010
0100
0010
,
0001
0000
1000
0000
0001
1000
0001
0000
,
1000
0100
0010
0110
,
0000
0001
0010
0001
,
0100
0010
1000
0000
0001
0000
1000
0000
,
0000
1001
0000
1000
,
0001
0100
0010
0000
1000
0000
0001
0000
,
0000
1001
0000
0110
,
0000
2002
0000
0000
,
3003
0000
1000
0100
,
0010
0001
0010
0000
0100
0000
0000
0000
,
1000
0010
1000
0000
0001
0000
0000
0000
,
0100
0010
0100
0010
,
1000
0000
0001
0000
1000
0001
1000
0000
,
0010
0000
1000
0000
0001
0000
1000
0001
,
0000
0010
0100
1000
,
0001
0000
0100
0000
0010
0000
0100
0010
,
0000
0100
0010
0010
,
0100
0000
0001
0000
1000
0000
0010
1000
,
0000
0100
0010
0001
,
1000
0000
0010
0000
0100
0000
0001
0100
,
0000
0001
1000
0001
,
0010
0000
0001
0000
0100
0001
0000
0100
,
0000
0010
1010
0000
,
1000
0000
0100
0000
0010
0001
0000
0010
,
0000
0001
0101
0000
,
0001
0000
1000
0000
0010
0100
0000
0010
,
0000
1000
0101
0000
,
0010
0000
0001
0000
0100
0010
1000
0000
,
0010
1000
0100
0000
1000
0001
1000
0001
,
0000
0000
0000
0000
;
#NOTES:
     dance-single:
     :
     Medium:
     12:
     :
0000
0000
0000
0000
,
0000
0000
0000
0000
,
0000
0000
0000
0000
,
0000
0000
0000
0000
,
0000
0000
0000
0000
,
2002
0000
0000
0000
,
0000
0000
0000
3003
,
1000
0010
1000
0001
0010
0001
1000
0001
,
0000
0100
0100
0000
0000
0000
0000
0000
,
1001
0000
0000
0001
0100
0000
0001
0010
,
0000
0000
0000
0001
0000
0000
1000
0000
0010
0000
1000
0000
,
0020
0000
0000
2030
0000
0000
3001
0000
,
0000
0001
0100
0000
0010
0000
0010
0000
,
1000
0100
1000
0100
1000
0000
0001
0100
,
0001
0100
0001
0000
1000
0001
1000
0000
,
0010
0000
1000
0100
0000
0010
0001
0000
,
1000
0100
1000
0100
0010
0001
0010
0001
,
0020
0000
0000
0000
1000
0000
0000
0031
,
0010
0001
0010
0001
0100
0010
0100
0010
,
1000
0000
0100
1000
0000
0000
0001
0000
0100
0001
0000
0000
,
1000
0000
0010
1000
0000
0000
0001
0000
0010
0001
0000
0000
,
2000
0000
0000
3002
0000
0000
0203
0000
,
0000
1000
0301
0000
,
0010
0011
0000
0001
1000
0000
0010
1010
,
0000
1000
0001
0000
0100
0010
0100
0000
,
0220
0000
0000
0000
,
0000
0000
0330
0000
,
0010
1000
0000
0010
1000
0000
0100
0010
,
0000
0100
0010
0001
0010
0000
0000
0000
,
0002
0000
0000
0000
1003
0000
0010
0100
,
0000
0010
0100
0000
0001
0000
0000
0000
,
2000
0000
0000
0000
3001
0000
0100
0010
,
0000
0100
0010
0000
1000
0000
0000
0000
,
0200
0000
0000
0000
0301
0000
0100
1000
,
0000
0100
1000
0000
0001
0000
0000
0000
,
0200
0000
0000
0000
1300
0000
0100
0001
,
0000
0100
0001
0000
1000
0000
0000
0000
,
0010
1000
1010
0001
,
0010
0001
0011
0100
,
0001
1000
1001
0010
,
0100
0010
1001
0001
,
1000
0100
1000
0000
0001
0100
0001
0010
,
0000
0100
0010
0001
1000
0001
1000
0000
,
0002
0100
1003
0000
2000
0100
3001
0000
,
0100
0001
1000
0010
0100
0001
0100
0000
,
0002
0010
1000
0103
,
2000
0010
0001
3100
,
0002
0010
1003
0000
2000
0010
3001
0000
,
0010
0001
1000
0100
0010
0100
1000
0000
,
0200
1000
0001
1300
,
0020
1000
0031
0000
,
0001
0100
0001
0000
0010
0000
0100
0000
,
1000
0001
1000
0001
1000
0000
0000
0000
,
1000
0100
1000
0000
0010
0000
0100
0000
,
0001
1000
0001
1000
0001
0000
0000
0000
,
0001
0000
0010
0000
1000
0010
0001
0000
,
1000
0000
0100
0000
0001
0100
1000
0000
,
0001
0010
0001
0010
0100
1000
0100
0000
,
1000
0010
1000
0010
0100
0001
0100
0000
,
2002
0000
0000
0000
,
0000
0000
0000
0000
,
0000
0000
0000
0000
,
0000
0000
0000
3003
,
0001
0010
0000
0010
0000
0000
1000
0010
,
0000
0010
0000
0000
0001
1000
0001
0000
,
1000
0010
0100
0000
0010
0100
0001
0000
,
1000
0010
0100
0010
0100
0001
1000
0000
,
0002
0000
0100
0010
,
0000
0010
1003
0001
,
0100
1000
0100
0001
,
0000
0001
1000
0001
,
1000
0100
0001
0100
,
0000
2000
0000
3020
,
0000
0200
0000
0000
,
0330
0000
0100
0010
,
1000
0001
1000
0000
0001
0010
0001
0000
,
0100
0010
0100
0000
0010
1000
0001
0000
,
1000
0100
1000
0010
0100
0001
0100
0000
,
0001
0010
0100
1000
0010
0100
0001
0000
,
1000
0010
0000
0100
0010
0000
0100
0001
,
0000
1000
0001
0000
1001
0000
0000
0000
,
0001
0010
0000
0100
0010
0000
0100
1000
,
0000
0001
1000
0000
1001
0000
0000
0000
,
1000
0010
0000
0100
0001
0000
0010
0001
,
0000
1000
0100
0000
0110
0000
0000
0000
,
0001
0100
0000
0010
1000
0000
0100
1000
,
0000
0001
0010
0000
0110
0000
0000
0000
,
0001
1000
0100
1000
0010
0100
0001
0000
,
0100
0001
0010
0100
0010
0001
1000
0000
,
0010
1000
0100
0000
0010
0001
0100
0000
,
0010
1000
0010
0100
0001
0100
0010
0000
,
0200
0010
0301
0000
0002
0000
0100
1003
,
0000
1000
0100
0000
1100
0000
0011
0000
,
2000
0001
3010
0000
0020
0000
1000
0130
,
0000
0100
0001
0000
0011
0000
1100
0000
,
0200
1000
0310
0000
0020
0000
0001
0130
,
0000
0100
1000
0000
1010
0000
0101
0000
,
0200
0001
0310
0000
0020
0100
1030
0000
,
0100
1000
0010
0100
0001
0010
0001
0000
,
0010
0100
1000
0010
0001
0010
1000
0001
,
0100
0010
1000
0100
0010
0001
0100
0000
,
0010
1000
0010
0001
0010
1000
0001
0100
,
0010
1000
0100
0010
0001
1000
0001
0000
,
1000
0010
0100
0010
0001
0010
0100
0010
,
1000
0001
0100
0010
1000
0100
0010
0000
,
0001
0010
0100
0010
1000
0010
0100
0010
,
0001
0100
0010
1000
0001
1000
0001
1000
,
0000
0000
0000
0000
;
#NOTES:
     dance-single:
     :
     Hard:
     16:
     :
0000
0000
0000
0000
,
0000
0000
0000
0000
,
0000
0000
0000
0000
,
0000
0000
0000
0000
,
0000
0000
0000
0000
,
2002
0000
0000
0000
,
0000
0000
0000
3003
,
1000
0000
0001
0010
0001
0000
1000
0000
0001
0010
0001
0000
1000
0000
0100
0000
,
0000
0100
0110
0000
0000
0000
0000
0000
,
0001
0100
0000
0001
0100
0000
0010
1000
,
0000
0000
0000
0010
0000
0000
1000
0000
0000
0000
0000
0000
1000
0000
0000
0000
0100
0000
0000
0000
0001
0000
0000
0000
,
0200
0000
0000
0320
0000
0000
0032
0000
,
0000
0103
0010
0100
1000
0100
0010
0100
,
0002
0000
0000
0000
0000
0000
2003
0000
0000
0000
3100
0010
0100
0000
1000
0000
,
0001
0010
0100
1000
0000
1000
0010
0100
,
0001
0010
0001
0100
0000
0010
1000
0001
,
1000
0100
0010
0001
1000
0010
0100
0001
,
1000
0100
0000
1000
0100
0000
0010
0001
,
0100
0001
0010
0100
1000
0001
0010
0100
,
1000
0010
1000
0100
1000
0100
1000
0010
1000
0100
1000
0100
,
0010
0001
0010
0001
0100
0001
0010
0001
0010
0001
0100
0001
,
0200
0000
0000
0310
0000
0010
2000
0000
,
0000
0000
0000
0000
3000
0001
0010
0001
,
0100
0000
0010
1000
0010
0000
0100
0000
0001
0000
1000
0000
0100
0000
0010
0001
,
0010
0100
0010
0100
1000
0001
1000
0001
,
2002
0000
0000
0000
,
0000
0000
0000
0000
,
0000
0000
0000
0000
,
0000
0000
3003
0000
,
1000
0000
0001
0100
0001
0000
0010
0001
,
0000
1000
0100
1000
0100
0010
0000
0000
,
0001
0000
1000
0010
1000
0000
0100
1000
,
0000
0001
0010
0001
0010
0100
0000
0000
,
1000
0000
0001
0100
0010
0000
0100
0001
,
0000
1000
0001
0010
0100
1000
0000
0000
,
0010
0000
0100
0001
0010
0000
0100
0010
,
0000
0001
1000
0001
1000
0010
0100
0000
,
0002
0100
0203
0010
,
0320
1000
2030
0001
,
3001
0100
0001
0100
0010
1000
0010
1000
,
0000
1000
0100
0010
0001
1000
0001
0000
,
1000
0100
1000
0100
0010
0001
0010
0001
,
0000
0001
0100
0010
1000
0001
1000
0000
,
0010
1000
1000
0100
1000
1000
0010
1000
,
1000
0100
1000
0010
0100
0001
0010
0001
,
0100
1000
0100
1000
0001
0010
0001
0010
,
1000
0100
0010
0001
0100
0010
1000
0010
,
0100
0001
0001
0010
0001
0001
0100
0001
,
0001
0010
0001
0100
0010
1000
0010
1000
,
0100
0001
1000
0010
0001
0100
1000
0001
,
0010
0000
1000
0000
0001
0000
0100
0000
1000
0000
0100
0000
0001
1000
0001
1000
,
0001
0100
0001
0010
0100
1000
0010
0100
,
0001
0000
0010
0000
0001
0000
1000
0000
0100
0010
0100
0010
0100
0000
0000
0000
,
1000
0010
0100
1000
0001
0010
0100
0001
,
1000
0000
0100
0000
0001
0000
0100
0000
1000
0100
1000
0001
1000
0000
0000
0000
,
1000
0001
0010
0010
0100
1000
0010
0010
,
1000
0000
0001
0100
0001
0000
1000
0100
1000
0000
0001
0100
0001
0000
0000
0000
,
1000
0100
1000
0100
1000
0100
0010
0001
0010
0001
0010
0001
,
0100
0001
0100
0000
0010
1000
0010
0000
1000
0000
0100
0000
0010
0000
0000
0000
,
2002
0000
0000
0000
,
0000
0000
0000
0000
,
0000
0000
0000
0000
,
0000
0000
0000
3003
,
0011
0011
0000
0000
0000
0000
1010
1010
,
0000
0000
0000
0000
1000
0001
1001
0000
,
1000
0000
0010
1000
0010
0000
1000
0100
1000
0000
0001
0100
0001
0000
0010
0000
,
0001
0100
0010
0100
0010
1000
0100
1000
0001
0100
0001
0010
,
0001
0100
1000
0100
0001
0000
1000
0010
,
0000
0000
1010
0000
0000
0000
1000
0100
0010
0000
0001
0000
1000
0000
0000
0000
,
0001
0100
0010
0100
0001
0000
0010
0100
,
0000
0000
0110
0000
0000
0000
0100
1000
0001
0000
0100
0001
0010
0000
0000
0000
,
0001
0010
1000
0010
0001
0000
0100
0010
,
0000
0000
0110
0000
0000
0000
1000
0010
0100
0000
0001
1000
0010
0000
0000
0000
,
0100
0001
0100
0000
0100
0010
0100
0000
,
0010
1000
0010
0000
0010
0100
0010
0000
,
1000
0100
0010
0001
0100
0001
0100
0001
,
0010
0100
1000
0010
0100
0001
0100
0001
,
1000
0100
0010
0001
0100
0010
1000
0100
,
0001
0100
1000
0010
0100
0001
0100
1000
,
0100
0010
0001
0010
1000
0000
0001
0100
,
0000
0000
0101
0000
0000
0000
0001
0010
0100
0000
1000
0000
0001
0000
0000
0000
,
1000
0010
0100
0010
1000
0000
0100
0010
,
0000
0000
0110
0000
0000
0000
0010
0001
1000
0000
0010
1000
0100
0000
0000
0000
,
1000
0100
0001
0100
1000
0000
0010
0100
,
0000
0000
0110
0000
0000
0000
0001
0100
0010
0000
1000
0001
0100
0000
0000
0000
,
0010
1000
0010
0000
0010
0100
0010
0000
,
0100
0001
0100
0000
0100
0010
0100
0000
,
0001
0010
0100
1000
0010
1000
0010
1000
,
0100
0010
0001
0100
0010
1000
0010
1000
,
0001
0010
0100
1000
0010
0100
0001
0010
,
1000
0010
0001
0100
0010
1000
0010
0001
,
0010
0000
1000
0100
0010
0000
0001
0000
0100
0010
1000
0000
0001
0000
1000
0000
,
0000
0000
0001
0000
1000
0000
0000
0000
0100
1000
0100
0010
0100
0000
0000
0000
,
1000
0000
0001
0100
0010
0000
1000
0000
0100
0010
0001
0000
1000
0000
0001
0000
,
0000
0000
0100
0000
0001
0000
0000
0000
0010
0100
0010
0001
0010
0000
0000
0000
,
0001
0000
1000
0010
0100
0000
0001
0000
0010
0001
1000
0000
0010
0000
0100
0000
,
0000
0000
0010
0000
1000
0000
0000
0000
0100
1000
0100
0010
0001
0000
0000
0000
,
1000
0000
0001
0100
0010
0000
1000
0000
0100
1000
0001
0000
0100
0000
0010
0000
,
0000
0000
0100
0000
0001
0000
0000
0000
0010
0001
0010
0100
1000
0000
0000
0000
,
0001
0000
1000
0010
0100
0000
0010
0100
0001
0000
0100
0010
1000
0000
0001
0000
,
0000
0000
1000
0000
1010
0000
0000
0000
0010
1000
0001
0100
0001
0000
0000
0000
,
1000
0000
0001
1000
0100
0000
1000
0001
0010
0000
0100
1000
0010
0000
0100
0000
,
0000
0000
0001
0000
0011
0000
0000
0000
0010
0100
1000
0001
1000
0000
0000
0000
,
0001
0000
0100
0001
0010
0000
0100
1000
0100
0000
1000
0010
0100
0000
0001
0000
,
0000
0000
0100
0000
0101
0000
0000
0000
0001
0100
0010
1000
0010
0000
0000
0000
,
1000
0000
0010
1000
0100
0000
0010
0001
0010
0000
0001
1000
0100
0000
0010
0000
,
0001
0000
0000
0000
0100
0000
0000
0000
0010
0000
0000
0000
1000
0000
0000
0000
0100
0000
0000
0000
0010
0000
0000
0000
0001
0000
0000
0100
0000
0000
0001
0000
0000
0100
0000
0000
0010
0000
0000
1000
0000
0000
0010
0000
0000
1000
0000
0000
,
0000
0000
0000
0000
;
#NOTES:
     dance-double:
     :
     Easy:
     9:
     :
00000000
00000000
00000000
00000000
,
00000000
00000000
00000000
00000000
,
00000000
00000000
00000000
00000000
,
00000000
00000000
00000000
00000000
,
00000000
00000000
00000000
00000000
,
00022000
00000000
00000000
00000000
,
00000000
00000000
00000000
00000000
,
00000000
00000000
00000000
00000000
,
00000000
00000000
00033000
00000000
,
00000010
00000000
00001000
00000000
,
00000001
00000100
00000001
00000000
,
00000010
00000000
00000100
00000000
,
00001000
00000001
00001000
00000000
,
00000100
00000000
00010000
00000000
,
00001000
00010000
00001000
00000000
,
01000000
00010000
01000000
00000000
,
00100000
10000000
00100000
00000000
,
20000000
00000000
00100000
00000000
,
01000000
00000000
31000000
00000000
,
01000000
00100000
00010000
00000000
,
00100000
00001000
00010000
00000000
,
00002000
00000000
00100000
00000000
,
01000000
00000000
01003000
00000000
,
00001000
00010000
00000100
00001000
,
00000010
00001000
00000100
00000000
,
00000220
00000000
00000000
00000000
,
00000000
00000000
00000000
00000000
,
00000000
00000000
00000000
00000000
,
00000330
00000000
00000110
00000000
,
00000001
00000010
00000100
00000000
,
00001000
00000100
00010000
00000000
,
00001000
00010000
00001000
01000000
,
00010000
00100000
00010000
00000000
,
10000000
00100000
01000000
00000000
,
00010000
00100000
00001000
00000000
,
00010000
00001000
00010000
00000100
,
00001000
00000010
00001000
00000000
,
00000100
00000010
00000001
00000000
,
00000100
00000010
00010000
00000000
,
00001000
00010000
00001000
00010000
,
01000000
10000000
01000000
00000000
,
10000000
00100000
10000000
00100000
,
00010000
00001000
00010000
00000000
,
00000100
00000000
00001000
00000000
00000010
00001000
00000010
00000000
,
00000100
00000000
00000001
00000000
00000010
00000100
00000010
00000000
,
00000001
00000100
00001000
00010000
,
00100000
00000000
01000000
00000000
00100000
10000000
00100000
00000000
,
01000000
00000000
00010000
00000000
10000000
01000000
10000000
00000000
,
00010000
00000000
00100000
00000000
01000000
00100000
01000000
00000000
,
00100000
00001000
00010000
00000010
,
00001000
00000001
00001000
00000000
00001001
00000000
00000000
00000000
,
00000001
00000100
00000010
00001000
,
00000100
00010000
00000100
00000000
00010000
00001000
00010000
00000000
,
00001000
01000000
00010000
00100000
,
01000000
00000000
10000000
00000000
01000000
00100000
01000000
00000000
,
10000000
01000000
00010000
00001000
,
00010000
00100000
00010000
00001000
,
00000100
00000010
00001000
00000000
00000100
00000010
00000001
00000000
,
00001000
00000001
00001000
00000001
00001000
00000000
00000000
00000000
,
00000220
00000000
00000000
00000000
,
00000000
00000000
00000000
00000000
,
00000000
00000000
00000000
00000000
,
00000000
00000000
00000330
00000000
,
00022000
00000000
00000000
00000000
,
00000000
00000000
00000000
00000000
,
00000000
00000000
00000000
00000000
,
00000000
00000000
00000000
00033000
,
01000000
00010000
00100000
01000000
,
00000000
00000000
10000000
00100000
10000000
00000000
00010000
00000000
,
00100000
00001000
00010000
00000010
,
00000000
00000000
00001010
00000000
00000000
00000000
00000001
00000100
,
00000001
00001000
00000100
00010000
,
00000000
00011000
00000000
00100000
,
00010000
02000000
00000000
00000000
,
03000000
00000000
00010000
10000000
,
01000000
00100000
00010000
00000000
01000000
00000000
00001000
00000000
,
00010000
00000100
00001000
00000000
00000010
00000000
00000100
00000000
,
00000001
00000010
00000001
00000010
,
00001000
00000000
00010000
00000000
00001000
00010000
00001000
00000000
,
01000000
00010000
10000000
01000000
,
00000000
10000000
01000000
10000000
,
00010000
00100000
00001000
00000000
00010000
00000000
00001000
00000000
,
00000000
00011000
00000000
00010000
,
00000100
00001000
00000010
00000000
00000100
00000000
00000010
00000000
,
00000000
00000110
00000000
00000001
,
00000100
00002000
00000000
00000000
,
00003000
00000000
00001000
00010000
,
01000000
10000000
01000000
00000000
00100000
00000000
00001000
00000000
,
00010000
00000100
00010000
00000000
00001000
00000000
00000010
00000000
,
00000001
00000100
00000001
00000100
,
00000010
00000000
00001000
00000000
00000010
00010000
00001000
00000000
,
00010000
00000000
00001000
00000000
01000000
00000000
00010000
00100000
,
00000000
00010000
10000000
01000000
,
00100000
00000000
00001000
00000000
00010000
00000000
00001000
00010000
,
00000000
00000100
00001000
00000010
,
00000100
00000000
00000001
00000000
00001000
00000000
00000001
00000100
,
00000000
00000001
00000100
00001000
,
00010000
00000000
00100000
00000000
01000000
00000000
00010000
01000000
,
00000000
00010000
10000000
00100000
,
01000000
00000000
00001000
00000000
00010000
00001000
00000000
00010000
,
00000000
00000100
00001000
00000010
,
00000100
00000000
00000001
00000000
00000010
00000100
00000000
00000010
,
00000000
00000001
00001000
00000100
,
00001000
00000000
00000010
00000000
00010000
00001000
00000000
00010000
,
00000000
00001000
01000000
00010000
,
00100000
00000000
00010000
00000000
10000000
01000000
00100000
00000000
,
00001000
00000000
00011000
00000000
00010000
00001000
00010000
00001000
,
00000000
00000000
00000000
00000000
;
#NOTES:
     dance-double:
     :
     Medium:
     12:
     :
00000000
00000000
00000000
00000000
,
00000000
00000000
00000000
00000000
,
00000000
00000000
00000000
00000000
,
00000000
00000000
00000000
00000000
,
00000000
00000000
00000000
00000000
,
00022000
00000000
00000000
00000000
,
00000000
00000000
00000000
00033000
,
00000100
00001000
00000100
00001000
00000010
00000100
00000010
00001000
,
00000000
00000001
00000001
00000000
00000000
00000000
00000000
00000000
,
00001001
00000000
00000000
00000100
00001000
00000000
00000100
00010000
,
00000000
00000000
00000000
00001000
00000000
00000000
01000000
00000000
00010000
00000000
01000000
00000000
,
00200000
00000000
00000000
20300000
00000000
00000000
30010000
00000000
,
00000000
10000000
01000000
00000000
00100000
00000000
00100000
00000000
,
00010000
01000000
00010000
01000000
00010000
00000000
00100000
00001000
,
00100000
00001000
00100000
00000000
00001000
00010000
00001000
00000000
,
00010000
00000000
00000100
00001000
00000000
00000010
00000100
00000000
,
00000001
00000100
00000010
00000000
00001000
00000100
00000010
00000000
,
00000002
00000000
00000000
00000000
00000100
00000000
00000000
00000013
,
00000001
00000100
00000001
00000100
00000010
00001000
00000010
00000000
,
00010000
00011000
00001000
01001000
,
00100000
00110000
00010000
10010000
,
20000000
00000000
00000000
30020000
00000000
00000000
00230000
00000000
,
00000000
01000000
00310000
00000000
,
01000000
01000000
00000000
00001000
00001000
00000000
00010000
00010000
,
00000000
00000100
00000100
00000000
00001000
00000000
00000010
00000000
,
00000220
00000000
00000000
00000000
,
00000000
00000000
00000330
00000000
,
00001000
00000001
00000000
00001000
00000100
00000000
00010000
00001000
,
00000000
00100000
00010000
00000000
01100000
00000000
00000000
00000000
,
20000000
00000000
00000000
00000000
30010000
00000000
01000000
00010000
,
00000000
01000000
00010000
00000000
00100000
00000000
00000000
00000000
,
00002000
00000000
00000000
00000000
00013000
00000000
00000010
00001000
,
00000000
00000010
00001000
00000000
00000100
00000000
00000000
00000000
,
00000020
00000000
00000000
00000000
00000031
00000000
00001000
00000100
,
00000000
00001000
00000100
00000000
00010000
00000000
00000000
00000000
,
00002000
00000000
00000000
00000000
01003000
00000000
00010000
00100000
,
00000000
00010000
00100000
00000000
01000000
00000000
00000000
00000000
,
10000000
00100000
00010000
00010000
,
00001000
00000010
00000001
00000001
,
00000100
00001000
00010000
00100000
,
01000000
00100000
00010000
00001000
,
00000100
00001000
00010000
01000000
,
00100000
00000000
01000000
00000000
00010000
00001000
00010000
00001000
,
00020000
00000010
00001000
00000010
,
00032000
00100000
00010000
00100000
,
00013000
00001000
00010000
00000000
00000100
00001000
00000010
00000000
,
00001010
00000100
00010100
00001000
,
00020000
00000100
00001000
00000100
,
00032000
01000000
00010000
01000000
,
00013000
00001000
00010000
00000000
01000000
10000000
00100000
00000000
,
10100000
01000000
10010000
00000000
,
10000000
01000000
00100000
00000000
00010000
00000000
00001000
00000000
,
00000100
00000000
00000010
00000000
00000001
00001000
00000001
00000000
,
00000100
00000010
00001000
00000000
00000100
00000010
00000001
00000000
,
00001000
00000001
00001000
00000001
00001000
00000000
00000000
00000000
,
00000001
00000100
00000010
00000000
00001000
00000000
00010000
00000000
,
01000000
00000000
00100000
00000000
10000000
00010000
10000000
00000000
,
01000000
00100000
01000000
00100000
00010000
00100000
00010000
00000000
,
00100000
00001000
00100000
00001000
00010000
00001000
00010000
00000000
,
00022000
00000000
00000000
00000000
,
00000000
00000000
00000000
00000000
,
00000000
00000000
00000000
00000000
,
00000000
00000000
00000000
00033000
,
00000010
00001000
00000000
00000010
00000000
00000000
00000100
00000001
,
00000000
00000100
00000000
00000000
00000110
00000000
00001001
00000000
,
00000001
00000100
00000001
00000000
00001000
00000100
00001000
00000000
,
00000100
00010000
00001000
00010000
00001000
01000000
00010000
00000000
,
00200000
00000000
10000000
00000000
,
00010000
00000000
10000000
00000000
,
00310000
10000000
01000000
00010000
,
00000000
00011000
00000000
00010000
,
00001000
00000100
00000001
00001000
,
00000000
00000020
00000000
00020030
,
00000000
00002000
00000000
00000000
,
00033000
00000000
00010000
00001000
,
01000000
00010000
01000000
00000000
00100000
10000000
00100000
00000000
,
01000000
00010000
00100000
00000000
00001000
00010000
00000100
00000000
,
00000010
00000001
00000010
00000100
00001000
00000001
00000100
00000000
,
00000010
00001000
00000100
00010000
00001000
01000000
00010000
00000000
,
10000000
00100000
00000000
10000000
00100000
00000000
01000000
00010000
,
00000000
01000000
00010000
00000000
00110000
00000000
00000000
00000000
,
00100000
00001000
00000000
00100000
00001000
00000000
00010000
00000010
,
00000000
00010000
00000010
00000000
00001010
00000000
00000000
00000000
,
00000001
00000010
00000000
00000001
00000010
00000000
00000100
00001000
,
00000000
00000100
00001000
00000000
00001010
00000000
00000000
00000000
,
00000001
00000000
00001000
00000000
00000100
00000010
00000100
00000000
,
00010000
00000000
00001000
00000000
01000000
00100000
01000000
00000000
,
00010000
10000000
01000000
10000000
00100000
01000000
00010000
00000000
,
00100000
01000000
00010000
01000000
00010000
00001000
00010000
00000000
,
00001000
00000010
00000100
00000000
00001000
00000010
00000100
00000000
,
00001000
00000100
00000001
00000100
00000010
00001000
00000001
00000000
,
00002000
00000100
00003001
00000000
00000101
00000000
00000001
00000100
,
00000000
00000010
00001000
00000000
00010000
01000000
00100000
00000000
,
20000000
01000000
30010000
00000000
11000000
00000000
10000000
01000000
,
00000000
00100000
00010000
00000000
00001000
00000100
00000010
00000000
,
00000002
00000010
00001003
00000000
00001010
00000000
00000010
00001000
,
00000000
00010000
01000000
00000000
00100000
10000000
00100000
00000000
,
20000000
00100000
30010000
00000000
10000000
01000000
00100000
00000000
,
00001000
00010000
00001000
00010000
00000100
00001000
00000010
00000000
,
00001000
00000100
00001000
00000010
00000100
00000001
00000010
00000100
,
00001000
00000010
00000100
00001000
00010000
00001000
00010000
00000000
,
00001000
00100000
00010000
00100000
01000000
10000000
00010000
01000000
,
00100000
10000000
00100000
00010000
00100000
10000000
00010000
00000000
,
10000000
01000000
00100000
00010000
01000000
00010000
00100000
00001000
,
00010000
00000010
00001000
00000100
00001000
00000010
00000100
00000000
,
00000001
00000010
00000100
00001000
00000010
00000100
00001000
00010000
,
00100000
01000000
00010000
00100000
01000000
10000000
00010000
10000000
,
00000000
00000000
00000000
00000000
;
#NOTES:
     dance-double:
     :
     Hard:
     16:
     :
00000000
00000000
00000000
00000000
,
00000000
00000000
00000000
00000000
,
00000000
00000000
00000000
00000000
,
00000000
00000000
00000000
00000000
,
00000000
00000000
00000000
00000000
,
00022000
00000000
00000000
00000000
,
00000000
00000000
00000000
00033000
,
00010000
00000000
00000010
00001000
00000010
00000000
00000100
00000000
00000001
00000010
00000001
00000000
00001000
00000000
00000100
00000000
,
00000000
00000100
00010000
00000000
00000000
00000000
00000000
00000000
,
00001000
00100000
00000000
00100000
00010000
00000000
00010000
01000000
,
00000000
00000000
00000000
01000000
00000000
00000000
00100000
00000000
00000000
00000000
00000000
00000000
10000000
00000000
00000000
00000000
01000000
00000000
00000000
00000000
00100000
00000000
00000000
00000000
,
00020000
00000000
00000000
02030000
00000000
00000000
03002000
00000000
,
00000000
00013000
00000010
00001000
00000010
00000100
00000010
00000001
,
00000020
00000000
00000000
00000000
00000000
00000000
00002030
00000000
00000000
00000000
00003100
00010000
00000100
00000000
00001000
00000000
,
00000010
00000100
00001000
00010000
00000000
00010000
00100000
01000000
,
00010000
00100000
00010000
00100000
00000000
01000000
10000000
00100000
,
01000000
00001000
00010000
00000000
00000100
00000010
00000001
00000000
,
00000100
00000010
00000000
00000010
00000100
00000000
00000001
00000100
,
00001000
00010000
00100000
00000000
10000000
01000000
00100000
00000000
,
00010000
00100000
00010000
00100000
00010000
00100000
00001000
00010000
00001000
00010000
00001000
00010000
,
00000100
00001000
00000100
00001000
00000010
00001000
00000001
00000100
00000001
00000010
00000001
00000010
,
00000002
00000000
00000000
00000103
00000000
00000100
00000020
00000000
,
00000000
00000000
00000000
00000000
00000030
00001000
00000001
00001000
,
00000010
00010000
00001000
00100000
00010000
01000000
00100000
10000000
,
01000000
00100000
00001000
00010000
00000100
00001000
00000010
00000000
,
00000220
00000000
00000000
00000000
,
00000000
00000000
00000000
00000000
,
00000000
00000000
00000000
00000000
,
00000000
00000000
00000330
00000000
,
00000001
00000000
00000100
00000010
00001000
00000000
00000010
00010000
,
00000000
00001000
00010000
00001000
01000000
00010000
00000000
00000000
,
00010000
00000000
10000000
01000000
10000000
00000000
00100000
01000000
,
00000000
00100000
01000000
00010000
01000000
00010000
00000000
00000000
,
00010000
00000000
00100000
00001000
00010000
00000000
00001000
00010000
,
00000000
00001000
00000010
00000001
00001000
00000100
00000000
00000000
,
00000100
00000000
00000010
00000001
00000100
00000000
00000010
00000100
,
00000000
00001000
00010000
00100000
10000000
00100000
01000000
00000000
,
00020000
00100000
00230000
00001000
,
00302000
00010000
00023000
00000100
,
00030100
00001000
00000100
00000010
00000001
00000100
00000001
00000100
,
00000000
00000100
00000010
00010000
00001000
00010000
00000100
00000000
,
00010000
00001000
00010000
00001000
01000000
00010000
00100000
00010000
,
00000000
00010000
00100000
01000000
10000000
00100000
10000000
00000000
,
01000000
00100000
00100000
00010000
00100000
00100000
01000000
10000000
,
00100000
00010000
00001000
00000100
00000001
00001000
00000100
00000001
,
00000100
00000010
00000001
00000100
00000010
00000001
00000010
00001000
,
00000100
00010000
00001000
00000100
00000010
00001000
00000010
00000000
,
00000100
00000010
00000010
00001000
00000010
00000010
00000100
00000001
,
00000010
00001000
00010000
01000000
10000000
00010000
01000000
10000000
,
01000000
00100000
10000000
01000000
00100000
10000000
00100000
00010000
,
01000000
00000000
00001000
00000000
00010000
00000000
01000000
00000000
10000000
00000000
00000000
00000000
00010000
01000000
00010000
01000000
,
00010000
10000000
00100000
01000000
00010000
00100000
00001000
00010000
,
00000100
00001000
00000010
00000100
00000001
00000100
00000101
00000000
,
00000100
00000001
00000100
00001000
00010000
00001000
00010000
00100000
,
01000000
00010000
00100000
01000000
10000000
00010000
10010000
00000000
,
00010000
00100000
00110000
00000000
01000000
00001000
00011000
00000000
,
00010000
00000000
00000100
00001000
00000100
00000000
00000010
00000100
00000010
00000000
00000001
00000010
00000001
00000000
00000000
00000000
,
00000010
00000001
00001000
00000100
00000000
00000000
00010000
00001000
01000000
00100000
00000000
00000000
,
10000000
01000000
00100000
00000000
00010000
01000000
00100000
00000000
00010000
00000000
00001000
00000000
00010000
00000000
00000000
00000000
,
00022000
00000000
00000000
00000000
,
00000000
00000000
00000000
00000000
,
00000000
00000000
00000000
00000000
,
00000000
00000000
00000000
00033000
,
00000010
00001000
00000000
00000000
00000000
00000000
00100000
00010000
,
00000000
00000000
00000000
00000000
00001000
00010000
00011000
00000000
,
00010000
00001000
00100000
00010000
00100000
10000000
00100000
00010000
,
00100000
01000000
00010000
00001000
00000010
00000001
00001000
00000010
00000100
00000001
00000100
00001000
,
00010000
00100000
01000000
00100000
10000000
00000000
01000000
00100000
,
00000000
00000000
01100000
00000000
00000000
00000000
00100000
00010000
00100000
00000000
00001000
00000000
00010000
00000000
00000000
00000000
,
00000010
00001000
00000100
00001000
00000010
00000000
00000100
00000001
,
00000000
00000000
00001001
00000000
00000000
00000000
00001000
00000100
00000010
00000000
00000001
00000010
00000100
00000000
00000000
00000000
,
00001000
00000001
00000010
00001000
00010000
00000000
00001000
00100000
,
00000000
00000000
00110000
00000000
00000000
00000000
00010000
10000000
01000000
00000000
10000000
00100000
01000000
00000000
00000000
00000000
,
00100000
01000000
00100000
00010000
00001000
00010000
00001000
00000000
,
00010000
00001000
00000010
00000100
00000010
00000001
00000010
00000000
,
00000001
00000100
00000001
00000010
00000100
00001000
00000010
00001000
,
00000100
00010000
00001000
00010000
00001000
01000000
00001000
00100000
,
00010000
00100000
01000000
10000000
00100000
01000000
00100000
10000000
,
01000000
00100000
00001000
00010000
00001000
01000000
00010000
00100000
,
00001000
00010000
00000100
00001000
00000010
00000000
00001000
00000100
,
00000000
00000000
00000110
00000000
00000000
00000000
00000001
00000010
00000100
00000000
00001000
00000000
00000001
00000000
00000000
00000000
,
00000100
00000010
00001000
00000010
00010000
00000000
00001000
00010000
,
00000000
00000000
00011000
00000000
00000000
00000000
00010000
00001000
00100000
00000000
00010000
00100000
01000000
00000000
00000000
00000000
,
10000000
00100000
00010000
00100000
10000000
00000000
01000000
00100000
,
00000000
00000000
01100000
00000000
00000000
00000000
10000000
01000000
00100000
00000000
00010000
00100000
00001000
00000000
00000000
00000000
,
00010000
00000100
00001000
00000100
00000001
00000100
00001000
00000000
,
00000100
00010000
00001000
00010000
00100000
00010000
00001000
00000000
,
01000000
00010000
00100000
01000000
10000000
00100000
01000000
00010000
,
00100000
01000000
00010000
00001000
00000010
00000100
00001000
00000010
,
00000100
00001000
00000100
00000001
00000010
00001000
00010000
00000010
,
00000100
00000001
00000100
00001000
00010000
00100000
10000000
00010000
,
10000000
00000000
00100000
01000000
00100000
00000000
10000000
00000000
00010000
00100000
00001000
00000000
00010000
00000000
00000010
00000000
,
00000000
00001000
00000100
00000000
00000010
00000001
00000101
00000000
,
00000001
00000000
00000100
00000010
00000100
00000000
00000001
00000000
00001000
00000100
00010000
00000000
00001000
00000000
00100000
00000000
,
00000000
00010000
01000000
00000000
00100000
10000000
10010000
00000000
,
10000000
00000000
01000000
00010000
01000000
00000000
00100000
00000000
00001000
00010000
00001000
00000000
00000100
00000000
00000010
00000000
,
00000000
00001000
00000100
00000000
00000010
00000001
00001001
00000000
,
00000001
00000000
00001000
00000100
00001000
00000000
00000010
00000000
00010000
00001000
00100000
00000000
00010000
00000000
01000000
00000000
,
00000000
00010000
00100000
00000000
01000000
10000000
11000000
00000000
,
10000000
00000000
01000000
00100000
00010000
00000000
00100000
00001000
00010000
00000000
00000100
00010000
00001000
00000000
00000010
00000000
,
00000000
00000000
00000001
00000000
00000101
00000000
00000000
00000000
00000001
00000100
00000010
00001000
00000010
00000000
00000000
00000000
,
00000100
00000000
00000010
00001000
00000100
00000000
00010000
00001000
01000000
00000000
00010000
00100000
01000000
00000000
10000000
00000000
,
00000000
00000000
00100000
00000000
01100000
00000000
00000000
00000000
00010000
10000000
01000000
00100000
01000000
00000000
00000000
00000000
,
10000000
00000000
00010000
00100000
00001000
00000000
00010000
00000100
00001000
00000000
00000010
00000100
00000010
00000000
00000001
00000000
,
00000000
00000000
00000010
00000000
00001010
00000000
00000000
00000000
00000001
00000010
00000100
00010000
00001000
00000000
00000000
00000000
,
00010000
00000000
00001000
01000000
00010000
00000000
00100000
00010000
00100000
00000000
01000000
10000000
00010000
00000000
10000000
00000000
,
01000000
00000000
00000000
00000000
10000000
00000000
00000000
00000000
00100000
00000000
00000000
00000000
01000000
00000000
00000000
00000000
00010000
00000000
00000000
00000000
00100000
00000000
00000000
00000000
00001000
00000000
00000000
00000000
00010000
00000000
00000000
00000000
00000100
00000000
00000000
00000000
00001000
00000000
00000000
00000010
00000000
00000000
00000100
00000000
00000000
00000001
00000000
00000000
,
00000000
00000000
00000000
00000000
;
