
//----- song ID: aiai -----//
#TITLE:AI;
#ARTIST:BEMANI Sound Team "Sota F.";
#BANNER:AI.png;
#BACKGROUND:AI-bg.png;
#CDTITLE:./CDTitles/jubeat clan.png;
#MUSIC:AI.ogg;
#SAMPLESTART:69.428;
#SAMPLELENGTH:15;
#BPMS:0=190;
#NOTES:
     dance-single:
     :
     Beginner:
     5:
     :
0000
0000
0000
0000
,
0000
0000
0000
0000
,
0000
0010
0000
0000
,
0000
1000
0000
0100
,
0000
1000
0000
0001
,
0001
0000
0010
0000
,
0001
0000
0100
0000
,
0000
0010
0000
1000
,
1000
0000
0100
0000
,
0020
0000
0000
0030
,
0100
0000
0001
0000
,
0000
1000
0000
0100
,
0000
1000
0000
0010
,
0000
0000
0001
0000
,
0001
0000
0100
0100
,
0000
0010
0000
0000
,
1000
0000
0001
0000
,
0100
0000
0000
0000
,
0010
0010
0010
0000
,
0100
0000
0010
0000
,
0100
0000
0001
0000
,
1000
0000
0100
0000
,
1000
0000
0010
0000
,
0100
0000
0001
0000
,
0010
0000
0100
0000
,
1000
0000
0010
0000
,
2000
0000
0000
3000
,
0001
0000
0001
0000
,
1000
0000
0001
0000
,
1001
0000
0000
0000
,
0100
0100
0100
0000
,
0000
0010
0000
1000
,
1000
0000
0000
0000
,
0001
0000
0010
0000
,
0002
0000
0000
0003
,
1000
0000
1000
0000
,
0010
0000
0100
0000
,
0001
0000
1000
0000
,
0010
0000
0100
0000
,
0000
0001
0000
0010
,
0010
0000
0000
0000
,
0001
0000
0100
0000
,
0020
0000
0000
0030
,
1000
0000
0001
0000
,
1000
0000
0001
0000
,
0010
0000
0100
0000
,
0010
0000
0100
0000
,
0002
0000
0000
0003
,
0010
0000
0010
0000
,
0100
0000
0100
0000
,
1000
1000
1000
0000
,
2002
0000
0000
0000
,
0000
0000
0000
3003
,
0100
0000
0100
0000
,
0010
0000
0001
0000
,
1000
0000
0010
0000
,
0100
0000
0001
0000
,
0100
0000
0001
0000
,
1000
1000
1000
0000
,
0010
0000
0100
0000
,
0001
0000
0010
0000
,
0001
0000
0100
0000
,
0010
0000
0010
0000
,
1000
0000
0001
0000
,
1001
0000
0000
0000
,
0100
0000
0010
0000
,
0100
0100
0100
0000
,
0001
0000
1000
0000
,
2002
0000
0000
3003
,
0010
0000
0100
0000
,
0001
0001
0001
0000
,
1000
0000
0010
0000
,
1000
0000
0100
0000
,
0010
0000
0010
0000
,
1000
0000
0001
0001
,
0000
0000
0000
0000
;
#NOTES:
     dance-single:
     :
     Easy:
     9:
     :
0000
0000
0000
0000
,
0000
0000
0000
0000
,
0000
0100
0010
1000
,
0002
1003
0010
0100
,
0010
1000
0001
1000
,
1001
0000
0110
0000
,
1000
0100
0010
0110
,
0020
0031
1000
0010
,
1000
0100
0010
0001
,
0200
0000
0320
0000
,
1030
1001
0100
1001
,
0200
0000
0310
0000
1000
0010
1000
0000
,
0100
0000
0010
0000
0001
0010
0001
0000
,
0100
0200
0310
0020
,
1030
0000
0100
0010
0100
0000
0110
0000
,
0001
1001
0100
0010
,
1000
0010
1000
0001
,
1001
0000
0000
1001
0000
0000
2001
0000
,
0000
3001
0001
0000
1000
0000
0001
0000
,
0010
0001
0010
0000
0100
1000
0100
0000
,
1000
0001
0100
0010
,
1000
0010
1000
0000
0001
0100
0001
0000
,
0010
0100
1000
0001
,
2000
3100
0002
0103
,
0010
0000
1000
0000
0001
0010
0001
0000
,
0002
0103
2000
3100
,
0010
0000
0001
0100
0010
1000
0001
0000
,
0200
0302
0013
0010
,
0100
0000
0100
0000
1000
0010
1000
0000
,
0110
0110
1001
0110
,
0001
1000
0001
1000
0002
0000
0003
0000
,
0001
0000
0100
0000
0010
1000
0010
0000
,
1000
0000
0000
0001
0000
0000
1000
0000
,
0010
0100
0010
0000
0100
0000
0100
0000
,
0002
0000
0000
1003
,
0100
0000
0010
0000
0001
0100
0001
0000
,
0100
0000
0010
0000
1000
0100
1000
0000
,
0110
1001
0110
1001
,
0001
0000
0010
0100
0010
0000
0100
0000
,
2000
0000
3010
0000
0100
0010
0100
0000
,
0010
0000
0000
0100
0000
0000
0010
0000
,
1000
0000
0001
0100
0001
0000
0100
0000
,
0020
0000
1000
1030
,
0100
0010
0001
1000
,
0001
0000
1001
0000
0100
0001
0100
0000
,
0010
1000
0100
1000
,
0001
0010
0001
0000
0010
0000
0100
0000
,
1000
0001
0100
0010
,
1000
0010
1000
0000
0100
0000
0010
0000
,
0110
0001
1001
1000
,
0100
0010
0110
0000
,
2002
0000
0000
0000
,
0000
0000
0000
3003
,
2000
0000
3002
0000
,
0023
0130
1000
0010
,
1000
0000
0100
0000
0100
0010
0000
1001
,
0000
0010
0001
1000
,
0100
0010
0100
0000
1000
0001
1000
0000
,
0001
0010
0100
0000
1000
0000
0001
0000
,
1000
0000
0010
0000
0100
0010
1000
0001
,
0000
1000
0000
2002
0000
0000
3003
0000
,
0001
0000
0100
0000
0010
0000
1000
0010
,
1000
0100
0010
0110
,
0001
0000
0100
0000
0010
1000
0000
2002
,
0000
0000
3003
0110
,
0001
0000
0100
0000
0010
0000
1000
0010
,
0000
0100
0010
0000
1000
0000
0001
0000
,
0100
0000
0010
0000
2000
0000
0000
3001
,
0000
0010
0000
0220
0000
0000
0330
0000
,
0010
0000
0100
0000
1000
0000
0001
0100
,
0000
0010
0100
0000
0001
0000
1000
0000
,
0220
0330
2002
3003
,
0010
0001
0100
1000
,
0010
0200
0310
0200
,
0310
0100
0010
1000
0001
0000
1001
0000
,
0000
0000
0000
0000
;
#NOTES:
     dance-single:
     :
     Medium:
     12:
     :
0000
0000
0000
0000
,
0000
0000
0000
0000
,
0000
0000
0001
1000
0001
0000
0110
0000
,
0200
0301
0010
0100
,
1000
0100
1000
0000
0001
0100
0001
0000
,
0010
0010
0100
0000
0010
0010
0100
0000
,
0100
1001
0010
0110
,
0002
1003
1100
0010
,
0001
0100
0001
0000
0100
0010
0100
0000
,
1010
0101
0011
1100
,
0001
0010
0001
0000
0110
0000
1001
0000
,
2000
0000
3010
0000
0100
0001
0100
0000
,
0001
0000
0010
0000
0001
0100
0001
0000
,
1000
1000
0002
0000
1003
1000
0002
0000
,
0103
0000
0010
1000
0100
0000
0110
0000
,
0001
1001
0100
0110
,
1000
0100
0010
0000
0001
0100
0010
0000
,
1010
0000
0000
1100
0000
0000
0102
0000
,
0000
0103
0100
0000
1010
0000
0101
0000
,
1000
0100
1000
0000
0001
0100
0001
0000
,
0010
0001
0100
0010
1000
0000
0110
0000
,
0001
0100
0001
0000
1000
0100
1000
0000
,
0100
1000
0010
0100
0001
0000
1100
0000
,
0001
0001
1000
0000
1000
1000
0001
0000
,
0100
0010
1000
0001
0010
0100
0200
0000
,
0310
0001
0010
0000
0100
1000
0100
0000
,
1100
0000
0000
0011
0000
0000
0110
0000
,
0001
0000
0000
0000
1000
0000
0000
0001
0000
0000
0000
0000
0100
0000
0000
0000
,
0010
1000
0010
0000
0100
0001
0100
0000
,
0001
0000
0001
0100
0000
0000
1000
0000
1000
0100
0000
0000
,
0010
0100
0010
0100
0020
0000
0030
0000
,
0001
1000
0010
0100
,
0010
0000
0000
0010
0000
0000
0100
0000
0000
0100
0000
0000
0010
0000
0000
0000
,
0100
0001
1000
0000
0010
0100
0010
0000
,
0200
0000
0000
0301
,
1001
0000
0010
0000
1000
0100
1000
0000
,
0001
0100
0010
0000
1000
0100
0010
0000
,
0011
0110
1100
1001
,
1000
0010
1000
0001
0010
0001
1000
0000
,
0002
0000
0013
0000
0100
0010
0100
0000
,
0010
0000
0000
0010
0000
0000
0100
0000
0000
0100
0000
0000
0010
0000
0000
0000
,
1001
0000
0010
1000
0010
1000
0100
0010
,
0002
0000
0100
1003
,
0010
0110
1000
2100
,
3001
0000
0011
0000
1000
0100
1000
0000
,
0001
0000
0010
0000
0100
1000
0100
0000
,
1000
0010
1000
0000
0001
0010
0100
0000
,
0020
0000
0031
2000
0000
0000
3010
0000
,
1000
0001
1000
0000
0001
0010
0100
0000
,
1000
0010
1000
0000
0001
0100
0001
0000
,
1000
0010
0100
0110
,
2002
0000
0000
0000
,
0000
0000
0000
3003
,
2000
0000
3002
0000
,
0000
0000
0103
0010
0100
0000
0010
0000
,
1000
0000
0100
0010
0100
1000
0000
0001
,
0000
0100
0010
0000
1000
0100
1000
0000
,
0001
0100
0010
1000
0100
0010
0001
0200
,
0000
0310
1000
0200
0000
0310
0002
0000
,
1003
0000
1001
0000
0010
1000
0100
0010
,
0000
0001
0000
2002
0000
0000
3003
0000
,
0010
0000
0100
0000
0010
1000
0100
0020
,
0000
0031
0100
0001
1000
0000
1001
0000
,
0100
0000
0010
0001
0100
0010
0000
0100
,
0010
0000
0000
1000
0000
0000
0001
0000
0000
0000
0000
0000
1001
0000
0000
0000
,
0010
0000
1000
0000
0100
0010
0001
0020
,
0000
0031
0100
0020
0000
1030
0100
1000
,
0010
0000
0100
0000
0001
1000
0001
0010
,
0000
0100
0000
0220
0000
0000
0330
0000
,
1100
0000
0101
0000
1000
0010
1000
0200
,
0000
0310
0001
1000
0100
0000
1000
0000
,
1010
0000
0001
0010
0001
0000
1000
0100
,
0010
0001
0100
1000
,
0010
1000
0200
0000
0310
0001
0200
0000
,
0310
1000
0100
0010
0001
0000
1001
0000
,
0000
0000
0000
0000
;
#NOTES:
     dance-single:
     :
     Hard:
     16:
     :
0000
0000
0000
0000
,
0000
0000
0000
0000
,
0000
0000
1000
0010
0100
0000
1001
0000
,
0220
0330
1000
0010
0001
0010
1000
0100
,
0010
0000
0001
0100
0010
0000
1000
0000
0001
0010
0100
0000
1000
0000
0001
0000
,
1000
0001
1000
0001
2000
0000
0000
0000
3010
0100
0010
0100
0010
0000
0000
0000
,
0110
0000
0000
0100
0010
1000
0001
0000
0000
1001
0000
0000
,
0200
0000
1300
0100
1100
0000
0011
0000
,
0100
1000
0010
0001
0010
1000
0001
0100
,
0200
0000
0320
0000
0000
0000
0032
0000
0000
0023
0000
0000
0230
0000
0301
0000
,
0010
0100
0110
0000
1100
0000
0101
0000
,
2000
0000
3001
0010
0100
0010
0001
0100
,
0010
1000
0010
0000
1000
0010
1000
0000
0001
0100
0001
0000
0100
0001
0100
0000
,
0001
0100
0010
1000
0002
0000
0000
0000
0013
0100
1000
0100
0020
0000
0000
0000
,
0130
0000
0000
0000
0010
0000
0100
1000
0010
0000
0000
0000
0110
0000
0000
0000
,
1001
0000
0001
0010
0011
0000
1100
0000
,
0001
0010
0100
0010
1000
0010
0100
0010
,
0001
0001
1000
0100
0100
0010
0200
0000
,
0000
1300
0100
0000
1100
0000
0101
0000
,
1020
1030
0100
0010
0021
0031
0100
0010
,
0120
0130
0001
1000
2001
3001
0100
0000
,
0201
0301
0010
0100
1200
1300
0010
0100
,
0210
0310
1000
0001
1002
1003
0010
0000
,
2010
3020
0230
0301
0021
0230
2300
3001
,
0201
0320
2030
3001
1002
0203
0320
0030
,
0102
0203
0320
1030
1200
0320
0032
1003
,
2020
0000
3030
0202
0000
0303
1001
0000
,
2000
0000
0000
0000
3100
0000
0000
0010
0000
0000
0001
0000
0010
0000
0000
0000
,
0100
1000
0010
0001
0010
1000
0100
0001
,
0100
0000
0000
0000
0100
0000
1000
0000
0000
0000
1000
0000
0001
0000
0000
0000
0001
0000
0100
0000
0000
0010
0000
0000
,
1000
1000
1000
1000
2000
0000
3010
0000
,
0110
0000
1001
0000
0001
1000
0100
1000
,
1100
0000
0000
0110
0000
0000
0011
0000
0000
0110
0000
0000
1001
0000
0000
0000
,
0001
0000
0100
0000
0010
0000
1000
0000
0100
0000
0010
0001
0010
0000
0001
0000
,
2000
0000
0000
3001
,
0110
0000
0000
0000
1000
0000
0000
0001
0000
0000
0100
0000
0010
0000
0000
0000
,
0100
0000
0010
0100
0010
0000
1000
0000
0001
0000
0100
0000
0010
0000
1000
0000
,
0001
0010
0001
0000
1000
0100
1000
0000
0001
0100
0010
1000
0001
0000
0000
0000
,
1001
0000
0001
1000
0001
0000
0100
0000
0010
0000
1000
0000
0001
0000
0000
0000
,
0200
0000
0310
0000
1000
0100
0001
0000
,
0101
0000
0000
1100
0000
0000
1010
0000
0000
0011
0000
0000
0100
0000
0010
0000
,
1000
0000
0001
0010
1000
0010
0001
1000
,
0020
0000
0100
0130
,
0001
0000
0000
0000
0101
0000
0000
0000
1000
0000
0001
1000
0002
0000
0000
0000
,
1003
0000
1100
0000
0001
0100
0010
1000
,
0001
1100
1000
0101
,
0010
0100
0001
0010
0100
1000
0001
0100
,
2010
0000
3001
0220
0000
0330
1001
0000
,
0001
1000
0200
0000
1300
0010
0001
0010
,
1000
0001
1000
0001
0100
0000
0010
0000
1000
0001
1000
0001
0010
0000
0100
0000
,
0010
0000
0010
0001
0000
0001
1000
0000
0000
1001
0000
0000
,
0220
0000
0000
0000
,
0000
0000
0000
0330
,
0001
0100
0010
1000
0000
0001
1000
0000
0010
0000
1000
0001
0200
0000
0000
0000
,
0302
0000
1003
0010
0100
0000
1001
0000
,
0001
0100
0010
1000
0100
1100
0000
0011
,
0000
0100
0001
0010
1000
0010
0001
1000
,
0010
0001
1000
0100
0001
0010
0100
1000
,
2000
3200
0320
0032
0000
2003
3020
0230
,
0310
0000
0110
0000
1000
0100
0010
0011
,
0000
1100
0000
0202
0000
0000
0303
0000
,
0001
0100
0010
0000
1000
0100
0010
0000
0001
0000
0001
0000
1000
0000
0200
0000
,
0000
0310
0001
0200
0000
0310
0110
0000
,
1100
0000
1000
0001
0010
0011
0000
1100
,
1000
0000
0000
0001
0000
0000
0100
0000
0001
0000
0001
0000
1001
0000
0000
0000
,
0001
1000
0001
0000
1000
0001
1000
0000
0001
0000
0010
0000
1000
0000
0020
0000
,
0000
0130
1000
0020
0000
0130
0001
0010
,
0100
0000
0000
0000
0010
0000
0000
0000
0001
0010
0100
1000
0001
0000
0011
0000
,
0000
1100
0000
0220
0000
0000
0330
0000
,
1000
0010
0000
0000
0100
0001
0000
0000
0010
0000
0100
0000
0010
0000
0200
0000
,
0000
0310
0001
0100
0020
0000
0130
0000
,
0110
0000
0000
0000
0001
0100
0010
1000
0010
0000
0000
0000
1000
0100
0010
0001
,
0010
0001
0100
1000
,
0001
0000
0100
0000
0020
0000
0000
0000
1030
0100
0001
0100
2000
0000
0000
0000
,
3100
1000
0001
0100
0010
0000
1001
0000
,
0000
0000
0000
0000
;
#NOTES:
     dance-double:
     :
     Easy:
     10:
     :
00000000
00000000
00000000
00000000
,
00000000
00000000
00000000
00000000
,
00000000
00001000
00000010
00000100
,
00000002
00001003
00000100
00010000
,
00001000
00100000
00010000
10000000
,
10010000
00000000
01100000
00000000
,
00010000
00100000
00001000
00011000
,
00020000
00030010
00001000
00000100
,
00000010
00000001
00001000
00000010
,
00020000
00000000
00032000
00000000
,
00103000
00110000
01000000
01100000
,
20000000
00000000
30100000
00000000
01000000
00010000
01000000
00000000
,
00001000
00000000
00010000
00000000
00000100
00001000
00000100
00000000
,
00001000
00000020
00000130
00000002
,
00000013
00000000
00000100
00001000
00000100
00000000
00011000
00000000
,
00010000
01010000
00100000
10000000
,
01000000
00010000
00001000
00010000
,
00011000
00000000
00000000
00001010
00000000
00000000
00001002
00000000
,
00000000
00000103
00000100
00000000
00000001
00000000
00001000
00000000
,
00000100
00010000
00000100
00000000
00100000
00001000
00100000
00000000
,
00010000
10000000
01000000
00100000
,
00010000
01000000
00010000
00000000
00100000
00001000
00100000
00000000
,
00001000
00010000
00000010
00001000
,
00000002
00000103
00002000
00003100
,
00010000
00000000
00001000
00000000
00100000
00001000
00100000
00000000
,
00020000
01030000
20000000
31000000
,
00100000
00000000
00010000
01000000
00001000
00010000
00001000
00000000
,
00000200
00000302
00000013
00000010
,
00000100
00000000
00000100
00000000
00001000
00000010
00001000
00000000
,
00011000
00011000
10010000
01100000
,
10000000
00100000
10000000
00100000
02000000
00000000
03000000
00000000
,
00010000
00000000
00100000
00000000
00001000
00010000
00001000
00000000
,
00010000
00000000
00000000
00000010
00000000
00000000
00001000
00000000
,
00000001
00000010
00000001
00000000
00000010
00000000
00000010
00000000
,
00002000
00000000
00000000
00013000
,
00001000
00000000
01000000
00000000
00010000
00100000
00010000
00000000
,
10000000
00000000
00100000
00000000
01000000
00010000
01000000
00000000
,
00011000
00001001
00000110
00001010
,
00010000
00000000
00001000
00010000
00001000
00000000
00010000
00000000
,
02000000
00000000
13000000
00000000
00100000
01000000
00100000
00000000
,
10000000
00000000
00000000
00010000
00000000
00000000
00100000
00000000
,
00001000
00000000
00010000
00000010
00010000
00000000
00000100
00000000
,
00002000
00000000
00000001
00003001
,
00000100
00001000
00010000
01000000
,
10000000
00000000
10010000
00000000
00100000
00010000
00100000
00000000
,
00001000
00010000
00001000
00000100
,
00000001
00000100
00000001
00000000
00000010
00000000
00000100
00000000
,
00001000
00000100
00010000
00001000
,
01000000
00010000
01000000
00000000
00100000
00000000
10000000
00000000
,
11000000
00100000
00110000
00001000
,
00010000
00000100
00001100
00000000
,
00002002
00000000
00000000
00000000
,
00000000
00000000
00000000
00003003
,
00000200
00000000
00020300
00000000
,
00032000
00013000
00100000
10000000
,
01000000
00000000
00100000
00000000
00010000
00100000
00000000
00001000
,
00000000
00010000
00001000
00000010
,
00000001
00000010
00000001
00000000
00001000
00000100
00001000
00000000
,
00000100
00010000
00001000
00000000
01000000
00000000
00010000
00000000
,
10000000
00000000
00010000
00000000
00100000
00010000
01000000
00001000
,
00000000
00010000
00000000
00022000
00000000
00000000
00033000
00000000
,
00000010
00000000
00001000
00000000
00000100
00000000
00000010
00000001
,
00000010
00000100
00001000
00001001
,
00000100
00000000
00010000
00000000
00001000
00010000
00000000
00022000
,
00000000
00000000
00033000
01010000
,
00100000
00000000
10000000
00000000
00010000
00000000
01000000
00001000
,
00000000
00010000
00001000
00000000
00010000
00000000
00000010
00000000
,
00001000
00000000
00000001
00000000
00000020
00000000
00000000
00001030
,
00000000
00010000
00000000
00022000
00000000
00000000
00033000
00000000
,
00001000
00000000
01000000
00000000
00010000
00000000
01000000
00100000
,
00000000
10000000
00100000
00000000
01000000
00000000
00010000
00000000
,
00022000
00033000
00002002
00003003
,
00000010
00000001
00000100
00001000
,
00010000
02000000
13000000
00200000
,
01300000
00010000
01000000
00001000
00010000
00000000
00011000
00000000
,
00000000
00000000
00000000
00000000
;
#NOTES:
     dance-double:
     :
     Medium:
     12:
     :
00000000
00000000
00000000
00000000
,
00000000
00000000
00000000
00000000
,
00000000
00000000
00010000
00001000
00010000
00000000
00001100
00000000
,
00000200
00000310
00000001
00000100
,
00000010
00001000
00000010
00000000
00010000
00001000
00010000
00000000
,
00001000
00001000
00100000
00000000
00010000
00010000
10000000
00000000
,
01000000
01100000
00010000
00011000
,
00002000
00013000
00000010
00001000
,
00000001
00000100
00000001
00000000
00001000
00000100
00001000
00000000
,
00011000
01010000
11000000
00110000
,
00001000
00010000
00001000
00000000
00010010
00000000
00001010
00000000
,
00000002
00000000
00000013
00000000
00000100
00001000
00000100
00000000
,
00010000
00000000
00001000
00000000
01000000
00010000
01000000
00000000
,
00100000
00100000
20000000
00000000
31000000
01000000
00020000
00000000
,
00031000
00000000
00010000
00001000
00000100
00000000
00000110
00000000
,
00001000
00000001
00000100
00000110
,
00001000
00000100
00001000
00000000
00000010
00010000
00001000
00000000
,
00101000
00000000
00000000
01010000
00000000
00000000
21000000
00000000
,
00000000
30100000
00100000
00000000
01010000
00000000
00011000
00000000
,
00000100
00010000
00000100
00000000
00001000
00000010
00001000
00000000
,
00000001
00000010
00000001
00000000
00000100
00000000
00001000
00000000
,
00010000
00001000
00010000
00000000
00001000
00100000
00001000
00000000
,
01000000
00010000
01000000
00000000
00100000
00000000
10000000
00000000
,
01000000
01000000
00100000
00000000
00010000
00010000
01000000
00000000
,
00001000
00010000
00000010
00000000
00000100
00000010
00000200
00000000
,
00000301
00001000
00000001
00000000
00001000
00000100
00001000
00000000
,
00011000
00000000
00000000
10010000
00000000
00000000
01100000
00000000
,
10000000
00000000
00000000
00000000
01000000
00000000
00000000
00010000
00000000
00000000
00000000
00000000
00001000
00000000
00000000
00000000
,
00010000
00000010
00010000
00000000
00000100
00001000
00000100
00000000
,
00000010
00000000
00000010
00000001
00000000
00000000
00000100
00000000
00000100
00001000
00000000
00000000
,
00010000
00001000
00010000
00001000
00020000
00000000
00030000
00000000
,
00100000
10000000
01000000
00100000
,
00010000
00000000
00000000
00010000
00000000
00000000
01000000
00000000
00000000
01000000
00000000
00000000
00001000
00000000
00000000
00000000
,
00010000
00000010
00001000
00000000
00000100
00000010
00000100
00000000
,
00002000
00000000
00000000
00003001
,
00000011
00000000
00000100
00000000
00001000
00000100
00001000
00000000
,
00000100
00010000
00001000
00000000
00010000
00001000
00100000
00000000
,
00110000
01100000
11000000
01010000
,
00001000
00000000
00010000
00001000
00010000
00000100
00001000
00000000
,
00000002
00000000
00000013
00000000
00000001
00000100
00000001
00000000
,
00001000
00000000
00000000
00001000
00000000
00000000
00000010
00000000
00000000
00000010
00000000
00000000
00010000
00000000
00000000
00000000
,
00011000
00000000
00001000
00000000
00100000
00010000
00100000
01000000
,
20000000
00000000
00100000
31000000
,
00010000
01010000
00100000
00021000
,
00030100
00000000
00001100
00000000
00000001
00000010
00000001
00000000
,
00000100
00000000
00001000
00000000
00010000
00001000
00010000
00000000
,
01000000
00100000
01000000
00000000
10000000
00100000
01000000
00000000
,
00020000
00000000
00130000
00002000
00000000
00000000
00013000
00000000
,
00000100
00001000
00000100
00000000
00001000
00000001
00000010
00000000
,
00000001
00000100
00000001
00000000
00001000
00000100
00001000
00000000
,
00000001
00000010
00001000
00010000
,
00022000
00000000
00000000
00000000
,
00000000
00000000
00000000
00033000
,
02000000
00000000
03200000
00000000
,
00000000
00000000
10300000
01000000
10000000
00000000
01000000
00000000
,
00010000
00000000
00001000
00010000
00001000
00000100
00000000
00000001
,
00000000
00000010
00000100
00000000
00001000
00000100
00001000
00000000
,
00000001
00000010
00001000
00000000
00010000
01000000
10000000
00200000
,
00000000
01300000
00001000
00020000
00000000
00030100
00002000
00000000
,
00003010
00000000
00001001
00000000
00000010
00000001
00000100
00000010
,
00000000
00001000
00000000
00022000
00000000
00000000
00033000
00000000
,
00001000
00000000
00010000
00000000
01000000
10000000
01000000
00200000
,
00000000
00301000
00010000
00001000
00010000
00000000
00001100
00000000
,
00000001
00000000
00000100
00000010
00001000
00000100
00000000
00010000
,
00001000
00000000
00000000
00010000
00000000
00000000
01000000
00000000
00000000
00000000
00000000
00000000
11000000
00000000
00000000
00000000
,
00010000
00000000
10000000
00000000
01000000
00010000
00001000
00000200
,
00000000
00000301
00000100
00002000
00000000
00013000
00001000
00100000
,
00010000
00000000
10000000
00000000
00100000
01000000
00010000
00100000
,
00000000
00001000
00000000
00022000
00000000
00000000
00033000
00000000
,
00001010
00000000
00000011
00000000
00001000
00000100
00001000
00000020
,
00000000
00010030
00001000
00010000
00100000
00000000
10000000
00000000
,
11000000
00000000
00010000
01000000
00010000
00000000
00100000
00001000
,
00010000
00001000
00000100
00000001
,
00000010
00000001
00000200
00000000
00001300
00010000
02000000
00000000
,
13000000
00100000
01000000
00010000
00100000
00000000
00011000
00000000
,
00000000
00000000
00000000
00000000
;
#NOTES:
     dance-double:
     :
     Hard:
     15:
     :
00000000
00000000
00000000
00000000
,
00000000
00000000
00000000
00000000
,
00000000
00000000
00000001
00000100
00000010
00000000
00001001
00000000
,
00022000
00033000
00001000
00010000
01000000
10000000
00100000
01000000
,
00010000
00100000
00001000
00010000
00001000
00000100
00000001
00001000
,
00000010
00000100
00000010
00000000
00002000
00000000
00000000
00000000
00003100
00010000
00000100
00000000
00010000
00000000
00000000
00000000
,
00110000
00000000
00000000
10000000
00100000
01000000
00010000
00000000
00000000
00011000
00000000
00000000
,
00002000
00013000
00001100
00000101
,
00000001
00000010
00001000
00010000
00100000
10000000
01000000
10000000
,
00020000
00000000
00230000
00000000
00000000
00000000
00302000
00000000
00000000
00023000
00000000
00000000
00030020
00000000
00001030
00000000
,
00000001
00000100
00000001
00000000
00000011
00000000
00001100
00000000
,
00020000
00000000
00031000
01000000
00010000
01000000
00100000
00000000
,
10000000
01000000
00100000
00010000
00100000
00001000
00010000
00000000
,
00001000
00010000
00001000
00000000
00020000
00000000
00000000
00000000
00030100
00001000
00000100
00000000
00002000
00000000
00000000
00000000
,
00003001
00000000
00000000
00000000
00000100
00000000
00000010
00001000
00000100
00000000
00000000
00000000
00010100
00000000
00000000
00000000
,
01001000
00010000
10100000
01010000
,
10000000
00100000
00010000
00001000
00000010
00000001
00000010
00000100
,
00001000
00001000
00000100
00010000
00010000
00001000
00200000
00000000
,
00000000
00310000
01000000
00000000
11000000
00000000
10100000
00000000
,
02010000
03010000
10000000
01000000
00010000
00010000
00001000
00010000
,
00021000
00031000
00000100
00000001
00000010
00000010
00000001
00000000
,
00001020
00001030
00000001
00000100
00001000
00001000
00010000
00001000
,
00012000
00013000
01000000
10000000
00100000
00100000
10000000
00000000
,
20100000
30200000
02300000
03010000
00210000
00302000
00023000
00030010
,
00002010
00003002
00000023
00000130
00001200
00020300
00032000
00003000
,
00021000
00032000
02003000
03010000
20010000
30200000
02300000
03010000
,
00220000
00000000
00330000
00022000
00000000
00033000
00001010
00000000
,
00000002
00000000
00000000
00000000
00000013
00000000
00000000
00001000
00000000
00000000
00000010
00000000
00000001
00000000
00000000
00000000
,
00000100
00001000
00010000
01000000
10000000
01000000
00010000
00000000
,
00001000
00000000
00001000
00000010
00000000
00000010
00000001
00000000
00000001
00000100
00000000
00000000
,
00000010
00000010
00000010
00000010
00000020
00000000
00001030
00000000
,
00001100
00000000
00011000
00000000
00100000
00010000
10000000
01000000
,
11000000
00000000
00000000
01100000
00000000
00000000
00110000
00000000
00000000
00011000
00000000
00000000
00001010
00000000
00000000
00000000
,
00000001
00000000
00000100
00000000
00000010
00000000
00001000
00000000
00000100
00000000
00010000
00001000
00010000
00000000
00001000
00000000
,
02000000
00000000
00000000
03100000
,
11000000
00000000
00000000
00000000
01000000
00000000
00000000
00010000
00000000
00000000
01000000
00000000
10000000
00000000
00000000
00000000
,
00010000
00100000
00001000
00010000
00001000
00000100
00000001
00000100
,
00000010
00000000
00001000
00000000
00000010
00000000
00010000
00000000
00001000
00010000
00001000
00010000
00001000
00000000
00000000
00000000
,
00100000
00010000
01000000
00100000
10000000
01000000
00100000
00000000
,
00020000
00000000
01030000
00000000
00000100
00010000
00001000
00000000
,
00011000
00000000
00000000
00001100
00000000
00000000
00000101
00000000
00000000
00000011
00000000
00000000
00001000
00000000
00000100
00000000
,
00010000
00000000
00001000
00010000
00100000
00010000
00001000
00000010
,
00000002
00000000
00000010
00000013
,
00001000
00000000
00000000
00000000
00001001
00000000
00000000
00000000
00000010
00000000
00001000
00000010
00002000
00000000
00000000
00000000
,
00003100
00000000
00010100
00000000
00001000
00010000
01000000
10000000
,
00100000
10010000
01000000
00010000
,
00000010
00001000
00000100
00000010
00000001
00001000
00000100
00010000
,
00002000
00000000
00103000
00020000
00000000
00030000
10010000
00000000
,
01000000
10000000
00200000
00000000
10300000
01000000
00010000
00001000
,
00010000
00001000
00010000
00000000
00000100
00000000
00001000
00000000
00000010
00000100
00000010
00000000
00001000
00000000
00000001
00000000
,
00000100
00000000
00000100
00001000
00000000
00001000
00010000
00000000
00000000
00011000
00000000
00000000
,
02200000
00000000
00000000
00000000
,
00000000
00000000
00000000
03300000
,
10000000
00000000
00100000
00000000
00000000
10000000
00010000
00000000
01000000
00000000
00001000
00010000
00002000
00000000
00000000
00000000
,
00023000
00000000
00031000
00000010
00000001
00000000
00001001
00000000
,
00000100
00000001
00001000
00000100
00010000
00001000
00000000
01010000
,
00000000
00100000
10000000
01000000
00010000
00001000
00010000
00001000
,
00000010
00000001
00001000
00000100
00000010
00000001
00001000
00000001
,
00000002
00000203
00002300
00023000
00000000
00032000
00023000
00230000
,
10300000
00000000
11000000
00000000
00010000
00100000
00001000
00011000
,
00000000
00001010
00000000
00000022
00000000
00000000
00000033
00000000
,
00000100
00000010
00001000
00000010
00010000
00010000
00001000
00020000
,
00000000
00031000
00100000
00020000
00000000
01030000
01100000
00000000
,
10010000
00000000
01000000
00100000
10000000
11000000
00000000
00110000
,
00010000
00000000
00000000
01000000
00000000
00000000
00001000
00000000
00010000
00000000
00010000
00000000
00011000
00000000
00000000
00000000
,
00000010
00001000
00000010
00000100
00000001
00000010
00001000
00020000
,
00000000
00031000
00010000
02000000
00000000
13000000
00100000
00010000
,
00001000
00000000
00010000
00000000
00001000
00000100
00000010
00000110
,
00000000
00001010
00000000
00000022
00000000
00000000
00000033
00000000
,
00001000
00000100
00000000
00000000
00010000
00001000
00000000
00000000
00100000
00000000
00010000
00000000
00100000
00000000
02000000
00000000
,
00000000
13000000
00010000
00100000
00002000
00000000
00013000
00000000
,
00010100
00000000
00000000
00000000
00000010
00001000
00000010
00000000
00001000
00000000
00000000
00000000
00000001
00000100
00000001
00000000
,
00000010
00001000
00010000
00001000
,
00010000
00000000
01000000
00000000
00200000
00000000
00000000
00000000
00310000
10000000
00010000
00000000
02000000
00000000
00000000
00000000
,
03100000
10000000
01000000
00010000
00001000
00000000
00011000
00000000
,
00000000
00000000
00000000
00000000
;
