
//----- song ID: spar -----//
#TITLE:1998 (Sparky 2006);
#ARTIST:J-RAVERS;
#BANNER:1998 (Sparky 2006).png;
#BACKGROUND:1998 (Sparky 2006)-bg.png;
#CDTITLE:./CDTitles/HOTTEST PARTY.png;
#MUSIC:1998 (Sparky 2006).ogg;
#SAMPLESTART:16;
#SAMPLELENGTH:15;
#BPMS:0=150;
#NOTES:
     dance-single:
     :
     Beginner:
     2:
     :
0000
0000
0000
0000
,
0000
0000
0000
0000
,
0000
0000
0000
0000
,
0000
0000
0000
0000
,
1000
0000
0000
0000
,
0001
0000
0000
0000
,
1000
0000
1000
0000
,
1000
0000
0000
0000
,
0001
0000
0001
0000
,
0001
0000
0000
0000
,
1000
0000
0001
0000
,
1000
0000
0000
0000
,
0001
0000
1000
0000
,
0001
0000
0000
0000
,
1000
0000
1000
0000
,
0001
0000
0000
0000
,
0001
0000
0001
0000
,
1000
0000
0000
0000
,
1001
0000
0000
0000
,
0010
0000
0010
0000
,
0000
0000
0000
0000
,
0010
0000
0010
0000
,
0000
0000
0000
0000
,
1000
0000
1000
0000
,
0010
0000
0000
0000
,
1000
0000
1000
0000
,
0010
0000
0000
0000
,
0001
0000
0001
0000
,
0010
0000
0000
0000
,
0001
0000
0001
0000
,
0010
0000
0000
0000
,
1000
0000
0010
0000
,
1000
0000
0000
0000
,
0001
0000
0010
0000
,
0001
0000
0000
0000
,
2000
0000
0000
3000
,
0001
0000
0000
0000
,
0002
0000
0000
0003
,
1000
0000
0000
0000
,
1000
0000
1000
0000
,
0002
0000
0000
0003
,
1000
0000
0001
0000
,
2000
0000
0000
3000
,
1001
0000
0000
0000
,
0010
0000
0000
0000
,
0000
0000
0000
0000
,
0100
0000
0000
0000
,
0100
0000
0000
0000
,
1001
0000
0000
0000
,
1000
0000
0000
0000
,
0001
0000
0001
0000
,
0100
0000
0000
0000
,
1000
0000
1000
0000
,
0100
0000
0000
0000
,
0001
0000
0001
0000
,
0100
0000
0000
0000
,
1000
0000
0001
0000
,
0010
0000
0000
0000
,
0001
0000
1000
0000
,
0100
0000
0000
0000
,
1001
0000
0000
0000
,
0000
0000
0000
0000
;
#NOTES:
     dance-single:
     :
     Easy:
     6:
     :
0000
0000
0000
0000
,
0000
0000
0000
0000
,
0000
0000
0000
0000
,
0000
0000
0000
0000
,
0010
1000
0001
0001
,
0010
0001
1000
1000
,
0100
1000
0001
0001
,
0100
0001
1000
1000
,
0010
1000
0001
0001
,
2000
0000
0000
3000
0000
0000
0000
0000
0002
0000
0000
0003
0000
0000
0000
0000
,
1000
1000
0010
1000
,
0010
1000
0100
1000
,
0010
1000
0100
1000
,
0002
0000
0000
0003
1000
0000
1000
0000
,
0001
0001
0010
0001
,
0010
0001
0100
0001
,
0200
0000
0000
0310
,
1000
1000
0001
0001
,
1001
0000
1000
0001
,
0010
0000
0000
0010
0000
0000
0000
0000
,
0010
0000
0000
0010
0000
0000
0000
0000
,
0002
0000
2003
0000
,
3001
0000
1000
0001
,
0100
0000
0010
1000
,
0100
0010
0010
0001
,
0100
0010
0100
0001
,
1000
1001
0000
1000
,
0100
0001
0000
0001
,
0100
1000
0000
0001
,
0100
0100
0010
0010
,
1000
0000
0010
0100
,
0001
0001
1000
0001
,
1000
1000
0001
1000
,
0001
0001
0100
0100
,
0010
0010
1000
0000
,
0001
0100
0001
0100
,
0000
0100
0000
0100
,
0010
0100
0001
0100
,
0000
0100
0000
0100
,
0001
0010
0100
1000
,
1000
0010
0100
0001
,
0001
0100
0010
1000
,
1000
0100
0010
0001
,
0100
1000
0100
0001
,
0010
0000
0000
0010
0000
0000
0000
0000
,
0000
0000
0000
0000
,
0001
0000
1000
0000
,
1001
0110
1001
0110
,
1001
0000
0001
1000
,
0100
0001
0100
1000
,
0001
1000
1000
0001
,
0001
1000
1001
0000
,
0001
1000
0001
1000
,
0001
1000
1001
0001
,
1000
0001
1001
1000
,
0001
1000
1001
0000
,
1001
0000
1001
0000
,
1010
1010
0001
0001
,
0011
0011
1000
1000
,
1001
1001
0110
0110
,
0010
0100
0000
0110
0000
1001
0000
0000
,
0000
0000
0000
0000
;
#NOTES:
     dance-single:
     :
     Medium:
     11:
     :
0000
0000
0000
0000
,
0000
0000
0000
0000
,
0000
0000
0000
0000
,
0000
0000
0000
0000
,
1000
0001
0000
1000
0000
0001
0000
0000
1000
0000
0001
0000
1000
0000
0000
0000
,
0010
0100
0000
0010
0000
0100
0000
0000
0010
0000
0100
0000
0010
0000
0000
0000
,
1000
0001
0000
1000
0000
0001
0000
0000
1000
0000
0001
0000
1000
0000
0000
0000
,
0100
0010
0000
0100
0000
0010
0000
0000
0100
0000
0010
0000
0100
0000
0000
0000
,
1000
0010
0000
1000
0000
0010
0000
0000
1000
0000
0010
0000
1000
0000
0000
0000
,
0002
0000
0000
0003
0000
0000
0000
0000
0200
0000
0000
0300
0000
0000
0000
0000
,
1001
0000
0001
0001
1000
0000
0001
0000
,
0010
0010
0100
0000
1000
0000
0001
0000
,
0001
0000
0001
0000
1000
0000
0000
0000
1000
0000
1000
0001
0000
0000
0000
0000
,
0100
0000
0100
0000
0010
0000
0000
0000
0010
0000
0010
0100
0000
0000
0000
0000
,
0010
0010
1000
0000
1000
1000
0001
0000
,
0001
0001
0100
0000
0100
0100
0010
0000
,
1000
1000
0010
0010
0100
0100
0001
0000
,
1000
1000
0100
0100
0010
0010
0001
0000
,
2000
0000
0000
3000
,
1000
0000
1000
0000
0010
0000
0000
1000
0000
1000
0000
0010
0000
0000
1000
0000
,
0001
0000
0001
0000
0010
0000
0000
0001
0000
0001
0000
0010
0000
0000
0001
0000
,
1000
0000
1000
0000
0100
0000
0000
1000
0000
1000
0000
0100
0000
0000
1000
0000
,
0001
0000
0001
0000
0100
0000
0000
0001
0000
0001
0000
0100
0000
0000
0001
0000
,
1000
0000
0100
0000
0000
1000
0000
0100
0000
1000
0000
0100
0000
0000
1000
0000
,
0001
0000
0100
0000
0000
0001
0000
0100
0000
0001
0000
0100
0000
0000
0001
0000
,
1000
0000
0010
0000
0000
1000
0000
0010
0000
1000
0000
0010
0000
0000
1000
0000
,
0001
0000
0010
0000
0000
0001
0000
0010
0000
0001
0000
0010
0000
0000
0001
0000
,
1000
0000
0010
0000
1000
0000
0000
0010
0000
1000
0000
0010
0000
0000
1000
0000
,
0001
0000
0010
0000
0001
0000
0000
0010
0000
0001
0000
0010
0000
0000
0001
0000
,
1000
0000
0100
0000
1000
0000
0000
0100
0000
1000
0000
0100
0000
0000
1000
0000
,
0001
0000
0100
0000
0001
0000
0000
0100
0000
0001
0000
0100
0000
0000
0001
0000
,
1000
0000
0100
0000
0000
1000
0000
0100
0000
0010
0000
0100
0000
0000
1000
0000
,
0001
0000
0100
0000
0000
0001
0000
0100
0000
0010
0000
0100
0000
0000
0001
0000
,
1000
0000
0100
0000
0000
1000
0000
0100
0000
0010
0000
0001
0000
0000
1000
0000
,
0020
0000
0000
0000
,
0230
0000
0000
0000
0300
0000
0000
0100
,
0002
0000
0000
0000
0003
0000
0000
0001
,
2000
0000
0000
0000
,
3000
0000
0010
1000
,
0100
0000
0100
0000
1000
0100
0000
0100
,
1000
0000
1000
0000
0001
1000
0000
1000
,
0001
0000
0001
0000
0010
0001
0000
0002
,
0000
0000
0013
0001
,
1000
0001
1000
0001
1000
0001
1000
0001
1000
0001
1000
0001
,
2000
0000
0000
0000
0000
0000
0000
0000
0000
0000
0000
0000
0000
0000
0000
0000
0000
0000
0000
0000
0000
0000
0000
0000
0000
0000
0000
0000
0000
0000
0000
0000
0000
0000
0000
0000
0000
0000
0000
0000
0000
0000
0000
0000
0000
0000
0000
0000
0000
0000
0000
0000
0000
0000
0000
0000
0000
0000
0000
0000
0000
0000
0000
0000
0000
0000
0000
0000
0000
0000
0000
0000
0000
0000
0000
0000
0000
0000
0000
0000
0000
0000
0000
0000
0000
0000
0000
0000
0000
0000
0000
0000
0000
0000
0000
0000
0000
0000
0000
0000
0000
0000
0000
0000
0000
0000
0000
0000
0000
0000
0000
0000
0000
0000
0000
0000
0000
0000
0000
0000
0000
0000
0000
0000
0000
0000
0000
0000
0000
0000
0000
0000
0000
0000
0000
0000
0000
0000
0000
0000
0000
0000
0000
0000
0000
0000
0000
0000
0000
0000
0000
0000
0000
0000
0000
0000
0000
0000
0000
0000
0000
0000
0000
0000
0000
0000
0000
0000
0000
0000
0000
0000
0000
0000
0000
0000
0000
0000
0000
0000
0000
0000
0000
0000
0000
0000
0000
0000
0000
0000
0000
3000
,
0000
0000
0000
0000
0000
0000
0000
0001
,
1000
0000
0001
0000
,
1001
0011
1001
1010
,
1000
0000
0001
0000
0000
0010
0000
0001
0000
1000
0000
0100
0000
0000
0010
0000
,
0001
0000
1000
0000
0000
0010
0000
1000
0000
0001
0000
0100
0000
0000
0010
0000
,
1000
0000
0001
0000
0000
1000
0000
0100
0000
0010
0000
0001
0000
0000
1000
0000
,
0001
0000
1000
0000
0000
0001
0000
0100
0000
0010
0000
1000
0000
0000
0001
0000
,
0010
0000
0001
0000
0100
0000
0000
0100
0000
0001
0000
1000
0000
0000
1000
0000
,
0010
0000
1000
0000
0100
0000
0000
0100
0000
1000
0000
0001
0000
0000
0001
0000
,
0100
0000
0001
0000
0010
0000
0000
0010
0000
0001
0000
1000
0000
0000
1000
0000
,
0100
0000
1000
0000
0010
0000
0000
0010
0000
1000
0000
0001
0000
0000
0001
0000
,
1000
0000
0001
0000
0000
1000
0000
0100
0000
0010
0000
0100
0000
0000
1000
0000
,
0001
0000
1000
0000
0000
0001
0000
0100
0000
0010
0000
0100
0000
0000
0001
0000
,
1000
0000
0001
0000
0000
1000
0000
0100
0000
0001
0000
0100
0000
0000
1000
0000
,
0001
0000
1000
0000
0000
0001
0000
0100
0000
1000
0000
0100
0000
0000
0001
0000
,
1000
0000
0000
0100
0000
0000
1001
0000
0000
0000
0000
0000
0000
0000
0000
0000
,
0000
0000
0000
0000
;
#NOTES:
     dance-single:
     :
     Hard:
     14:
     :
0000
0000
0000
0000
,
0000
0000
0000
0000
,
0000
0000
0000
0000
,
0000
0000
0000
0000
,
0010
1000
0010
1000
0000
0001
0000
0100
0010
0000
0100
0000
0010
0000
0100
0000
,
0010
1000
0010
1000
0000
0010
0000
0100
0001
0000
1000
0000
0001
0000
0001
0000
,
0010
0001
0010
0001
0000
1000
0000
0100
0010
0000
0100
0000
0010
0000
0100
0000
,
0010
0001
0010
0001
0000
0010
0000
0100
1000
0000
0001
0000
1000
0000
1000
0000
,
0010
1000
0010
1000
0000
0001
0000
0100
1000
0000
0100
0000
1000
0000
0100
0000
,
0020
0000
0000
0000
0000
0030
0000
0000
2000
0000
0000
0000
0000
3000
0000
0000
,
1000
0000
0100
1000
0100
0000
0010
0000
0100
0000
1000
0100
1000
0000
0001
0000
,
0001
0000
0100
0001
0100
0000
0010
0000
0100
0000
0001
0100
0001
0000
1000
0000
,
1000
0000
0100
0010
0100
0000
0010
0000
0001
0000
1000
0100
1000
0000
0001
0000
,
0001
0000
0100
0010
0100
0000
0010
0000
1000
0000
0001
0100
0001
0000
1000
0000
,
1000
0000
0010
1000
0010
0000
0100
0000
0010
0000
1000
0010
1000
0000
0001
0000
,
0001
0000
0010
0001
0010
0000
0100
0000
0010
0000
0001
0010
0001
0000
1000
0000
,
1000
0000
0010
0100
0010
0000
0100
0000
0001
0000
1000
0010
1000
0000
0001
0000
,
0001
0000
0010
0100
0010
0000
0100
0000
1000
0000
0001
0010
0001
0000
1000
0000
,
0002
0000
0000
0003
,
1000
0000
0001
0000
0010
0001
0000
1000
0000
0001
0000
0010
0001
0000
1000
0000
,
0100
0000
0010
0000
0001
1000
0000
0100
0000
0010
0000
0001
1000
0000
0100
0000
,
1000
0000
0001
0000
0100
0001
0000
1000
0000
0001
0000
0100
0001
0000
1000
0000
,
0010
0000
0100
0000
0001
1000
0000
0010
0000
0100
0000
0001
1000
0000
0010
0000
,
0100
0000
0001
0100
0000
0001
0000
1000
0000
0100
0000
1000
0100
0000
0010
0000
,
0100
0000
1000
0100
0000
1000
0000
0001
0000
0100
0000
0001
0100
0000
0001
0000
,
0010
0000
0001
0010
0000
0001
0000
1000
0000
0010
0000
1000
0010
0000
0100
0000
,
0010
0000
1000
0010
0000
1000
0000
0001
0000
0010
0000
0001
0010
0000
0001
0000
,
1000
0000
0100
0000
0010
0001
0000
1000
0000
0100
0000
0010
0001
0000
1000
0000
,
0001
0000
0100
0000
0010
0100
0000
0001
0000
0100
0000
0010
0100
0000
0001
0000
,
1000
0000
0010
0000
0100
0001
0000
1000
0000
0010
0000
0100
0001
0000
1000
0000
,
0100
0000
0010
0000
0100
1000
0000
0100
0000
0010
0000
0100
1000
0000
0100
0000
,
1000
0000
0001
1000
0000
0010
0000
0100
0000
0010
0000
1000
0001
0000
1000
0000
,
0010
0000
1000
0010
0000
0100
0000
0001
0000
0100
0000
0010
1000
0000
0010
0000
,
1000
0000
0100
1000
0000
0001
0000
0010
0000
0001
0000
1000
0100
0000
1000
0000
,
0002
0000
0000
0000
,
0103
0000
0002
0103
,
0020
0130
0002
0103
,
0020
0130
2000
3100
,
0020
0130
0002
0103
,
0100
0000
0001
0000
0100
0000
0001
0000
0100
0000
0001
0000
0100
0001
1000
0000
,
0100
0000
1000
0000
0100
0000
1000
0000
0100
0000
1000
0000
0100
1000
0001
0000
,
0010
0000
0001
0000
0010
0000
0001
0000
0010
0000
0001
0000
0010
0001
1000
0000
,
0010
0000
1000
0000
0010
0000
1000
0000
0010
0000
1000
0000
0010
1000
0001
0000
,
1000
0001
0010
0001
1000
0100
1000
0001
0100
0001
1000
0010
,
2000
0000
0000
0000
,
3002
0000
0000
0000
0000
0000
0003
1000
,
0010
0000
0100
0000
,
0110
1010
0101
1001
,
1000
0000
1000
0001
0000
0001
0000
0010
0000
0100
0000
0010
0001
0000
1000
0000
,
0001
0000
0001
1000
0000
1000
0000
0010
0000
0100
0000
0010
1000
0000
0001
0000
,
1000
0000
1000
0001
0000
0001
0000
1000
0000
0100
0000
0010
0100
0000
1000
0000
,
0001
0000
0001
1000
0000
1000
0000
0001
0000
0100
0000
0010
0100
0000
0001
0000
,
1000
0000
0010
0000
1000
0010
0000
0100
0000
1000
0000
0100
0001
0000
0100
0000
,
0001
0000
0010
0000
0001
0010
0000
0100
0000
0001
0000
0100
1000
0000
0100
0000
,
1000
0000
0010
0000
1000
0010
0000
0001
0000
0010
0000
1000
0010
0000
1000
0000
,
0001
0000
0010
0000
0001
0010
0000
1000
0000
0010
0000
0001
0010
0000
0001
0000
,
1000
0000
0001
0010
0000
1000
0000
0001
0000
0100
0000
0010
0001
0000
1000
0000
,
0001
0000
1000
0010
0000
0001
0000
1000
0000
0100
0000
0010
1000
0000
0001
0000
,
1000
0000
0001
0100
0000
1000
0000
0001
0000
0010
0000
0100
0001
0000
1000
0000
,
0001
0000
1000
0100
0000
0001
0000
1000
0000
0010
0000
0100
1000
0000
0001
0000
,
0100
0000
0000
0110
0000
0000
0101
0000
0000
0000
0000
0000
0000
0000
0000
0000
,
0000
0000
0000
0000
;
#NOTES:
     dance-double:
     :
     Easy:
     8:
     :
00000000
00000000
00000000
00000000
,
00000000
00000000
00000000
00000000
,
00000000
00000000
00000000
00000000
,
00000000
00000000
00000000
00000000
,
00100000
00001000
00010000
00010000
,
00000010
00010000
00001000
00001000
,
01000000
00001000
00010000
00010000
,
00000100
00010000
00001000
00001000
,
00100000
00001000
00010000
00010000
,
00002000
00000000
00000000
00003000
00000000
00000000
00000000
00000000
00020000
00000000
00000000
00030000
00000000
00000000
00000000
00000000
,
00001000
00000000
00001000
00000000
00100000
00001000
00000000
00100000
,
00000000
00000000
00001000
00000000
01000000
00001000
00000000
00100000
,
00000000
00000000
00001000
00000000
01000000
00001000
00000000
00000000
,
00020000
00000000
00000000
00030000
00001000
00000000
00001000
00000000
,
00010000
00000000
00010000
00000000
00000010
00010000
00000000
00000010
,
00000000
00000000
00010000
00000000
00000100
00010000
00000000
00000000
,
00000200
00000000
00000000
00000310
,
00001000
00001000
00010000
00010000
,
00011000
00000000
00000000
00000000
00001000
00010000
00000000
00001000
,
00100000
00000000
00000000
00100000
00000000
00000000
00000000
00000000
,
00100000
00001000
00000000
00001000
00000000
00000000
00000000
00000000
,
00020000
00000000
00000000
00000000
00032000
00000000
00000000
00013000
,
00000000
00000000
00001000
00010000
,
00000100
00000000
00000000
00000010
00000000
00000100
00000000
00000010
,
00000000
00000100
00000000
00001000
00000000
00000001
00000000
00001000
,
00000000
00000001
00000000
00000100
00000000
00001000
00000000
00000100
,
00000000
00001000
00010000
00000000
00000000
00001000
00000000
00001000
,
01000000
00000000
01000000
00000000
00000000
00001000
00000000
00001000
,
01000000
00000000
01000000
00000000
00000000
00010000
00000000
00010000
,
01000000
00000000
00000000
00100000
00000000
00100000
00000000
00100000
,
10000000
00000000
00100000
01000000
,
00001000
00000000
00000000
00010000
00001000
00000000
00010000
00000000
,
00001000
00010000
00000000
00011000
00000000
00000000
00000000
00000000
,
00000000
00000000
00000000
00000100
00010000
00000000
00010000
00000010
,
00000000
00000010
00010000
00000000
00001000
00000000
00000000
00000000
,
00001000
01000000
00010000
01000000
,
00000000
01000000
00000000
01000000
,
00100000
01000000
00010000
01000000
,
00000000
01000000
00000000
01000000
,
00100000
10000000
01000000
00010000
,
00001000
00000010
00000001
00000100
,
00001000
00010000
00100000
01000000
,
00001000
00010000
00000100
00000010
,
00000001
00000100
00001000
00010000
,
00100000
00010000
00000000
00001000
00000000
00010000
00000000
00000000
,
00000000
00000000
00000000
00001000
00000000
00000000
00010000
00000000
,
00001000
00000000
00011000
00000000
,
00011000
00000010
00011000
00100000
,
00011000
00000000
00000000
00011000
00000000
00010000
00000000
00000100
,
00000000
00001000
00000000
00000100
00000000
00010000
00000000
00001000
,
00000000
00010000
00000000
00010000
00000000
00001000
00000000
00001000
,
00010000
00000000
00001000
00010000
00000000
00001000
00000000
00011000
,
00000000
00001000
00000000
00010000
00000000
00001000
00010000
00000000
,
00001000
00010000
00000000
00000010
00000000
00010000
00001000
00000000
,
00010000
00001000
00000000
00100000
00000000
00001000
00010000
00000000
,
00001000
00010000
00000000
00000010
00000000
00010000
00000000
00011000
,
00000000
00001000
00000000
00011000
00000000
00001000
00000000
00101000
,
00000000
00100000
00000000
00011000
00000000
00010000
00000000
00010100
,
00000000
00010000
00000000
00011000
00000000
00001000
00010000
00000000
,
00010010
00011000
01001000
00011000
,
00010000
00001000
00000000
00100000
00000000
00101000
00000000
00000000
,
00000000
00000000
00000000
00000000
;
#NOTES:
     dance-double:
     :
     Medium:
     11:
     :
00000000
00000000
00000000
00000000
,
00000000
00000000
00000000
00000000
,
00000000
00000000
00000000
00000000
,
00000000
00000000
00000000
00000000
,
00100000
00001000
00000000
00010000
00000000
00001000
00000000
00000000
00010000
00000000
00000000
00000000
00000100
00000000
00000000
00000000
,
00000010
00000001
00000000
00001000
00000000
00000001
00000000
00000000
00001000
00000000
00000000
00000000
00000010
00000000
00000000
00000000
,
00000010
00010000
00000000
00001000
00000000
00010000
00000000
00000000
00001000
00000000
00000000
00000000
01000000
00000000
00000000
00000000
,
00100000
10000000
00000000
00010000
00000000
10000000
00000000
00000000
00010000
00000000
00000000
00000000
00100000
00000000
00000000
00000000
,
00100000
00001000
00000000
00010000
00000000
00000100
00000000
00000000
00001000
00000000
00000000
00000000
00000100
00000000
00000000
00000000
,
00020000
00000000
00000000
00030000
00000000
00000000
00000000
00000000
00002000
00000000
00000000
00003000
00000000
00000000
00000000
00000000
,
00011000
00000000
00010000
00010000
00000100
00000000
00010000
00000000
,
00001000
00001000
00100000
00000000
00001000
00000000
00010000
00000000
,
00000010
00000000
00010000
00000000
00001000
00000000
00000000
00000000
00010000
00000000
00010000
00001000
00000000
00000000
00000000
00000000
,
00100000
00000000
00001000
00000000
00010000
00000000
00000000
00000000
00001000
00000000
00001000
00010000
00000000
00000000
00000000
00000000
,
00001000
00001000
01000000
00000000
01000000
01000000
00001000
00000000
,
00010000
00010000
00000010
00000000
00000010
00000010
00010000
00000000
,
00001000
00001000
00100000
00100000
00001000
00001000
00010000
00000000
,
00010000
00010000
00000100
00000100
00010000
00010000
00001000
00000000
,
00020000
00000000
00002000
00033000
,
00001000
00000000
00010000
00000000
00000010
00000000
00000000
00001000
00000000
00000001
00000000
00000010
00000000
00000000
00000001
00000000
,
00000100
00000000
00001000
00000000
00010000
00000000
00000000
00000100
00000000
00010000
00000000
00001000
00000000
00000000
00010000
00000000
,
00001000
00000000
00010000
00000000
00100000
00000000
00000000
00010000
00000000
00001000
00000000
00100000
00000000
00000000
00001000
00000000
,
00010000
00000000
00100000
00000000
10000000
00000000
00000000
00010000
00000000
10000000
00000000
00010000
00000000
00000000
10000000
00000000
,
01000000
00000000
10000000
00000000
00000000
00010000
00000000
01000000
00000000
00010000
00000000
01000000
00000000
00000000
00001000
00000000
,
00010000
00000000
00001000
00000000
00000000
00000100
00000000
00000010
00000000
00000100
00000000
00000010
00000000
00000000
00000100
00000000
,
00000001
00000000
00000100
00000000
00000000
00000010
00000000
00010000
00000000
00000010
00000000
00010000
00000000
00000000
00001000
00000000
,
00010000
00000000
00001000
00000000
00000000
00100000
00000000
00001000
00000000
00100000
00000000
00001000
00000000
00000000
00010000
00000000
,
00001000
00000000
00000100
00000000
00000010
00000000
00000000
00001000
00000000
00000010
00000000
00001000
00000000
00000000
00000001
00000000
,
00000100
00000000
00001000
00000000
00010000
00000000
00000000
00000100
00000000
00010000
00000000
00000100
00000000
00000000
00010000
00000000
,
00001000
00000000
00010000
00000000
00100000
00000000
00000000
10000000
00000000
00010000
00000000
01000000
00000000
00000000
00010000
00000000
,
00100000
00000000
00010000
00000000
01000000
00000000
00000000
00100000
00000000
10000000
00000000
01000000
00000000
00000000
10000000
00000000
,
01000000
00000000
00100000
00000000
00000000
00001000
00000000
00010000
00000000
00001000
00000000
00010000
00000000
00000000
00001000
00000000
,
00000010
00000000
00001000
00000000
00000000
00100000
00000000
00010000
00000000
00100000
00000000
00001000
00000000
00000000
00010000
00000000
,
01000000
00000000
00010000
00000000
00000000
00001000
00000000
00010000
00000000
00001000
00000000
01000000
00000000
00000000
00010000
00000000
,
20000000
00000000
00000000
00000000
,
32000000
00000000
00000000
00000000
03000000
00000000
00000000
01000000
,
00020000
00000000
00000000
00000000
00030000
00000000
00000000
00010000
,
00002000
00000000
00000000
00000000
,
00003000
00000000
00000010
00000001
,
00000100
00000000
00000100
00000000
00000001
00000100
00000000
00000100
,
00001000
00000000
00001000
00000000
00000100
00001000
00000000
00001000
,
00010000
00000000
00010000
00000000
00001000
00010000
00000000
00020000
,
00000000
00000000
00130000
00010000
,
00001000
00010000
00001000
00010000
00001000
00010000
00001000
00010000
00001000
00010000
00001000
00010000
,
00002000
00000000
00000000
00000000
00000000
00000000
00000000
00000000
00000000
00000000
00000000
00000000
00000000
00000000
00000000
00000000
00000000
00000000
00000000
00000000
00000000
00000000
00000000
00000000
00000000
00000000
00000000
00000000
00000000
00000000
00000000
00000000
00000000
00000000
00000000
00000000
00000000
00000000
00000000
00000000
00000000
00000000
00000000
00000000
00000000
00000000
00000000
00000000
00000000
00000000
00000000
00000000
00000000
00000000
00000000
00000000
00000000
00000000
00000000
00000000
00000000
00000000
00000000
00000000
00000000
00000000
00000000
00000000
00000000
00000000
00000000
00000000
00000000
00000000
00000000
00000000
00000000
00000000
00000000
00000000
00000000
00000000
00000000
00000000
00000000
00000000
00000000
00000000
00000000
00000000
00000000
00000000
00000000
00000000
00000000
00000000
00000000
00000000
00000000
00000000
00000000
00000000
00000000
00000000
00000000
00000000
00000000
00000000
00000000
00000000
00000000
00000000
00000000
00000000
00000000
00000000
00000000
00000000
00000000
00000000
00000000
00000000
00000000
00000000
00000000
00000000
00000000
00000000
00000000
00000000
00000000
00000000
00000000
00000000
00000000
00000000
00000000
00000000
00000000
00000000
00000000
00000000
00000000
00000000
00000000
00000000
00000000
00000000
00000000
00000000
00000000
00000000
00000000
00000000
00000000
00000000
00000000
00000000
00000000
00000000
00000000
00000000
00000000
00000000
00000000
00000000
00000000
00000000
00000000
00000000
00000000
00000000
00000000
00000000
00000000
00000000
00000000
00000000
00000000
00000000
00000000
00000000
00000000
00000000
00000000
00000000
00000000
00000000
00000000
00000000
00000000
00003000
,
00000000
00000000
00000000
00000000
00000000
00000000
00000000
00010000
,
00001000
00000000
00100000
00000000
,
00101000
00011000
00010010
00011000
,
00010000
00000000
00001000
00000000
00000000
00010000
00000000
00100000
00000000
01000000
00000000
00100000
00000000
00000000
01000000
00000000
,
00001000
00000000
00010000
00000000
00000000
00001000
00000000
00000100
00000000
00000010
00000000
00000100
00000000
00000000
00000010
00000000
,
00010000
00000000
00001000
00000000
00000000
00010000
00000000
00100000
00000000
10000000
00000000
00100000
00000000
00000000
01000000
00000000
,
00001000
00000000
00010000
00000000
00000000
00001000
00000000
00000100
00000000
00000001
00000000
00000100
00000000
00000000
00000001
00000000
,
00001000
00000000
00000010
00000000
00001000
00000000
00000000
00000010
00000000
00001000
00000000
00010000
00000000
00000000
01000000
00000000
,
00100000
00000000
00010000
00000000
00100000
00000000
00000000
00010000
00000000
00001000
00000000
00000100
00000000
00000000
00000010
00000000
,
00000100
00000000
00001000
00000000
00000100
00000000
00000000
00001000
00000000
00010000
00000000
00100000
00000000
00000000
10000000
00000000
,
00010000
00000000
01000000
00000000
00010000
00000000
00000000
00100000
00000000
01000000
00000000
10000000
00000000
00000000
00100000
00000000
,
00010000
00000000
00001000
00000000
00000000
00010000
00000000
00001000
00000000
00000100
00000000
00001000
00000000
00000000
00010000
00000000
,
00001000
00000000
00010000
00000000
00000000
00001000
00000000
00010000
00000000
01000000
00000000
00010000
00000000
00000000
00001000
00000000
,
00010000
00000000
00001000
00000000
00000000
00010000
00000000
00001000
00000000
00000010
00000000
00001000
00000000
00000000
00010000
00000000
,
00001000
00000000
00010000
00000000
00000000
00001000
00000000
00010000
00000000
00100000
00000000
00010000
00000000
00000000
00001000
00000000
,
00010000
00000000
00000000
00000100
00000000
00000000
00001000
00000000
00000000
00000000
00000000
00000000
00000000
00000000
00000000
00000000
,
00000000
00000000
00000000
00000000
;
#NOTES:
     dance-double:
     :
     Hard:
     14:
     :
00000000
00000000
00000000
00000000
,
00000000
00000000
00000000
00000000
,
00000000
00000000
00000000
00000000
,
00000000
00000000
00000000
00000000
,
00100000
00001000
00100000
00001000
00000000
00010000
00000000
00000100
00001000
00000000
00000100
00000000
00001000
00000000
00000100
00000000
,
00000010
00000001
00000010
00000001
00000000
00001000
00000000
00001000
00000010
00000000
00001000
00000000
00000010
00000000
00001000
00000000
,
00000010
00010000
00000010
00010000
00000000
00001000
00000000
01000000
00010000
00000000
01000000
00000000
00010000
00000000
01000000
00000000
,
00100000
10000000
00100000
10000000
00000000
00010000
00000000
00010000
00100000
00000000
00010000
00000000
00100000
00000000
00010000
00000000
,
00100000
00001000
00100000
00001000
00000000
00010000
00000000
00000100
00001000
00000000
00000100
00000000
00001000
00000000
00000100
00000000
,
00000020
00000000
00000000
00000000
00000000
00000030
00000000
00000000
00002000
00000000
00000000
00000000
00000000
00003000
00000000
00000000
,
00010000
00000000
00000100
00010000
00000100
00000000
00001000
00000000
00000100
00000000
00010000
00000100
00010000
00000000
00001000
00000000
,
00001000
00000000
01000000
00001000
01000000
00000000
00010000
00000000
01000000
00000000
00001000
01000000
00001000
00000000
00010000
00000000
,
00010000
00000000
00000100
00010000
00000100
00000000
00000010
00000000
00000100
00000000
00010000
00000100
00010000
00000000
00001000
00000000
,
00001000
00000000
01000000
00001000
01000000
00000000
00100000
00000000
01000000
00000000
00001000
01000000
00001000
00000000
00010000
00000000
,
00010000
00000000
00000010
00010000
00000010
00000000
00001000
00000000
00000010
00000000
00010000
00000010
00010000
00000000
00001000
00000000
,
00001000
00000000
00100000
00001000
00100000
00000000
00010000
00000000
00100000
00000000
00001000
00100000
00001000
00000000
00010000
00000000
,
00010000
00000000
00000010
00010000
00000010
00000000
00000100
00000000
00000010
00000000
00010000
00000010
00010000
00000000
00001000
00000000
,
00001000
00000000
00100000
00001000
00100000
00000000
01000000
00000000
00100000
00000000
00001000
00100000
00001000
00000000
00010000
00000000
,
00002000
00000000
00000000
00003000
,
00010000
00000000
00001000
00000000
00100000
00010000
00000000
10000000
00000000
00010000
00000000
00100000
00010000
00000000
10000000
00000000
,
01000000
00000000
00010000
00000000
00001000
00010000
00000000
01000000
00000000
00010000
00000000
00001000
00010000
00000000
01000000
00000000
,
00010000
00000000
00001000
00000000
00000010
00001000
00000000
00010000
00000000
00001000
00000000
00000010
00001000
00000000
00010000
00000000
,
00001000
00000000
00000010
00000000
00000001
00001000
00000000
00000001
00000000
00000010
00000000
00000001
00001000
00000000
00000001
00000000
,
00000100
00000000
00000001
00000100
00000000
00000001
00000000
00001000
00000000
00000100
00000000
00001000
00000100
00000000
00010000
00000000
,
00001000
00000000
01000000
00010000
00000000
01000000
00000000
00010000
00000000
10000000
00000000
01000000
10000000
00000000
00010000
00000000
,
00100000
00000000
00001000
00010000
00000000
00000100
00000000
00001000
00000000
00000100
00000000
00010000
00001000
00000000
00100000
00000000
,
00001000
00000000
00010000
00000010
00000000
00001000
00000000
00000010
00000000
00010000
00000000
00001000
01000000
00000000
00010000
00000000
,
10000000
00000000
01000000
00000000
00100000
00010000
00000000
10000000
00000000
01000000
00000000
00100000
00010000
00000000
10000000
00000000
,
01000000
00000000
00010000
00000000
00001000
00000010
00000000
00001000
00000000
00010000
00000000
01000000
00010000
00000000
00001000
00000000
,
00000010
00000000
00000001
00000000
00001000
00000100
00000000
00000010
00000000
00000001
00000000
00001000
00000100
00000000
00000010
00000000
,
00000001
00000000
00000100
00000000
00000010
00001000
00000000
00000001
00000000
00000100
00000000
00000010
00001000
00000000
00000001
00000000
,
00000100
00000000
00000010
00001000
00000000
00000010
00000000
00010000
00000000
00001000
00000000
00010000
00000010
00000000
00001000
00000000
,
00000010
00000000
00010000
00001000
00000000
00100000
00000000
00010000
00000000
00100000
00000000
00001000
00010000
00000000
00001000
00000000
,
01000000
00000000
00010000
01000000
00000000
00001000
00000000
00010000
00000000
00001000
00000000
01000000
00010000
00000000
10000000
00000000
,
00020000
00000000
00000000
00000000
,
01030000
00000000
00020000
01030000
,
00002000
01003000
00020000
01030000
,
00200000
01300000
20000000
31000000
,
00200000
01300000
00020000
01030000
,
01000000
00000000
00010000
00000000
01000000
00000000
00001000
00000000
01000000
00000000
00010000
00000000
01000000
00001000
01000000
00000000
,
00001000
00000000
00010000
00000000
00000010
00000000
00010000
00000000
00001000
00000000
00010000
00000000
00000010
00010000
00000010
00000000
,
00001000
00000000
00000001
00000000
00000100
00000000
00000001
00000000
00001000
00000000
00000001
00000000
00000100
00000001
00000100
00000000
,
00001000
00000000
00010000
00000000
00001000
00000000
00100000
00000000
00001000
00000000
00010000
00000000
00001000
00100000
00001000
00000000
,
00010000
00001000
00100000
00001000
00010000
00000100
00010000
00001000
01000000
00001000
00010000
00000010
,
00002000
00000000
00000000
00000000
,
00003002
00000000
00000000
00000000
00000000
00000000
00000003
00001000
,
00000010
00000000
00000100
00000000
,
00000110
00001010
00010010
00011000
,
00001000
00000000
00001000
00010000
00000000
00010000
00000000
00100000
00000000
01000000
00000000
00100000
10000000
00000000
00100000
00000000
,
00010000
00000000
00010000
00001000
00000000
00001000
00000000
00000100
00000000
00000010
00000000
00000100
00000001
00000000
00000100
00000000
,
00001000
00000000
00001000
00010000
00000000
00010000
00000000
00100000
00000000
10000000
00000000
00100000
01000000
00000000
00100000
00000000
,
00010000
00000000
00010000
00001000
00000000
00001000
00000000
00000100
00000000
00000001
00000000
00000100
00000010
00000000
00000100
00000000
,
00000001
00000000
00000010
00000000
00000001
00000010
00000000
00001000
00000000
00010000
00000000
00001000
00010000
00000000
01000000
00000000
,
00100000
00000000
00010000
00000000
00100000
00010000
00000000
00001000
00000000
00000100
00000000
00001000
00000100
00000000
00000010
00000000
,
00000001
00000000
00000010
00000000
00000001
00000010
00000000
00000100
00000000
00001000
00000000
00010000
00100000
00000000
00010000
00000000
,
10000000
00000000
01000000
00000000
10000000
01000000
00000000
00100000
00000000
00010000
00000000
00001000
00000100
00000000
00001000
00000000
,
00000001
00000000
00001000
00000010
00000000
00001000
00000000
00010000
00000000
01000000
00000000
00001000
01000000
00000000
00001000
00000000
,
00100000
00000000
00010000
00100000
00000000
00010000
00000000
00001000
00000000
00000100
00000000
00010000
00000100
00000000
00010000
00000000
,
00000100
00000000
00001000
00000100
00000000
00001000
00000000
00010000
00000000
00100000
00000000
00001000
00010000
00000000
00001000
00000000
,
01000000
00000000
00010000
01000000
00000000
00010000
00000000
00001000
00000000
00000010
00000000
00010000
00001000
00000000
00010000
00000000
,
00001000
00000000
00000000
01010000
00000000
00000000
01001000
00000000
00000000
00000000
00000000
00000000
00000000
00000000
00000000
00000000
,
00000000
00000000
00000000
00000000
;
