
//----- song ID: vsss -----//
#TITLE:voltississimo;
#ARTIST:BEMANI Sound Team "PHQUASE";
#BANNER:voltississimo.png;
#BACKGROUND:voltississimo-bg.png;
#CDTITLE:./CDTitles/DDR A20.png;
#MUSIC:voltississimo.ogg;
#SAMPLESTART:61.301;
#SAMPLELENGTH:15;
#BPMS:0=225,228=112.5,232=225;
#STOPS:388=0.133,388.5=0.133,389=0.133,389.5=0.133;
#NOTES:
     dance-single:
     :
     Beginner:
     5:
     :
0000
0000
0000
0000
,
0000
0000
0000
0000
,
0000
0000
0000
0000
,
0000
0000
0000
0000
,
0000
0000
0000
0000
,
0000
0000
0000
0000
,
0000
0000
0000
0000
,
0000
0000
0000
0000
,
0000
0000
0000
0000
,
0000
0000
0000
0000
,
0001
0000
0001
0000
,
0001
0001
0001
0000
,
1000
0000
1000
0000
,
1000
1000
1000
0000
,
0010
0000
0010
0000
,
0010
0010
0010
0000
,
0100
0000
0100
0000
,
0100
0100
0100
0000
,
0001
0000
0001
0000
,
1000
0000
1000
0000
,
0010
0000
0100
0000
,
0010
0000
0000
0000
,
1000
0000
1000
0000
,
0001
0000
0001
0000
,
0100
0000
0010
0000
,
0100
0100
0100
0000
,
0010
0000
0010
0000
,
0100
0000
0100
0000
,
0001
0000
1000
0000
,
0001
0000
0000
0000
,
0100
0000
0100
0000
,
0010
0000
0010
0000
,
2000
0000
3000
0000
,
0002
0000
0003
0000
,
1001
0000
0000
0000
,
0000
0000
0000
0000
,
1001
0000
0000
0000
,
0000
0000
0000
0000
,
1001
0000
0000
0000
,
0000
0000
0000
0000
,
1001
0000
0000
0000
,
0000
0000
0000
0000
,
0100
0000
0000
0000
,
0000
0000
0000
0000
,
0010
0000
0000
0000
,
0000
0000
0000
0000
,
0200
0000
0000
0000
,
0300
0000
0000
0000
,
0000
0000
0000
0000
,
0001
0000
0001
0000
,
1000
1000
1000
0000
,
1000
0000
1000
0000
,
0001
0001
0001
0000
,
0010
0000
0010
0000
,
0100
0100
0100
0000
,
0100
0000
0100
0000
,
0010
0010
0010
0010
,
0000
0000
0000
0000
,
1000
0000
0010
0000
,
0001
0000
0010
0000
,
0100
0000
0010
0000
,
0001
0000
1001
0000
,
0001
0000
0010
0000
,
1000
0000
0010
0000
,
0100
0000
0010
0000
,
1000
0000
1001
0000
,
0020
0000
0030
0000
,
0020
0000
0030
0000
,
0200
0000
0300
0000
,
0020
0000
0030
0000
,
0000
0000
1000
0000
,
0001
0000
0010
0000
,
0100
0000
1000
0000
,
0010
0000
0100
0000
,
1001
0000
0000
0000
,
0000
0000
0000
0000
,
0010
0000
0010
0000
,
0010
0010
0010
0000
,
1001
0000
0000
0000
,
0100
0000
0100
0000
,
1000
0000
0010
0000
,
0100
0000
0001
0000
,
1001
0000
0000
0000
,
0100
0000
0100
0000
,
0100
0100
0100
0000
,
0010
0010
0010
0000
,
2000
0000
3000
0000
,
0002
0000
0003
0000
,
0200
0000
0300
0000
,
0020
0000
0030
0000
,
1000
0000
1000
0000
,
1000
1000
1000
0000
,
0001
0000
0001
0000
,
0001
0001
0001
0000
,
0100
0000
0100
0000
,
0100
0100
0100
0000
,
0010
0000
0010
0000
,
1001
0000
0001
0000
,
0010
0000
0100
0000
,
1000
0000
1000
0000
,
0100
0000
0010
0000
,
0002
0000
0003
1000
,
0000
0001
0000
1000
,
0000
0001
0000
1000
,
0000
0001
0000
1000
,
1000
1000
0000
0000
,
0000
0000
0000
0000
;
#NOTES:
     dance-single:
     :
     Easy:
     9:
     :
0000
0000
0000
0000
,
0000
0000
0000
0000
,
0000
0000
0000
0000
,
0000
0000
0000
0000
,
0000
0000
0000
0000
,
0000
0000
0000
0000
,
0000
0000
0000
0000
,
0000
0000
0000
0000
,
0000
0000
0000
0000
0000
0000
0000
1000
,
0000
0001
0000
1000
0001
0000
1001
0000
,
1000
1000
0001
0001
,
1000
1000
2002
3003
,
0010
0010
0100
0100
,
0010
0010
0220
0330
,
0001
0001
1000
1000
,
0001
0001
2002
3003
,
0010
0010
0100
0100
,
0010
0200
0010
0310
,
0010
1000
0010
1000
,
0001
0100
0001
0100
,
0010
1000
0100
0010
,
0001
0100
0010
1000
,
0001
0100
0001
0100
,
0010
1000
0010
1000
,
0001
0000
0000
1000
0000
0000
0000
0010
,
0000
0000
0000
0200
0000
0000
0300
0000
,
0100
0010
1000
0001
,
0100
0010
1000
0001
,
0010
0001
0010
0001
,
1000
0100
1000
0100
,
0010
0001
1000
0100
,
0010
0100
1000
0001
,
1000
0000
0000
0001
0000
0000
0010
0000
,
0000
0100
0000
0000
0010
0000
0100
0000
,
0000
0000
0000
0000
1000
0000
0000
0000
0000
1000
0000
0000
0000
0000
1000
0000
,
0000
0000
0000
1000
0000
0000
0000
0000
1000
0000
0000
0000
0000
0000
0000
0000
,
0000
0000
0010
0000
0000
0000
0000
0010
0000
0000
0000
0000
0010
0000
0000
0000
,
0000
0010
0000
0000
0000
0000
0010
0000
0100
0000
0000
0100
0000
0000
0100
0000
,
0000
0000
0000
0000
0001
0000
0000
0000
0000
0001
0000
0000
0000
0000
0001
0000
,
0000
0000
0000
0001
0000
0000
0000
0000
0001
0000
0000
0000
0000
0000
0000
0000
,
0000
0000
1000
0000
0000
0000
0000
1000
0000
0000
0000
0000
1000
0000
0000
0000
,
0000
1000
0000
0000
0000
0000
1000
0000
0001
0000
0000
0001
0000
0000
0001
0000
,
0200
0000
0000
0000
,
0000
0000
0000
0000
,
0000
0000
0000
0000
,
0000
0000
0000
0000
,
0000
0000
0000
0000
,
0000
0000
0000
0000
,
0000
0000
0000
0310
,
1000
1000
0001
0001
,
1000
1000
0001
0001
,
0010
0010
0100
0100
,
0010
0010
0100
0100
,
1000
0001
1000
0001
,
0010
0100
0010
0100
,
1000
0000
0001
0000
1000
0000
0001
1000
,
0000
0001
0000
0010
0000
0100
0000
1000
,
0000
0020
0230
0320
,
1030
0010
1000
1001
,
0001
0010
0001
1001
,
0100
0010
1000
0001
,
0100
0010
0010
0000
,
0001
0100
0001
1001
,
1000
0100
1000
1001
,
0010
1000
0100
0010
,
0001
0100
0010
0100
,
0020
0000
0100
0130
,
0200
0000
0010
0310
,
0220
0000
0000
0330
,
1000
0000
0000
0001
0000
0000
1000
0000
0000
0001
0000
0000
2000
0000
0000
0000
,
0000
3001
0100
0010
,
1000
0100
0010
0001
,
1000
1000
0100
0100
,
0010
0010
0001
0001
,
2000
0000
0000
0000
0000
0000
0000
0001
,
0000
0001
0000
0001
0000
0001
0000
3001
,
0000
0010
1000
0001
,
0010
0100
1001
0000
,
0002
0000
0000
0000
0000
0000
0000
1000
,
0000
1000
0000
1000
0000
1000
0000
2003
,
0000
0000
0000
3020
0000
0000
0000
0230
,
0000
0000
0000
0302
0000
0000
0003
0000
,
0020
0000
0000
0000
0000
0000
0000
0100
,
0000
0100
0000
0100
0000
0100
0000
0130
,
0000
1000
0001
0100
,
0010
1000
0001
1001
,
0020
0000
0000
0000
0000
0000
0000
0230
,
0000
0000
0000
0000
0000
0000
0000
0302
,
0000
0000
0000
0000
0000
0000
0000
2000
,
0000
0000
0000
3003
,
0010
0100
0010
0100
,
0010
0100
0220
0330
,
1000
0001
1000
0001
,
1000
0000
0000
0000
0001
0000
0000
0000
1000
0000
0000
1000
0000
0000
1000
0000
,
0100
0010
0100
0010
,
0100
0010
0220
0330
,
1000
0001
1000
0001
,
0010
0010
0010
0010
0001
0000
0100
0000
,
0001
0000
0100
0000
0001
0100
0001
0000
,
0202
0303
0010
0100
,
0010
0000
0100
0000
0010
0100
0010
0000
,
1000
0000
0000
0001
0000
0000
1000
0000
0000
0000
0000
0000
1000
0000
0000
0000
,
0100
0010
0001
1000
,
0100
0010
0001
0100
,
0010
1000
0001
0100
,
0010
0100
0010
0100
0000
0000
0000
0000
,
0000
0000
0000
0000
;
#NOTES:
     dance-single:
     :
     Medium:
     13:
     :
0000
0000
0000
0000
,
0000
0000
0000
0000
,
0000
0000
0000
0000
,
0000
0000
0000
0000
,
0000
0000
0000
0000
,
0000
0000
0000
0000
,
0000
0000
0000
0000
,
0000
0000
0000
0000
,
0000
0000
0000
0000
0000
0000
0000
0010
,
0000
0100
0000
1000
0001
0000
0110
0000
,
0010
0100
0010
0000
0100
0010
0100
0000
,
0010
0100
0010
0000
2002
0000
3003
0000
,
0001
1000
0001
0000
1000
0001
1000
0000
,
0001
0000
1000
0000
0001
0000
0000
0000
0100
0000
0000
0100
0000
0000
0100
0000
,
0010
0100
0001
0000
0010
0100
1000
0000
,
0010
0100
0001
0000
1001
0000
0000
0000
,
1000
0001
0100
0000
0001
1000
0100
0000
,
1000
0001
0100
0100
,
0010
1000
0010
0000
0100
0000
0001
0000
,
0010
0001
0010
0000
0100
0000
1000
0000
,
0020
0000
0000
1030
0010
0100
0010
0100
,
0000
0001
0010
0100
0000
1000
0001
0000
,
0100
0001
0100
0000
0010
0000
1000
0000
,
0100
1000
0100
0000
0010
0000
0001
0000
,
0100
0001
0100
0010
0000
1000
0100
0010
,
0000
0001
1000
0100
0000
0010
0001
1000
,
0100
0100
0010
0000
0001
1000
0000
0010
,
0000
0100
0010
0000
0100
0000
0010
1000
,
0002
0000
0000
1003
0100
0010
0001
0000
,
1000
1000
0000
0001
0001
0000
1001
0000
,
0010
0010
0100
0000
0001
0010
0000
0100
,
0000
1000
0001
0000
1001
0000
0000
0000
,
0010
0010
0000
1000
1000
0000
0001
0001
,
0000
0100
0100
0000
0010
0000
0100
0000
,
0000
0000
0000
0000
0001
0010
0000
0000
0000
0001
0010
0000
0000
0000
0001
0010
,
0000
0000
0000
0001
0010
0000
0000
0000
0001
0000
0010
0000
0100
0000
1000
0000
,
0000
0000
0100
1000
0000
0000
0000
0100
1000
0000
0000
0000
0100
1000
0000
0000
,
0000
0100
1000
0000
0000
0000
0100
1000
0100
0000
0000
1000
0000
0000
0001
0000
,
0000
0000
0000
0000
1000
0001
0000
0000
0000
1000
0001
0000
0000
0000
1000
0001
,
0000
0000
0000
1000
0001
0000
0000
0000
1000
0000
0001
0000
0100
0000
0010
0000
,
0000
0000
0100
0010
0000
0000
0000
0100
0010
0000
0000
0000
0100
0010
0000
0000
,
0000
0100
0010
0000
0000
0000
0100
0010
0100
0000
0000
0100
0000
0000
0100
0000
,
0020
0000
0000
0000
,
0000
0000
0000
0000
,
0000
0000
0000
0000
,
0000
0000
0000
0000
,
0000
0000
0000
0000
,
0000
0000
0000
0000
,
0000
0000
0000
0130
,
1010
0011
1010
0011
,
1100
0101
1100
0101
,
1010
1100
1010
1100
,
0011
0101
0011
0101
,
1100
0101
0011
1010
,
0011
0101
1100
1010
,
0110
0000
1100
0000
0110
0000
0100
0001
,
0000
1000
0000
0010
0000
0100
0000
0001
,
0000
2000
3002
0203
,
0310
0100
0010
0000
1010
0000
0101
0000
,
0001
1000
0001
0000
0011
0000
1100
0000
,
0010
0100
0010
1000
0001
0100
0010
0000
,
1000
0000
0000
0001
0000
0000
1000
0000
0000
0000
0010
0000
0100
0000
0010
0000
,
1000
0100
0010
0000
0011
0000
1100
0000
,
1000
0010
0100
0000
0101
0000
1010
0000
,
0010
1000
0010
1000
0001
0100
0001
0100
,
0020
2030
3002
0203
,
0310
0000
0000
0000
0000
0000
0000
0000
1001
0000
0000
1001
0000
0000
1001
0000
,
0000
0000
0000
0000
0000
0000
0000
0000
0110
0000
0000
0110
0000
0000
0110
0000
,
2000
0000
0000
0000
,
3001
0000
0000
0100
0000
0000
0010
0000
0000
1000
0000
0000
0002
0000
0000
0000
,
0000
1003
1010
0101
,
0001
0010
0100
0000
1100
0000
0011
0000
,
0001
0010
0001
0010
0100
1000
0100
1000
,
0010
1000
0010
1000
0001
0100
0001
0100
,
0020
0000
0000
0000
0000
0000
0000
1030
,
0000
0010
0000
0100
0000
0001
0000
0010
,
0100
0010
0100
0000
1000
0001
1000
0000
,
0010
0100
0010
0000
0100
0010
1000
0000
,
0002
0000
0000
0000
0000
0000
0000
0103
,
0000
0010
0000
1000
0000
0001
0000
2000
,
0000
3001
0100
0020
0000
1030
0100
2000
,
0000
3001
0100
0020
0000
0000
0000
0000
,
0230
0000
0000
0000
0000
0000
0000
0301
,
0000
0010
0000
0100
0000
1000
0000
0010
,
0100
0010
0100
0010
1000
0001
1000
0001
,
0010
0100
0010
0100
1000
0001
0100
0000
,
0020
0000
0000
0000
0000
0000
0000
0230
,
0000
0000
0000
0000
0000
0000
0000
0302
,
0000
0000
0000
0000
0000
0000
0000
2003
,
0000
0000
0000
3001
,
0001
1000
0010
0000
1000
0001
0010
0000
,
0100
0010
0001
0010
0200
0000
0000
0000
,
1300
0100
0010
0000
0001
0100
0010
0000
,
1000
0000
0001
0000
0100
0000
0000
0000
0010
0000
0000
0010
0000
0000
0010
0000
,
1000
0001
0100
0000
0001
1000
0100
0000
,
1000
0100
0010
0001
2000
0000
0000
0000
,
3001
0100
0010
0000
1000
0100
0010
0000
,
0011
1100
1010
0101
0001
0100
0001
0100
,
0001
0100
0001
0100
0001
0100
0001
0100
,
0002
0000
0000
0000
1003
0100
1000
0100
,
1000
0100
1000
0100
1000
0100
1000
0100
,
1000
0000
0000
1000
0000
0000
2000
0000
0000
0000
3000
0000
0010
0000
0001
0000
,
0100
1000
0010
0001
0100
1000
0010
0001
,
0100
1000
0010
0001
0100
1000
0010
0001
,
0100
1000
0010
0001
0100
1000
0010
0000
,
0100
0010
1000
0001
0000
0000
0000
0000
,
0000
0000
0000
0000
;
#NOTES:
     dance-single:
     :
     Hard:
     17:
     :
0000
0000
0000
0000
,
0000
0000
0000
0000
,
0000
0000
0000
0000
,
0000
0000
0000
0000
,
0000
0000
0000
0000
,
0000
0000
0000
0000
,
0000
0000
0000
0000
,
0000
0000
0000
0000
,
0000
0000
0000
0000
0000
0000
0000
0010
,
0000
0100
0000
0001
1000
0000
1001
0000
,
1000
0010
1000
0010
1000
0010
1000
0010
,
1000
0010
1000
0010
0200
0000
0000
0000
,
0301
0010
0001
0010
0001
0010
0001
0010
,
0001
0000
0010
0000
0001
0000
0010
0000
0011
0000
0000
1100
0000
0000
0101
0000
,
0001
0100
0001
0100
0001
0100
0001
0100
,
0001
0100
0001
0100
0020
0000
0000
0000
,
1030
0100
1000
0100
1000
0100
1000
0100
,
1000
0100
1000
0100
1000
0000
0000
0000
0001
0000
0000
0000
1000
0000
0000
0000
,
0010
0100
0010
0000
0100
0000
0000
0000
0001
0000
0010
0000
0000
0000
1100
0000
,
0000
0000
0100
1000
0100
0000
0000
0000
1100
0000
0000
0000
0100
0000
1000
0000
,
0002
0000
0000
0000
0000
0000
0013
0001
0010
0000
0100
0000
1000
0000
0002
0000
,
0000
1003
0100
0010
0000
0001
0010
0000
,
0100
0010
0100
0000
0010
0000
0000
0000
0001
0000
0100
0000
0000
0000
0101
0000
,
0000
0000
0100
0001
0100
0000
0000
0000
1010
0000
0000
0000
0010
0000
0100
0000
,
0001
0010
1000
0020
0000
0031
0100
2000
,
0000
3001
0010
0200
0000
0301
0010
0100
,
0010
0100
0010
0100
0010
0000
0000
0000
0100
0000
0010
0000
0000
0000
0110
0000
,
0000
0000
0000
0000
0000
0000
1000
0000
0000
0100
0000
0000
1000
0000
0000
0000
0000
0000
0000
0000
0000
0000
0000
0000
1100
0000
0000
0000
0000
0000
0000
0000
0000
0000
0000
0000
0001
0000
0000
0000
0100
0000
0000
0000
0010
0000
0000
0000
,
2000
0000
0000
0000
0000
0000
3001
1000
0001
0000
0100
0000
0010
0000
1000
0000
,
0100
0100
0000
0010
0010
0000
0110
0000
,
0010
0100
0010
0000
0100
0000
0000
0000
0010
0000
0001
0000
0000
0000
0100
0000
,
0000
0010
0100
0000
0110
0000
1001
0000
,
0001
0001
0100
0010
0010
0100
1000
1000
,
0100
0010
0010
0100
0010
0000
0100
0000
,
0000
0000
0000
0000
1000
0010
1000
0000
0000
0010
1000
0010
0000
0000
1000
0010
,
1000
0000
0000
0010
1000
0010
0000
0000
0100
0000
0001
0000
0010
0000
0100
0000
,
1000
0000
0001
0010
0001
0000
0000
0010
0001
0010
0000
0000
0001
0010
0001
0000
,
0000
0010
0001
0010
0000
0000
0001
0010
0001
0000
0000
1000
0000
0000
1001
0000
,
0000
0000
0000
0000
0001
0100
0001
0000
0000
0100
0001
0100
0000
0000
0001
0100
,
0001
0000
0000
0100
0001
0100
0000
0000
0010
0000
1000
0000
0100
0000
0010
0000
,
0001
0000
1000
0001
0100
0000
0000
0001
1000
0100
0000
0000
1000
0001
0010
0000
,
0000
0001
1000
0010
0000
0000
1000
0100
0010
0000
0000
0001
0000
0000
1000
0000
,
0200
0000
0000
0000
,
0000
0000
0000
0000
,
0000
0000
0000
0000
,
0000
0000
0000
0000
,
0000
0000
0000
0000
,
0000
0000
0000
0000
,
0000
0000
0000
0310
,
1001
0000
1010
0000
0100
0001
0000
0001
,
0000
0001
0010
0000
0100
0000
0110
0000
,
1001
0000
0011
0000
0100
1000
0000
1000
,
0000
1000
0000
0100
0010
0000
1001
0000
,
0110
0000
1001
0000
0010
0100
0010
1000
,
0000
1000
0100
0010
0001
0000
1001
0000
,
0110
0000
1001
0000
0100
0010
0000
1001
,
0000
1100
0000
0011
0000
0110
0000
1001
,
0000
0200
0302
2003
,
3001
0000
0010
0000
0001
0000
0000
0000
0010
0100
0000
0010
0100
0000
0010
0000
,
0100
0000
1000
0000
0100
0000
0000
0000
1000
0100
0000
1000
0100
0000
1000
0000
,
0010
0100
0010
1000
0001
0100
0010
0100
,
0020
0000
0000
2030
0000
0000
3002
0000
0000
0000
1003
0000
0010
0000
0100
0000
,
0010
0000
1000
0000
0010
0000
0000
0000
1000
0010
0000
0010
1000
0000
0001
0000
,
0010
0000
0100
0000
1000
0000
0001
0000
0010
0001
0000
0001
0100
0000
0001
0000
,
0010
0001
0100
0010
1000
0100
0010
0001
,
2000
3020
0230
0302
,
0023
0000
0000
0000
0000
0000
0000
0000
0100
0000
0000
0100
0000
0000
0130
0000
,
0200
0000
0000
0000
0000
0000
0000
0000
0010
0000
0000
0010
0000
0000
0310
0000
,
0010
0001
0100
0010
1000
0100
0010
0001
,
0100
0000
0000
0010
0000
0000
1000
0000
0000
0001
0000
0000
0200
0000
0000
0000
,
0300
0000
0000
0000
0110
0000
0000
0000
0001
0000
0010
0001
0000
0001
0010
0000
,
0001
0000
0100
0000
0010
0000
1000
0000
0100
0000
0010
0100
0000
0100
0010
0000
,
0001
0100
0001
0100
0010
1000
0010
1000
,
0001
0010
0001
0010
0100
1000
0100
1000
,
0010
0100
0010
0100
0010
0000
0000
0000
1000
0000
0001
0000
0000
0000
1010
0000
,
0000
0101
0000
0011
0000
1100
0000
0001
,
0010
0001
0100
0010
1000
0100
0001
0100
,
1000
0010
0100
0001
0010
0100
0010
0000
,
0001
1000
0001
1000
0001
0000
0000
0000
0100
0000
0010
0000
0000
0000
1010
0000
,
0000
0101
0000
0011
0000
1100
0000
0020
,
0000
0030
0100
0010
0100
0000
0002
0000
0000
0003
1000
0001
1000
0000
0200
0000
,
0000
0300
0010
0100
0010
0000
0200
0000
0000
0000
0310
0000
0100
0000
0000
0000
,
0010
0100
0010
0100
0010
0000
0000
0000
0001
0000
1000
0000
0000
0000
0101
0000
,
0000
1010
0000
1100
0000
0011
0000
1000
,
0100
1000
0010
0100
0001
0010
1000
0010
,
0001
0000
0100
0000
0010
0000
1000
0000
0100
0000
0010
0100
0010
0100
0010
0100
,
2000
0000
0000
0000
0000
0000
0000
3002
,
0000
0000
0000
0000
0000
0000
0000
0023
,
0000
0000
0000
0000
0000
0000
0000
0230
,
0000
0000
0000
0310
,
0001
0010
0001
0010
0100
1000
0100
1000
,
0010
1000
0010
0100
0020
0000
0000
0000
,
1030
0100
1000
0100
0010
0001
0010
0001
,
0100
0000
0010
0000
0100
0000
0010
0000
0110
0000
0000
1001
0000
0000
0110
0000
,
0010
1000
0100
0010
0001
0100
0010
1000
,
0100
0010
0001
0100
0020
0000
0000
0000
,
0130
1000
0100
0001
0010
1000
0010
0001
,
1000
0001
0110
1001
1000
0100
1000
0100
,
0010
0000
0000
0000
0001
0000
0000
0000
0010
0000
0000
0000
0001
0000
0000
0000
0010
0000
0000
0000
0001
0000
0000
0000
1000
0000
0000
0100
0000
0000
1000
0000
0000
0100
0000
0000
1000
0000
0000
0100
0000
0000
1000
0000
0000
0100
0000
0000
,
2000
0000
0000
0000
3001
0100
0001
0100
,
0010
0000
0000
0000
1000
0000
0000
0000
0010
0000
0000
0000
1000
0000
0000
0000
0010
0000
0000
0000
1000
0000
0000
0000
0001
0000
0000
0100
0000
0000
0001
0000
0000
0100
0000
0000
0001
0000
0000
0100
0000
0000
0001
0000
0000
0100
0000
0000
,
0001
0000
0000
1000
0000
0000
1001
0000
0000
0000
0000
0000
1000
0001
1000
0001
,
1000
0001
1000
0001
1000
0001
1000
0001
1000
0001
1000
0001
1000
0001
1000
0001
,
1000
0001
1000
0001
1000
0001
1000
0001
1000
0001
1000
0001
1000
0001
1000
0001
,
1000
0001
1000
0001
1000
0001
1000
0001
1000
0001
1000
0001
1000
0000
0000
0000
,
0001
0100
0010
1000
0000
0000
0000
0000
,
0000
0000
0000
0000
;
#NOTES:
     dance-double:
     :
     Easy:
     9:
     :
00000000
00000000
00000000
00000000
,
00000000
00000000
00000000
00000000
,
00000000
00000000
00000000
00000000
,
00000000
00000000
00000000
00000000
,
00000000
00000000
00000000
00000000
,
00000000
00000000
00000000
00000000
,
00000000
00000000
00000000
00000000
,
00000000
00000000
00000000
00000000
,
00000000
00000000
00000000
00000000
00000000
00000000
00000000
00001000
,
00000000
00010000
00000000
00001000
00010000
00000000
00011000
00000000
,
00001000
00001000
00010000
00010000
,
01000000
01000000
20020000
30030000
,
10000000
10000000
00100000
00100000
,
01000000
01000000
00022000
00033000
,
00001000
00001000
00010000
00010000
,
00000010
00000010
00002002
00003003
,
00000100
00000100
00010000
00010000
,
00001000
00020000
00001000
00031000
,
00001000
00100000
00010000
01000000
,
00100000
10000000
01000000
00100000
,
00010000
00001000
00000100
00000010
,
00000001
00000100
00000010
00001000
,
00000001
00000100
00000010
00001000
,
00000100
00010000
00001000
01000000
,
00100000
00000000
00000000
10000000
00000000
00000000
00000000
01000000
,
00000000
00000000
00000000
00200000
00000000
00000000
00300000
00000000
,
01000000
00100000
00001000
00010000
,
00000100
00000010
00000001
00001000
,
00000010
00000100
00001000
00010000
,
01000000
10000000
00100000
01000000
,
00010000
00100000
00001000
00000100
,
00000001
00000010
00000100
00001000
,
00000100
00000000
00000000
00010000
00000000
00000000
00001000
00000000
,
00000000
01000000
00000000
00000000
00010000
00000000
10000000
00000000
,
00000000
00000000
00000000
00000000
10000000
00000000
00000000
00000000
00000000
10000000
00000000
00000000
00000000
00000000
10000000
00000000
,
00000000
00000000
00000000
10000000
00000000
00000000
00000000
00000000
10000000
00000000
00000000
00000000
00000000
00000000
00000000
00000000
,
00000000
00000000
01000000
00000000
00000000
00000000
00000000
01000000
00000000
00000000
00000000
00000000
01000000
00000000
00000000
00000000
,
00000000
01000000
00000000
00000000
00000000
00000000
01000000
00000000
00100000
00000000
00000000
00100000
00000000
00000000
00100000
00000000
,
00000000
00000000
00000000
00000000
00001000
00000000
00000000
00000000
00000000
00001000
00000000
00000000
00000000
00000000
00001000
00000000
,
00000000
00000000
00000000
00001000
00000000
00000000
00000000
00000000
00001000
00000000
00000000
00000000
00000000
00000000
00000000
00000000
,
00000000
00000000
00010000
00000000
00000000
00000000
00000000
00010000
00000000
00000000
00000000
00000000
00010000
00000000
00000000
00000000
,
00000000
00010000
00000000
00000000
00000000
00000000
00010000
00000000
00000100
00000000
00000000
00000100
00000000
00000000
00000100
00000000
,
00002000
00000000
00000000
00000000
,
00000000
00000000
00000000
00000000
,
00000000
00000000
00000000
00000000
,
00000000
00000000
00000000
00000000
,
00000000
00000000
00000000
00000000
,
00000000
00000000
00000000
00000000
,
00000000
00000000
00000000
00003100
,
00001000
00001000
00000001
00000001
,
00000100
00000100
00000010
00000010
,
00010000
00010000
00001000
00001000
,
00100000
00100000
01000000
01000000
,
10000000
00010000
00100000
01000000
,
00100000
00001000
00010000
00000100
,
00000010
00000000
00000001
00000000
00001000
00000000
00000100
00001000
,
00000000
00000100
00000000
00010000
00000000
00001000
00000000
01000000
,
00000000
00200000
02300000
03200000
,
10300000
00010000
00100000
00011000
,
00001000
00000100
00000010
00000110
,
00001000
00000001
00000100
00000010
,
00001000
00000100
00010000
00000000
,
00001000
00010000
01000000
01100000
,
10000000
00100000
01000000
01100000
,
10000000
01000000
00010000
00001000
,
00000100
00000001
00000001
00001000
,
00002000
00000000
00000001
00003001
,
00000002
00000000
00001000
00001003
,
00002002
00000000
00000000
00003003
,
00000001
00000000
00000000
00000010
00000000
00000000
00000100
00000000
00000000
00010000
00000000
00000000
00002000
00000000
00000000
00000000
,
00000000
00013000
00001000
01000000
,
00100000
10000000
00010000
01000000
,
00100000
00100000
01000000
01000000
,
00001000
00001000
00010000
00010000
,
00002000
00000000
00000000
00000000
00000000
00000000
00000000
00010000
,
00000000
00010000
00000000
00010000
00000000
00010000
00000000
00013000
,
00000000
00001000
00000100
00000001
,
00000010
00000100
00000010
00000110
,
00000200
00000000
00000000
00000000
00000000
00000000
00000000
00010000
,
00000000
00010000
00000000
00010000
00000000
00010000
00000000
00020300
,
00000000
00000000
00000000
00032000
00000000
00000000
00000000
02003000
,
00000000
00000000
00000000
03100000
00000000
00000000
00000000
00000000
,
20000000
00000000
00000000
00000000
00000000
00000000
00000000
01000000
,
00000000
01000000
00000000
01000000
00000000
01000000
00000000
31000000
,
00000000
00010000
00001000
00000010
,
00000001
00000100
00000010
00000110
,
00000200
00000000
00000000
00000000
00000000
00000000
00000000
00000320
,
00000000
00000000
00000000
00000000
00000000
00000000
00000000
00020030
,
00000000
00000000
00000000
00000000
00000000
00000000
00000000
00002000
,
00000000
00000000
00000000
00033000
,
00001000
00010000
00001000
00010000
,
00000100
00000010
00000200
00000300
,
00001000
00000001
00001000
00000001
,
00000100
00000000
00000000
00000000
00001000
00000000
00000000
00000000
00010000
00000000
00000000
00010000
00000000
00000000
00010000
00000000
,
00001000
00010000
00001000
00010000
,
01000000
00100000
02000000
03000000
,
10000000
00010000
10000000
00010000
,
10000000
00100000
00010000
00001000
00010000
00000000
00001000
00000000
,
00010000
00000000
00000100
00000000
00001000
00000100
00000010
00000000
,
00000220
00000330
00000001
00001000
,
00000001
00000000
00000100
00000000
00001000
00010000
00001000
00000000
,
00010000
00000000
00000000
00001000
00000000
00000000
00010000
00000000
00000000
00000000
00000000
00000000
00001000
00000000
00000000
00000000
,
00010000
01000000
10000000
00100000
,
00010000
00001000
00000100
00000001
,
00000010
00001000
00010000
00001000
,
00010000
00001000
00010000
00001000
00000000
00000000
00000000
00000000
,
00000000
00000000
00000000
00000000
;
#NOTES:
     dance-double:
     :
     Medium:
     13:
     :
00000000
00000000
00000000
00000000
,
00000000
00000000
00000000
00000000
,
00000000
00000000
00000000
00000000
,
00000000
00000000
00000000
00000000
,
00000000
00000000
00000000
00000000
,
00000000
00000000
00000000
00000000
,
00000000
00000000
00000000
00000000
,
00000000
00000000
00000000
00000000
,
00000000
00000000
00000000
00000000
00000000
00000000
00000000
00001000
,
00000000
00010000
00000000
01000000
00100000
00000000
10010000
00000000
,
10000000
01000000
00100000
00000000
01000000
00100000
00001000
00000000
,
00010000
00001000
00000010
00000000
00000002
00000000
00000003
00000000
,
00000001
00000100
00000010
00000000
00000100
00000010
00010000
00000000
,
00001000
00000000
01000000
00000000
00100000
00000000
00000000
00000000
01000000
00000000
00000000
01000000
00000000
00000000
01000000
00000000
,
00100000
10000000
01000000
00000000
00100000
00001000
00010000
00000000
,
00001000
00010000
00000010
00000000
00001001
00000000
00000000
00000000
,
00000010
00000001
00000100
00000000
00000010
00010000
00001000
00000000
,
00010000
00001000
00100000
00000000
01000000
00000000
00100000
00000000
,
00010000
00100000
00010000
00000000
00100000
00000000
00001000
00000000
,
00010000
00001000
00010000
00000000
00000100
00000000
00000010
00000000
,
00000002
00000000
00000000
00001003
00000010
00000100
00000010
00000100
,
00000000
00000001
00000100
00000010
00000000
00001000
00000100
00000000
,
00001000
00000010
00001000
00000000
00000010
00000000
00010000
00000000
,
00001000
00010000
00001000
00000000
01000000
00000000
00100000
00000000
,
10000000
00100000
01000000
00010000
00000000
01000000
00001000
00010000
,
00000000
00001000
00010000
00000010
00000000
00000100
00000010
00001000
,
00000001
00000001
00000100
00000000
00000010
00000100
00000000
00000010
,
00000000
00001000
00000100
00000000
00010000
00000000
01000000
10000000
,
00200000
00000000
00000000
01300000
00100000
10000000
00010000
00000000
,
00100000
00100000
00000000
01000000
01000000
00000000
01100000
00000000
,
00010000
00010000
00100000
00000000
00001000
00010000
00000000
00001000
,
00000000
00000100
00000010
00000000
00000110
00000000
00000000
00000000
,
00000001
00000001
00000000
00000010
00000010
00000000
00000100
00000100
,
00000000
00001000
00001000
00000000
00000010
00000000
00000100
00000000
,
00000000
00000000
00000000
00000000
00000001
00000010
00000000
00000000
00000000
00000001
00000010
00000000
00000000
00000000
00000001
00000010
,
00000000
00000000
00000000
00000001
00000010
00000000
00000000
00000000
00000001
00000000
00000100
00000000
00001000
00000000
00010000
00000000
,
00000000
00000000
00001000
00010000
00000000
00000000
00000000
00001000
00010000
00000000
00000000
00000000
00001000
00010000
00000000
00000000
,
00000000
00001000
00010000
00000000
00000000
00000000
00001000
00010000
00001000
00000000
00000000
00010000
00000000
00000000
00001000
00000000
,
00000000
00000000
00000000
00000000
00100000
00010000
00000000
00000000
00000000
00100000
00010000
00000000
00000000
00000000
00100000
00010000
,
00000000
00000000
00000000
00100000
00010000
00000000
00000000
00000000
00100000
00000000
00010000
00000000
01000000
00000000
00100000
00000000
,
00000000
00000000
10000000
01000000
00000000
00000000
00000000
10000000
00100000
00000000
00000000
00000000
01000000
00100000
00000000
00000000
,
00000000
01000000
00010000
00000000
00000000
00000000
00100000
00010000
00100000
00000000
00000000
00010000
00000000
00000000
00100000
00000000
,
00020000
00000000
00000000
00000000
,
00000000
00000000
00000000
00000000
,
00000000
00000000
00000000
00000000
,
00000000
00000000
00000000
00000000
,
00000000
00000000
00000000
00000000
,
00000000
00000000
00000000
00000000
,
00000000
00000000
00000000
01030000
,
10000000
00100000
01000000
00010000
,
00110000
00011000
00001100
00001001
,
00000010
00001000
00000001
00000100
,
00001010
00000011
00000101
00001100
,
00010000
00001000
01000000
00100000
,
00110000
11000000
10100000
01010000
,
10000000
00000000
01000000
00000000
00010000
00000000
00001000
00010000
,
00000000
00001000
00000000
00000100
00000000
00000110
00000000
00001001
,
00000000
00000002
00002003
00003200
,
00001300
00000100
00010000
00000000
00010100
00000000
00011000
00000000
,
01000000
00001000
00010000
00000000
00011000
00000000
01010000
00000000
,
00010000
01000000
00100000
10000000
01000000
00100000
00010000
00000000
,
00100000
00000000
00000000
00010000
00000000
00000000
10000000
00000000
00000000
00000000
01000000
00000000
00100000
00000000
00010000
00000000
,
00100000
00001000
00010000
00000000
00101000
00000000
00011000
00000000
,
00000010
00010000
00000100
00000000
00010010
00000000
00011000
00000000
,
00000010
00001000
00000010
00001000
00000100
00010000
00001000
00010000
,
00002000
00023000
02030000
23000000
,
30010000
00000000
00000000
00000000
00000000
00000000
00000000
00000000
01100000
00000000
00000000
01100000
00000000
00000000
01100000
00000000
,
00000000
00000000
00000000
00000000
00000000
00000000
00000000
00000000
00011000
00000000
00000000
00011000
00000000
00000000
00011000
00000000
,
00020000
00000000
00000000
00000000
,
00031000
00000000
00000000
00000100
00000000
00000000
00000001
00000000
00000000
00000010
00000000
00000000
00000200
00000000
00000000
00000000
,
00000000
00000310
00000011
00001100
,
00000010
00001000
00000100
00000000
00001100
00000000
00011000
00000000
,
00001000
00010000
00001000
00010000
00000100
00001000
00000100
00001000
,
00000001
00000010
00000001
00000010
00000100
00001000
00000100
00001000
,
00000200
00000000
00000000
00000000
00000000
00000000
00000000
00001300
,
00000000
00000100
00000000
00010000
00000000
00001000
00000000
00100000
,
00010000
00100000
00010000
00100000
01000000
10000000
01000000
10000000
,
00100000
01000000
00100000
01000000
00010000
00100000
00010000
00000000
,
00200000
00000000
00000000
00000000
00000000
00000000
00000000
00301000
,
00000000
00010000
00000000
00001000
00000000
00000100
00000000
00000020
,
00000000
00001030
00000100
00000020
00000000
00000031
00000100
00000020
,
00000000
00001030
00000100
00020000
00000000
00000000
00000000
00000000
,
00032000
00000000
00000000
00000000
00000000
00000000
00000000
00013000
,
00000000
00100000
00000000
10000000
00000000
01000000
00000000
00100000
,
00010000
00100000
00010000
00100000
00001000
00010000
00001000
00010000
,
00000100
00001000
00000100
00001000
00000010
00000100
00000010
00000000
,
00000200
00000000
00000000
00000000
00000000
00000000
00000000
00000320
,
00000000
00000000
00000000
00000000
00000000
00000000
00000000
00002030
,
00000000
00000000
00000000
00000000
00000000
00000000
00000000
00003200
,
00000000
00000000
00000000
00010300
,
00000100
00010000
00001000
00000000
00010000
00001000
00100000
00000000
,
00010000
01000000
00100000
10000000
00020000
00000000
00000000
00000000
,
10030000
01000000
00100000
00000000
01000000
00100000
00010000
00000000
,
00100000
00000000
00010000
00000000
00001000
00000000
00000100
00000000
00000010
00000000
00000000
00000100
00000000
00000000
00000010
00000000
,
00000001
00000100
00000010
00000000
00000100
00001000
00010000
00000000
,
00001000
00010000
00100000
01000000
00200000
00000000
00000000
00000000
,
10300000
00010000
01000000
00000000
00100000
01000000
00010000
00000000
,
00110000
00011000
00001100
00011000
00001000
00010000
00001000
00010000
,
00000010
00001000
00000010
00001000
00000100
00010000
00001000
00100000
,
00020000
00000000
00000000
00000000
10030000
01000000
10000000
01000000
,
00100000
00010000
00100000
00010000
00001000
00000100
00001000
00000100
,
00000010
00000000
00000000
00000010
00000000
00000000
00000020
00000000
00000000
00000000
00000030
00000000
00000010
00000000
00000001
00000000
,
00000010
00000001
00000100
00001000
00000100
00001000
00010000
01000000
,
00010000
01000000
10000000
00100000
10000000
00100000
00010000
00001000
,
00010000
00001000
00000100
00000001
00000100
00000001
00000010
00000000
,
00000001
00000100
00001000
00010000
00000000
00000000
00000000
00000000
,
00000000
00000000
00000000
00000000
;
#NOTES:
     dance-double:
     :
     Hard:
     17:
     :
00000000
00000000
00000000
00000000
,
00000000
00000000
00000000
00000000
,
00000000
00000000
00000000
00000000
,
00000000
00000000
00000000
00000000
,
00000000
00000000
00000000
00000000
,
00000000
00000000
00000000
00000000
,
00000000
00000000
00000000
00000000
,
00000000
00000000
00000000
00000000
,
00000000
00000000
00000000
00000000
00000000
00000000
00000000
00001000
,
00000000
00010000
00000000
00100000
01000000
00000000
10010000
00000000
,
10000000
00100000
10000000
00100000
01000000
00010000
01000000
00010000
,
00100000
00001000
00010000
00001000
00020000
00000000
00000000
00000000
,
00031000
00010000
00001000
00010000
00000100
00001000
00000100
00001000
,
00000001
00000000
00000010
00000000
00000001
00000000
00000010
00000000
00000001
00000000
00000000
00001000
00000000
00000000
00000100
00000000
,
00001000
00000010
00001000
00000010
00010000
00001000
00010000
00001000
,
00100000
00010000
00100000
00010000
00200000
00000000
00000000
00000000
,
01300000
10000000
01000000
10000000
00100000
01000000
00100000
01000000
,
00010000
10000000
00010000
10000000
00010000
00000000
00000000
00000000
00100000
00000000
00000000
00000000
00001000
00000000
00000000
00000000
,
00010000
00001000
00010000
00000000
00001000
00000000
00000000
00000000
00010000
00000000
00000100
00000000
00000000
00000000
00010100
00000000
,
00000000
00000000
00010000
00000100
00010000
00000000
00000000
00000000
00001100
00000000
00000000
00000000
00000100
00000000
00001000
00000000
,
00000002
00000000
00000000
00000000
00000000
00000000
00000013
00000001
00000010
00000000
00000001
00000000
00000010
00000000
00000200
00000000
,
00000000
00001300
00000100
00010000
00000000
00001000
00010000
00000000
,
00001000
00010000
00001000
00000000
00010000
00000000
00000000
00000000
00001000
00000000
01000000
00000000
00000000
00000000
01001000
00000000
,
00000000
00000000
00001000
01000000
00001000
00000000
00000000
00000000
01010000
00000000
00000000
00000000
01000000
00000000
00010000
00000000
,
10000000
00100000
01000000
00020000
00000000
00130000
00001000
00020000
,
00000000
00031000
00000100
00000020
00000000
00001030
00000100
00000010
,
00000100
00000010
00000100
00000010
00000100
00000000
00000000
00000000
00001000
00000000
00000100
00000000
00000000
00000000
00001100
00000000
,
00000000
00000000
00000000
00000000
00000000
00000000
00010000
00000000
00000000
00001000
00000000
00000000
00010000
00000000
00000000
00000000
00000000
00000000
00000000
00000000
00000000
00000000
00000000
00000000
00101000
00000000
00000000
00000000
00000000
00000000
00000000
00000000
00000000
00000000
00000000
00000000
00010000
00000000
00000000
00000000
00100000
00000000
00000000
00000000
01000000
00000000
00000000
00000000
,
20000000
00000000
00000000
00000000
00000000
00000000
31000000
00100000
01000000
00000000
00100000
00000000
00001000
00000000
00010000
00000000
,
00001000
00001000
00000000
00010000
00010000
00000000
00011000
00000000
,
00001000
00010000
00001000
00000000
00010000
00000000
00000000
00000000
00001000
00000000
00000100
00000000
00000000
00000000
00000010
00000000
,
00000000
00000100
00000010
00000000
00000110
00000000
00001001
00000000
,
00000011
00000000
00000000
00000101
00000000
00000000
00001100
00000000
,
00000000
00011000
00000000
00000000
00110000
00000000
10010000
00000000
,
00000000
00000000
00000000
00000000
00010000
10000000
00010000
00000000
00000000
10000000
00010000
10000000
00000000
00000000
00010000
10000000
,
00010000
00000000
00000000
10000000
00010000
10000000
00000000
00000000
00010000
00000000
00100000
00000000
00001000
00000000
00010000
00000000
,
00001000
00000000
00010000
00001000
00010000
00000000
00000000
00001000
00010000
00001000
00000000
00000000
00010000
00001000
00010000
00000000
,
00000000
00001000
00010000
00001000
00000000
00000000
00010000
00001000
00010000
00000000
00000000
00000010
00000000
00000000
00001010
00000000
,
00000000
00000000
00000000
00000000
00000001
00001000
00000001
00000000
00000000
00001000
00000001
00001000
00000000
00000000
00000001
00001000
,
00000001
00000000
00000000
00001000
00000001
00001000
00000000
00000000
00000100
00000000
00000010
00000000
00000001
00000000
00000100
00000000
,
00000010
00000000
00001000
00000100
00001000
00000000
00000000
00000100
00010000
00000100
00000000
00000000
00010000
00001000
00010000
00000000
,
00000000
00001000
01000000
00001000
00000000
00000000
01000000
00010000
01000000
00000000
00000000
00010000
00000000
00000000
10000000
00000000
,
00200000
00000000
00000000
00000000
,
00000000
00000000
00000000
00000000
,
00000000
00000000
00000000
00000000
,
00000000
00000000
00000000
00000000
,
00000000
00000000
00000000
00000000
,
00000000
00000000
00000000
00000000
,
00000000
00000000
00000000
01300000
,
01010000
00000000
00101000
00000000
00010000
00001000
00000000
00001000
,
00000000
00001000
01000000
00000000
00100000
00000000
01100000
00000000
,
11000000
00000000
00110000
00000000
00100000
00010000
00000000
00010000
,
00000000
00010000
00000000
01000000
00001000
00000000
00011000
00000000
,
00001100
00000000
00000011
00000000
00000001
00000100
00001000
00000100
,
00000000
00001000
00010000
00001000
01000000
00000000
00010000
00000000
,
01100000
00000000
10010000
00000000
01000000
00100000
00000000
10100000
,
00000000
01010000
00000000
00011000
00000000
00001100
00000000
00000101
,
00000000
00000020
00000230
00000320
,
00001030
00000000
00000010
00000000
00001000
00000000
00000000
00000000
00000100
00010000
00000000
00000100
00010000
00000000
00001000
00000000
,
00010000
00000000
00001000
00000000
00100000
00000000
00000000
00000000
00010000
01000000
00000000
00010000
01000000
00000000
00100000
00000000
,
10000000
01000000
00100000
00010000
00100000
00001000
00010000
00001000
,
00200000
00000000
00000000
00302000
00000000
00000000
00023000
00000000
00000000
00000000
00031000
00000000
00000100
00000000
00000001
00000000
,
00000010
00000000
00000001
00000000
00000010
00000000
00000000
00000000
00000100
00000010
00000000
00000010
00000100
00000000
00001000
00000000
,
00000001
00000000
00000010
00000000
00001000
00000000
00000010
00000000
00000001
00001000
00000000
00001000
00000001
00000000
00000100
00000000
,
00001000
00010000
00001000
00010000
01000000
10000000
01000000
10000000
,
00200000
20300000
32000000
03020000
,
00032000
00000000
00000000
00000000
00000000
00000000
00000000
00000000
00010000
00000000
00000000
00010000
00000000
00000000
00013000
00000000
,
00020000
00000000
00000000
00000000
00000000
00000000
00000000
00000000
00001000
00000000
00000000
00001000
00000000
00000000
00031000
00000000
,
00010000
00001000
00000100
00001000
00010000
01000000
00010000
00001000
,
00010000
00000000
00000000
00001000
00000000
00000000
01000000
00000000
00000000
00100000
00000000
00000000
20000000
00000000
00000000
00000000
,
30000000
00000000
00000000
00000000
10010000
00000000
00000000
00000000
01000000
00000000
00100000
00001000
00000000
00001000
00100000
00000000
,
00010000
00000000
00100000
00000000
00001000
00000000
00010000
00000000
00000100
00000000
00000010
00000100
00000000
00000100
00000010
00000000
,
00000001
00000100
00000001
00000100
00000010
00001000
00000010
00001000
,
00000100
00010000
00000100
00010000
00001000
00100000
00001000
00100000
,
01000000
00100000
01000000
00100000
01000000
00000000
00000000
00000000
10000000
00000000
00010000
00000000
00000000
00000000
00110000
00000000
,
00000000
00011000
00000000
00001100
00000000
00011000
00000000
00001000
,
00010000
01000000
10000000
01000000
00010000
00001000
00000100
00000001
,
00000010
00001000
00010000
00001000
01000000
00100000
10000000
00000000
,
00010000
10000000
00010000
10000000
00010000
00000000
00000000
00000000
01000000
00000000
00100000
00000000
00000000
00000000
10100000
00000000
,
00000000
01010000
00000000
00110000
00000000
11000000
00000000
00200000
,
00000000
00300000
01000000
00100000
01000000
00000000
00020000
00000000
00000000
00030000
00001000
00010000
00001000
00000000
00200000
00000000
,
00000000
00300000
00001000
00010000
00001000
00000000
00020000
00000000
00000000
00000000
00031000
00000000
00010000
00000000
00000000
00000000
,
00000100
00001000
00000100
00001000
00000100
00000000
00000000
00000000
00001000
00000000
00000010
00000000
00000000
00000000
00001010
00000000
,
00000000
00000011
00000000
00000101
00000000
00001100
00000000
00000001
,
00000100
00001000
00010000
01000000
10000000
00100000
00010000
00001000
,
00010000
00100000
10000000
01000000
00010000
00001000
00000100
00000001
,
00000020
00000000
00000000
00000000
00000000
00000000
00000000
00000230
,
00000000
00000000
00000000
00000000
00000000
00000000
00000000
00020300
,
00000000
00000000
00000000
00000000
00000000
00000000
00000000
00032000
,
00000000
00000000
00000000
00013000
,
00001000
00010000
00001000
00010000
01000000
00100000
01000000
00100000
,
00010000
01000000
10000000
01000000
00020000
00000000
00000000
00000000
,
10030000
01000000
10000000
01000000
00010000
00001000
00010000
00001000
,
00000100
00000000
00000010
00000000
00000100
00000000
00000010
00000000
00001000
00000000
00000000
00000001
00000000
00000000
00000100
00000000
,
00000010
00001000
00000100
00010000
00001000
00100000
01000000
10000000
,
00010000
00100000
01000000
10000000
00020000
00000000
00000000
00000000
,
00130000
00001000
00010000
00000100
00100000
00001000
00010000
01000000
,
00100000
00010000
01010000
11000000
10000000
01000000
00100000
00010000
,
00100000
00000000
00000000
00000000
00001000
00000000
00000000
00000000
00010000
00000000
00000000
00000000
00001000
00000000
00000000
00000000
00010000
00000000
00000000
00000000
00000100
00000000
00000000
00000000
00001000
00000000
00000000
00000100
00000000
00000000
00001000
00000000
00000000
00000100
00000000
00000000
00001000
00000000
00000000
00000100
00000000
00000000
00001000
00000000
00000000
00000100
00000000
00000000
,
00002000
00000000
00000000
00000000
00003001
00000100
00000010
00001000
,
00000100
00000000
00000000
00000000
00010000
00000000
00000000
00000000
00001000
00000000
00000000
00000000
00010000
00000000
00000000
00000000
00001000
00000000
00000000
00000000
00100000
00000000
00000000
00000000
00010000
00000000
00000000
00100000
00000000
00000000
00010000
00000000
00000000
00100000
00000000
00000000
00010000
00000000
00000000
00100000
00000000
00000000
00010000
00000000
00000000
00100000
00000000
00000000
,
00010000
00000000
00000000
01000000
00000000
00000000
10010000
00000000
00000000
00000000
00000000
00000000
00010000
10000000
00010000
10000000
,
00010000
10000000
00010000
10000000
00010000
10000000
00010000
10000000
00010000
10000000
00010000
10000000
00010000
10000000
00010000
10000000
,
00010000
10000000
00010000
10000000
00010000
10000000
00010000
10000000
00010000
10000000
00010000
10000000
00010000
10000000
00010000
10000000
,
00010000
10000000
00010000
10000000
00010000
10000000
00010000
10000000
00010000
10000000
00010000
10000000
00010000
00000000
00000000
00000000
,
10000000
01000000
00100000
00010000
00000000
00000000
00000000
00000000
,
00000000
00000000
00000000
00000000
;
