
//----- song ID: unem -----//
#TITLE:Une mage blanche;
#ARTIST:Dormir;
#BANNER:Une mage blanche.png;
#BACKGROUND:Une mage blanche-bg.png;
#CDTITLE:./CDTitles/REFLEC BEAT limelight.png;
#MUSIC:Une mage blanche.ogg;
#SAMPLESTART:81.293;
#SAMPLELENGTH:15;
#BPMS:0=193;
#NOTES:
     dance-single:
     :
     Beginner:
     4:
     :
0000
0000
0000
0000
,
0000
0000
0000
0000
,
0000
0000
0000
0000
,
0000
0000
0000
0000
,
0000
0000
0000
0000
,
0000
0000
0000
0000
,
0001
0000
0100
0000
,
0010
0000
0010
0000
,
1000
0000
0001
0000
,
0100
0000
0100
0000
,
0010
0000
1000
0000
,
0010
0000
0000
0000
,
0100
0000
0001
0000
,
0100
0000
0000
0000
,
0001
0000
0010
0000
,
0001
0000
0000
0000
,
1000
0000
0010
0000
,
1000
0000
0000
0000
,
0010
0000
0100
0000
,
0010
0000
0000
0000
,
1000
0000
0100
0000
,
1000
0000
0000
0000
,
0001
0000
0010
0000
,
0001
0000
0000
0000
,
0010
0000
1000
0000
,
0001
0000
0100
0000
,
0002
0000
0000
0000
,
0003
0000
0000
0000
,
0200
0000
0000
0000
,
0300
0000
0000
0000
,
0020
0000
0000
0000
,
0030
0000
0000
0000
,
2000
0000
3000
0000
,
0001
0000
1000
0000
,
0010
0000
1000
0000
,
0010
0000
0000
0000
,
0100
0000
0001
0000
,
0100
0000
0000
0000
,
0010
0000
0100
0000
,
0010
0000
0000
0000
,
2002
0000
3003
0000
,
0000
0000
0000
0000
,
0100
0000
0100
0000
,
0010
0000
1000
0000
,
0001
0000
0001
0000
,
1000
0000
0100
0000
,
0010
0000
0010
0000
,
0001
0000
0100
0000
,
0001
0000
0001
0000
,
0100
0000
0010
0000
,
1000
0000
0001
0000
,
0100
0000
0001
0000
,
1000
0000
0010
0000
,
1000
0000
0010
0000
,
0100
0000
0001
0000
,
0100
0000
0001
0000
,
1000
0000
0010
0000
,
0100
0000
0010
0000
,
0100
0000
0100
0000
,
0010
0000
0000
0000
,
0001
0000
0001
0000
,
1000
0000
0100
0000
,
0100
0000
0010
0000
,
1000
0000
0010
0000
,
1000
0000
0001
0000
,
0100
0000
0010
0000
,
2000
0000
0000
0000
,
3000
0000
0000
0000
,
0002
0000
0000
0000
,
0003
0000
0000
0000
,
0020
0000
0000
0000
,
0030
0000
0000
0000
,
0200
0000
0300
0000
,
0010
0000
0001
0000
,
0020
0000
0000
0000
,
0030
0000
0000
0000
,
0002
0000
0000
0000
,
0003
0000
0000
0000
,
2000
0000
0000
0000
,
3000
0000
0000
0000
,
0020
0000
0030
0000
,
1000
0000
0010
0000
,
0100
0000
0100
0000
,
0001
0000
0001
0000
,
1000
0000
1000
0000
,
0010
0000
0010
0000
,
0001
0000
0001
0000
,
0100
0000
0100
0000
,
0010
0000
0010
0000
,
0000
0000
0000
0000
;
#NOTES:
     dance-single:
     :
     Easy:
     7:
     :
0000
0000
0000
0000
,
0000
0000
0000
0000
,
0000
0000
0000
0000
,
0000
0000
0000
0000
,
0000
0000
0000
0000
,
0000
0000
0000
0000
,
0020
0000
0130
0010
,
0001
0010
0001
0000
,
0200
0000
0310
1000
,
0001
1000
0001
0000
,
0000
0100
0001
0100
,
0002
0000
1003
0000
,
0010
0100
0001
1000
,
0100
0000
0020
0000
,
0030
0001
1000
0100
,
0020
0000
0031
0000
,
0100
0010
1000
0010
,
1000
0000
0200
0000
,
0300
0010
1000
0001
,
0100
0000
0002
0000
,
1003
0010
0100
0010
,
1000
0000
0020
0000
,
0030
0100
0001
1000
,
0001
0000
2000
0000
,
3001
0010
0001
0010
,
0100
1000
0010
0000
,
0200
0000
0010
0000
,
0310
0000
0001
2000
,
0100
0000
0100
0000
,
0100
3000
0001
1000
,
0002
0000
0010
0000
,
0013
0000
1000
0100
,
0020
0000
0031
0100
,
0001
1000
0001
0000
,
0001
0010
1000
0010
,
0001
0000
0001
0000
,
1000
0100
0001
0100
,
1000
0000
1000
0000
,
0001
0100
1000
0100
,
0010
0000
0010
0000
,
1000
0100
1000
0000
,
0002
0000
0203
0000
,
0320
0000
1030
1000
,
0001
0100
0010
0000
,
0200
0000
0301
0001
,
1000
0001
0010
0000
,
2000
0000
3010
0010
,
1000
0100
0010
0000
,
0002
0000
1003
1000
,
0010
0100
0001
0000
,
0100
0010
1000
0000
,
1000
0001
1001
0000
,
0100
0001
1000
0000
,
0001
1000
1001
0000
,
0001
0010
0100
0000
,
1000
0010
0110
0000
,
1000
0010
0100
0000
,
0001
0100
0110
0000
,
1001
1000
0001
0100
,
0010
1000
0100
0000
,
1001
0001
1000
0100
,
0010
0001
0010
0000
,
0110
1000
0001
0010
,
0100
1000
0001
0000
,
1001
0010
0100
0010
,
0110
0000
1001
0000
,
0200
0000
0001
0000
,
0310
1000
0100
0000
,
0020
0000
0001
0000
,
0130
1000
0010
0000
,
2000
0000
0100
0000
,
3010
1000
0100
0000
,
0002
0000
1003
0100
,
1000
0001
0010
0010
,
0200
0000
1000
0000
,
0310
0001
0100
0010
,
0200
0000
0001
0000
,
0310
1000
0001
0100
,
0020
0000
0100
0000
,
1030
0001
1000
0100
,
0020
0000
0001
0000
,
0130
1000
0010
0100
,
0001
0010
0001
0000
,
0100
0100
0100
0000
,
0010
1000
0010
0000
,
1000
1000
1000
0000
,
0100
0010
0100
0000
,
0001
0001
0001
0000
,
1000
0001
1000
0000
,
0000
0000
0000
0000
;
#NOTES:
     dance-single:
     :
     Medium:
     10:
     :
0000
0000
0000
0000
,
0000
0000
0000
0000
,
0000
0000
0000
0000
,
0000
0000
0000
0000
,
0000
0000
0000
0000
,
0000
0000
0000
0000
,
2000
0000
0000
3010
0000
0100
0000
0001
,
0000
0100
0000
0010
0000
1000
1000
0000
,
0200
0000
0000
0310
0000
0001
0000
0011
,
0000
0100
0000
0110
0000
0110
0000
0000
,
0000
0001
0100
0001
,
1000
2000
0000
3020
0000
0000
0000
0130
,
0000
0100
0001
0000
1000
0000
1000
0000
,
0010
0010
0000
0200
0000
0000
0000
0000
,
0300
0001
0010
0001
,
1000
2000
0000
3200
0000
0000
0000
0320
,
0000
0031
0100
0010
,
1000
1000
0000
0002
0000
0000
0000
0000
,
0003
1000
0001
0100
,
0010
0010
0000
2000
0000
0000
0000
0000
,
3100
0010
0001
1000
,
0001
0001
0000
0200
0000
0000
0000
0000
,
0300
0010
1000
0010
,
0100
0100
0000
0002
0000
0000
0000
2003
,
0000
3001
0010
0100
,
1000
1000
0000
0100
0000
0000
0010
0000
,
0002
0000
0000
0000
1000
0000
0000
0100
,
0000
0013
0001
0000
1000
0000
0100
0000
,
0020
0000
0000
0000
0100
0000
0000
0001
,
0000
0031
0000
1000
0000
0001
0001
0000
,
0200
0000
0000
0000
0010
0000
0000
0001
,
0000
0310
0100
0000
0001
0000
1000
0000
,
0020
0000
0130
0010
,
1000
0000
0001
0000
0000
1000
0000
0000
,
0110
0000
0110
0000
0001
0000
1000
1000
,
0000
0010
0000
0010
0000
0000
0100
0000
,
1001
0000
1001
0000
0010
0000
0001
0001
,
0000
0100
0000
0100
0000
0000
0001
0000
,
1001
0000
0100
0000
0110
0000
1000
1000
,
0000
0100
0100
0010
,
0001
1000
0001
1000
0001
0000
0000
0000
,
2000
3020
0230
0302
,
2003
0000
0000
3010
0000
0100
0000
0110
,
0000
0001
0000
1000
0000
0001
0001
0000
,
0020
0000
0000
0130
0000
1000
0000
1100
,
0000
0001
0000
0100
0000
0010
0010
0000
,
0200
0000
0000
0301
0000
0010
0000
0011
,
0000
0100
0000
0001
0000
1000
1000
0000
,
0002
0000
0000
1003
0000
0010
0000
1010
,
0000
0100
0000
0101
0000
0000
0000
0000
,
1000
0000
0000
0001
0100
0100
0000
0010
,
0000
0010
0000
1001
0000
1001
0000
0000
,
0100
0000
0000
0010
0001
0001
0000
0100
,
0000
0100
0000
1001
0000
1001
0000
0000
,
0010
0000
0000
0100
1000
1000
0000
0001
,
0000
0001
0000
0110
0000
0110
0000
0000
,
0001
0000
0000
0100
0010
0010
0000
1000
,
0000
1000
0000
0110
0000
0110
0000
0000
,
1010
0000
1000
0100
1000
0100
0000
1000
,
0000
0001
0000
1001
0000
0101
0000
0000
,
0011
0000
1000
0100
1000
0100
0000
0010
,
0000
0001
0000
1001
0000
1100
0000
0000
,
1010
0000
0010
0100
0010
0100
0000
0001
,
0000
1000
0000
1001
0000
0101
0000
0000
,
0010
0000
0100
0001
0100
0001
0000
1010
,
0000
0101
0000
0000
0010
0020
0000
2030
,
0000
0001
0000
0010
,
3100
0000
0010
0000
0001
0000
0100
0020
,
0000
0100
0000
1000
,
0130
0000
0000
0010
1000
0010
0100
0002
,
0000
0010
0000
1000
,
0103
0000
0010
0000
1000
0000
0001
0020
,
0000
0000
0130
0000
0000
0001
0000
0001
,
0000
0101
0000
0110
0000
1010
0000
2000
,
0000
0010
0000
0001
,
3100
0000
1000
0000
0001
0000
0010
0002
,
0000
0100
0000
1000
,
0013
0000
0000
0010
0001
0010
0100
2000
,
0000
0100
0000
0001
,
3010
0000
0001
0000
0100
0000
0010
2000
,
0000
0000
0100
0000
0000
3001
0000
1000
,
0000
0011
0000
0110
0000
1100
0000
0000
,
0010
0000
0010
0000
1000
0000
0100
0100
,
0000
0010
0000
0001
0000
0010
0000
0000
,
1000
0000
1000
0000
0001
0000
0100
0100
,
0000
0010
0000
1000
0000
0010
0000
0000
,
0100
0000
0001
0000
1000
0100
1000
0100
,
0000
1000
0000
0001
0000
0010
0000
0000
,
0001
1000
0001
1000
0001
0000
0000
0000
,
0000
0000
0000
0000
;
#NOTES:
     dance-single:
     :
     Hard:
     13:
     :
0000
0000
0000
0000
,
0000
0000
0000
0000
,
0000
0000
0000
0000
,
0000
0000
0000
0000
,
0000
0000
0000
0000
,
0000
0000
0000
0000
,
0200
0000
0310
0001
1000
1000
0000
0010
,
0000
0100
0001
0100
0000
0010
1000
0010
,
2000
0000
3001
0010
0100
0100
0000
1001
,
0000
0000
0010
0000
0000
0000
0110
0000
0000
0000
0100
0001
0100
0000
0010
0000
,
0010
0000
1000
0100
0010
0001
0100
0000
,
0010
0020
0000
2030
0000
0001
0001
3002
,
0000
0100
0103
0000
1010
0000
0101
0000
,
1000
1000
0000
0002
0000
0100
0100
0000
,
1003
0000
0001
0010
0100
1000
0010
0000
,
0100
0200
0000
0302
0000
1000
1000
2003
,
0000
0010
3010
0000
0101
0000
1001
0000
,
0010
0100
0000
2000
0000
0010
0010
0000
,
3001
0000
0001
0010
1000
0010
0001
0000
,
0100
0100
0000
0020
0000
0100
0130
0001
,
2000
0000
3010
0100
0010
0000
0101
0000
,
0010
0010
0000
2000
0000
0001
0001
0000
,
3001
0000
1000
0100
0001
0100
1000
0000
,
0010
0010
0000
0200
0000
0001
0301
0020
,
0000
0100
0130
1000
0001
0100
1000
0000
,
1000
0100
0001
0010
0000
1000
0010
0001
,
0200
0000
0310
0010
2000
0001
0000
0001
,
3000
0020
0100
0100
0130
0000
1000
0200
,
0001
0000
0001
0000
1000
1000
0000
0010
,
0000
0310
0000
0001
0000
0100
0100
0000
,
0020
0000
0130
0100
0002
1000
0000
1000
,
0003
0020
0100
0100
0130
0000
0001
0200
,
1000
0000
1000
0000
0310
0100
0010
0000
,
1000
0000
0010
0000
0100
0000
0001
0000
0010
0000
0100
1000
0100
0000
0000
0000
,
1001
0000
1001
0000
0100
0000
0010
0010
,
0000
0000
1000
0000
0100
0000
1000
0000
0000
0000
0001
0010
0001
0000
0100
0000
,
0110
0000
0110
0000
0001
0000
1000
1000
,
0000
0000
0010
0000
0100
0000
0010
0000
0000
0000
1000
0100
1000
0000
0001
0000
,
0101
0000
0101
0000
0010
0000
0100
0100
,
0000
0000
0001
0000
0010
0000
0001
0000
0000
0000
0100
0010
0100
0000
0010
0000
,
1010
1000
0001
0100
1000
0000
0000
0000
,
2000
3200
0302
2003
3020
0032
2003
3200
,
0302
0000
0000
1000
1003
0010
0000
1010
,
0000
1000
0000
0001
0000
0100
0010
1000
,
0020
0000
0000
0100
0130
0001
0000
1100
,
0000
0100
0000
0010
0000
0001
1000
0100
,
2000
0000
0000
0001
3001
0100
0000
0011
,
0000
0001
0000
0100
0000
0010
1000
0001
,
0200
0000
0000
0010
0310
1000
0000
1001
,
0000
0000
0101
0000
0000
0000
0110
0000
0000
0000
1000
0100
1000
0000
0000
0000
,
0010
0000
0000
0100
0001
0100
0000
0010
,
1000
0001
0000
0010
0100
1000
1001
0000
,
0100
0000
0000
0010
1000
0010
0000
0100
,
0001
1000
0000
0100
0010
0001
1001
0000
,
1000
0000
0000
0010
0100
0010
0000
1000
,
0100
0001
0000
0001
0100
1000
1010
0000
,
0001
0000
0000
0100
0010
0100
0000
2001
,
0000
3001
0000
0210
0000
0310
0101
0000
,
1001
0000
0010
1000
0001
1000
0000
0100
,
0010
0000
0100
0000
1000
0000
0100
0000
0010
0001
0010
0000
0001
0000
0000
0000
,
1100
0000
0001
0100
0010
0100
0000
0001
,
0100
0000
0001
0000
1000
0000
0001
0000
0010
0100
0010
0000
0100
0000
0000
0000
,
1100
0000
0010
1000
0100
0001
0000
0100
,
0001
0000
0100
0000
0010
0000
0100
0000
1000
0001
1000
0000
0010
0000
0000
0000
,
0110
0000
0001
0010
1000
0100
0000
2100
,
0000
3001
0000
0020
1000
2030
0000
3002
,
0000
0000
0103
0010
1000
0001
0100
0001
,
0000
0100
0001
0100
1000
0000
0100
0002
,
0000
0000
1003
0010
0001
0010
1000
0100
,
0000
0010
0001
0100
1000
0001
0010
2000
,
0000
0000
3100
0010
0001
1000
0010
0100
,
0000
0001
0010
1000
0010
0000
0100
2000
,
0000
0000
3001
0010
0100
1000
0010
1000
,
0000
1010
0000
1001
0000
0101
0000
0020
,
0000
0000
1030
0001
0100
0010
1000
0100
,
0000
0010
0001
1000
0100
0000
0010
0002
,
0000
0000
0103
0010
1000
0100
0001
0100
,
0000
0100
1000
0001
0010
1000
0010
0002
,
0000
0000
0103
0010
1000
0001
0010
0100
,
0000
1000
0010
1000
0001
0000
0100
0020
,
0000
0000
1030
0100
0001
0100
1000
0100
,
0000
1100
0000
0101
0000
1001
0000
0000
,
1000
0000
1000
0000
0001
0100
0010
1010
,
0000
0101
0000
0010
0000
1001
0000
0000
,
0001
0000
0001
0000
1000
0100
0010
0011
,
0000
1100
0000
0010
0000
0110
0000
0000
,
0100
0000
0100
0000
0010
0001
1000
1100
,
0000
1010
0000
0100
0000
0101
0000
0000
,
0010
1000
0100
0010
0001
0000
0000
0000
,
0000
0000
0000
0000
;
#NOTES:
     dance-double:
     :
     Easy:
     7:
     :
00000000
00000000
00000000
00000000
,
00000000
00000000
00000000
00000000
,
00000000
00000000
00000000
00000000
,
00000000
00000000
00000000
00000000
,
00000000
00000000
00000000
00000000
,
00000000
00000000
00000000
00000000
,
00020000
00000000
00031000
00010000
,
00000100
00001000
00000010
00000000
,
00002000
00000000
00003001
00000100
,
00000010
00001000
00000100
00000000
,
00000000
00010000
00001000
00010000
,
00002000
00000000
00013000
00000000
,
00001000
00100000
00010000
10000000
,
00010000
00000000
20000000
00000000
,
30000000
00100000
01000000
00010000
,
02000000
00000000
03010000
00000000
,
00100000
00001000
00010000
00000100
,
00001000
00000000
00000020
00000000
,
00000030
00001000
00000001
00000100
,
00001000
00000000
00020000
00000000
,
01030000
10000000
01000000
00100000
,
00010000
00000000
20000000
00000000
,
30000000
00010000
10000000
00100000
,
00010000
00000000
00002000
00000000
,
00003010
00000001
00000100
00000010
,
00001000
00000100
00000010
00000000
,
00000002
00000000
00001000
00000000
,
00001003
00000000
00000100
00020000
,
00001000
00000000
00001000
00000000
,
00001000
00030000
01000000
10000000
,
00200000
00000000
01000000
00000000
,
01300000
00000000
00010000
10000000
,
02000000
00000000
03100000
10000000
,
01000000
00010000
00010000
00000000
,
00001000
00010000
00001000
00010000
,
00000100
00000000
00000100
00000000
,
00010000
00001000
00010000
00001000
,
00100000
00000000
00100000
00000000
,
00001000
00010000
00001000
00010000
,
00000010
00000000
00000010
00000000
,
00001000
00000001
00001000
00000000
,
00000200
00000000
00020300
00000000
,
00032000
00000000
01003000
00010000
,
10000000
00100000
10000000
00000000
,
02000000
00000000
13000000
00100000
,
01000000
00010000
00100000
00000000
,
00002000
00000000
00013000
00000100
,
00001000
00000010
00000100
00000000
,
00000002
00000000
00001003
00000001
,
00000010
00001000
00010000
00000000
,
00100000
10000000
01000000
00000000
,
00100000
00001000
00011000
00000000
,
00010000
00000100
00001000
00000000
,
00000001
00000100
00000110
00000000
,
00001000
00000010
00010000
00000000
,
00001000
00010000
00011000
00000000
,
00001000
00100000
00010000
00000000
,
10000000
01000000
01100000
00000000
,
10000000
01000000
00010000
00001000
,
00000010
00000001
00000100
00000000
,
00000010
00000100
00001000
00010000
,
01000000
10000000
00100000
00000000
,
01000000
00100000
00010000
00001000
,
00010000
00000100
00001000
00000000
,
00000001
00000010
00001000
00010000
,
00011000
00000000
01100000
00000000
,
20000000
00000000
00010000
00000000
,
31000000
00100000
00001000
00000000
,
00020000
00000000
00001000
00000000
,
00030010
00001000
00000100
00000000
,
00000002
00000000
00000010
00000000
,
00001003
00000001
00000100
00000000
,
00002000
00000000
00013000
01000000
,
10000000
01000000
00010000
00001000
,
00020000
00000000
00001000
00000000
,
00031000
00010000
00000100
00001000
,
00000020
00000000
00001000
00000000
,
00000130
00000001
00000100
00001000
,
00020000
00000000
00001000
00000000
,
01030000
10000000
00100000
10000000
,
00020000
00000000
10000000
00000000
,
01030000
00100000
10000000
01000000
,
00010000
00001000
00010000
00000000
,
00000100
00000100
00000100
00000000
,
00001000
00000010
00000100
00000000
,
00000001
00000001
00000001
00000000
,
00001000
00000100
00010000
00000000
,
00001000
00001000
00001000
00000000
,
00010000
00001000
00010000
00000000
,
00000000
00000000
00000000
00000000
;
#NOTES:
     dance-double:
     :
     Medium:
     10:
     :
00000000
00000000
00000000
00000000
,
00000000
00000000
00000000
00000000
,
00000000
00000000
00000000
00000000
,
00000000
00000000
00000000
00000000
,
00000000
00000000
00000000
00000000
,
00000000
00000000
00000000
00000000
,
20000000
00000000
00000000
30010000
00000000
00100000
00000000
00001000
,
00000000
00010000
00000000
00000100
00000000
00001000
00001000
00000000
,
00000002
00000000
00000000
00000013
00000000
00000100
00000000
00001000
,
00000000
00000100
00000000
00010000
00000000
00011000
00000000
00000000
,
00000000
00001000
00010000
00100000
,
10000000
20000000
00000000
30020000
00000000
00000000
00000000
01030000
,
00000000
00100000
10000000
01000000
,
00010000
00010000
00000000
00002000
00000000
00000000
00000000
00000000
,
00003000
00010000
00001000
00000010
,
00000001
00000002
00000000
00002003
00000000
00000000
00000000
00003200
,
00000000
00000310
00000001
00000100
,
00001000
00001000
00000000
00020000
00000000
00000000
00000000
00000000
,
00030000
00001000
00100000
00010000
,
01000000
01000000
00000000
00200000
00000000
00000000
00000000
00000000
,
10300000
00010000
01000000
00100000
,
10000000
10000000
00000000
02000000
00000000
00000000
00000000
00000000
,
03000000
00100000
00001000
00010000
,
00000100
00000100
00000000
00002000
00000000
00000000
00000000
00003020
,
00000000
00000130
00000001
00000100
,
00000010
00000010
00000000
00001000
00000000
00000000
00000100
00000000
,
00002000
00000000
00000000
00000000
00000001
00000000
00000000
00000010
,
00000000
00003100
00010000
00000000
00010000
00000000
00001000
00000000
,
00200000
00000000
00000000
00000000
00010000
00000000
00000000
01000000
,
00000000
01300000
00000000
10000000
00000000
00010000
00010000
00000000
,
20000000
00000000
00000000
00000000
01000000
00000000
00000000
00100000
,
00000000
30010000
01000000
00000000
01000000
00000000
00001000
00000000
,
00020000
00000000
00031000
00010000
,
00000010
00000000
00001000
00000000
00000000
00000001
00000000
00000000
,
00001001
00000000
00001001
00000000
00000010
00000000
00001000
00001000
,
00000000
00000100
00000000
00000100
00000000
00000000
00010000
00000000
,
00011000
00000000
00011000
00000000
00100000
00000000
00010000
00010000
,
00000000
10000000
00000000
10000000
00000000
00000000
01000000
00000000
,
01100000
00000000
00010000
00000000
10010000
00000000
01000000
01000000
,
00000000
00001000
00001000
00010000
,
00000100
00001000
00000001
00000100
00000010
00000000
00000000
00000000
,
00000200
00000302
00000023
00002030
,
00023000
00000000
00000000
00031000
00000000
00100000
00000000
00010000
,
00000000
10000000
00000000
00100000
00000000
01000000
01000000
00000000
,
00020000
00000000
00000000
10030000
00000000
00100000
00000000
01000000
,
00000000
00010000
00000000
00100000
00000000
00001000
00001000
00000000
,
00020000
00000000
00000000
00030100
00000000
00001000
00000000
00000001
,
00000000
00000100
00000000
00000010
00000000
00001000
00001000
00000000
,
00000002
00000000
00000000
00000103
00000000
00000010
00000000
00001010
,
00000000
00010000
00000000
00011000
00000000
00000000
00000000
00000000
,
00001000
00000000
00000000
00010000
00001000
00001000
00000000
00010000
,
00000000
01000000
00000000
01100000
00000000
01100000
00000000
00000000
,
10000000
00000000
00000000
01000000
00010000
00010000
00000000
00001000
,
00000000
00000100
00000000
00000110
00000000
00000110
00000000
00000000
,
00000001
00000000
00000000
00000010
00001000
00001000
00000000
00010000
,
00000000
00100000
00000000
01100000
00000000
10010000
00000000
00000000
,
10000000
00000000
00000000
00100000
00010000
00010000
00000000
00001000
,
00000000
00000010
00000000
00000110
00000000
00001001
00000000
00000000
,
00000001
00000000
00000001
00000100
00001000
00000100
00000000
00000010
,
00000000
00010000
00000000
00001000
00000000
00100000
00000000
00000000
,
01000000
00000000
10000000
01000000
00010000
01000000
00000000
00100000
,
00000000
00001000
00000000
00010000
00000000
00000100
00000000
00000000
,
00001000
00000000
00000010
00001000
00000100
00010000
00000000
00001000
,
00000000
01000000
00000000
01100000
00000000
10100000
00000000
00000000
,
01000000
00000000
00100000
00001000
00010000
00000100
00000000
00001100
,
00000000
00001001
00000000
00001000
00000001
00000002
00000000
00000000
,
00002003
00000010
00000000
00000100
,
00003001
00000010
00001000
00010000
,
00200000
10000000
00000000
01000000
,
10300000
00000000
00000000
10000000
00100000
10000000
01000000
00000000
,
20000000
00010000
00000000
00100000
,
31000000
00010000
00001000
00000100
,
00000002
00000000
00000010
00000000
00000000
00001003
00000000
00000100
,
00000000
00001100
00000000
00011000
00000000
01010000
00000000
01000000
,
00200000
10000000
00000000
01000000
,
01300000
10000000
00100000
00010000
,
00002000
00010000
00000000
00010000
,
00013000
00000000
00000000
00000010
00001000
00000010
00000100
00000000
,
00000002
00000010
00000000
00000010
,
00001003
00000001
00000100
00001000
,
00020000
00000000
00130000
00000000
00000000
01000000
00000000
00010000
,
00000000
01010000
00000000
10010000
00000000
01100000
00000000
00000000
,
10000000
00000000
01000000
00000000
00010000
00000000
00001000
00000100
,
00000000
00000001
00000000
00000001
00000000
00000001
00000000
00000000
,
00000001
00000000
00000010
00000000
00001000
00000000
00010000
00100000
,
00000000
10000000
00000000
10000000
00000000
10000000
00000000
00000000
,
10000000
00000000
00100000
00000000
00010000
00001000
00010000
00001000
,
00000000
00010000
00000000
00000010
00000000
00001000
00000000
00000000
,
00000001
00000100
00000010
00010000
00001000
00000000
00000000
00000000
,
00000000
00000000
00000000
00000000
;
#NOTES:
     dance-double:
     :
     Hard:
     13:
     :
00000000
00000000
00000000
00000000
,
00000000
00000000
00000000
00000000
,
00000000
00000000
00000000
00000000
,
00000000
00000000
00000000
00000000
,
00000000
00000000
00000000
00000000
,
00000000
00000000
00000000
00000000
,
20000000
00000000
30100000
01000000
00010000
00010000
00000000
10000000
,
00000000
01000000
00010000
00001000
00000000
00000100
00000001
00000100
,
00000002
00000000
00000103
00000010
00001000
00001000
00000000
00001010
,
00000000
00010000
00000000
00011000
00000000
00001000
00010000
01000000
,
10000000
00000000
00100000
10000000
00010000
01000000
00100000
00000000
,
01000000
02000000
00000000
03002000
00000000
00010000
00010000
00023000
,
00000000
00000100
00030100
00000000
00001000
00000000
00000010
00000000
,
00000100
00000100
00000000
00000002
00000000
00000010
00000010
00000000
,
00000003
00000000
00000100
00000010
00001000
00000001
00001000
00000000
,
00000100
00000200
00000000
00020300
00000000
00001000
00001000
00032000
,
00000000
00100000
00103000
00000000
00010000
00000000
01000000
00000000
,
00100000
10000000
00000000
02000000
00000000
00010000
00010000
00000000
,
03000000
00000000
10000000
00100000
00010000
00001000
00000010
00000000
,
00000001
00000001
00000000
00002000
00000000
00000010
00003010
00000100
,
00000002
00000000
00001003
00000100
00001000
00000000
00000010
00000000
,
00001000
00000001
00000000
00000200
00000000
00000010
00000010
00000000
,
00000300
00000000
00000001
00000100
00001000
00010000
01000000
00000000
,
10000000
10000000
00000000
00020000
00000000
01000000
01030000
00200000
,
00000000
10000000
10300000
00010000
10000000
01000000
00010000
00000000
,
00001000
00000100
00000001
00000100
00000000
00000010
00001000
00000100
,
00020000
00000000
00031000
00001000
02000000
00010000
00000000
03100000
,
00000000
20000000
00010000
00010000
30010000
00000000
01000000
00020000
,
10000000
00000000
10000000
00000000
00100000
00100000
00000000
01000000
,
00000000
01030000
00000000
00001000
00000000
00010000
00010000
00000000
,
00000020
00000000
00001030
00001000
00000002
00000100
00000000
00000013
,
00000000
00000200
00001000
00001000
00001300
00000000
00000001
00002000
,
00000010
00000000
00000010
00000000
00003100
00010000
00000100
00000000
,
00010000
00001000
00010000
00001000
00100000
00010000
10000000
00000000
,
10100000
00000000
01010000
00000000
10000000
00000000
01000000
01000000
,
00000000
00100000
00001000
00010000
00000000
00000100
00001000
00000001
,
00000101
00000000
00001010
00000000
00000001
00000000
00000010
00000010
,
00000000
00000100
00010000
00001000
00000000
00100000
00010000
10000000
,
10100000
00000000
11000000
00000000
00010000
00000000
01000000
00001000
,
00000000
00010000
00000100
00001000
00000000
00000001
00000010
00000001
,
00001000
00000010
00000001
00001000
00000100
00000000
00000000
00000000
,
00000002
00000203
00002300
00023000
00230000
20300000
30020000
02030000
,
03200000
00000000
00000000
10000000
10300000
00010000
00000000
01010000
,
00000000
00100000
00000000
00001000
00000000
00010000
00001000
00000100
,
00000002
00000000
00000000
00000010
00000013
00000100
00000000
00001100
,
00000000
00001000
00000000
00000001
00000000
00000010
00001000
00010000
,
00200000
00000000
00000000
10000000
10300000
01000000
00000000
11000000
,
00000000
00010000
00000000
10000000
00000000
01000000
00010000
00001000
,
00000020
00000000
00000000
00000001
00000031
00000100
00000000
00000101
,
00000000
00000010
00000000
00001010
00000000
00010000
00001000
00000000
,
00100000
00000000
00000000
00010000
01000000
00010000
00000000
10000000
,
00100000
01000000
00000000
00010000
00100000
00001000
00011000
00000000
,
00010000
00000000
00000000
00000010
00001000
00000010
00000000
00000100
,
00000001
00001000
00000000
00000010
00010000
00001000
00011000
00000000
,
00100000
00000000
00000000
00010000
01000000
00010000
00000000
10000000
,
00100000
01000000
00000000
10000000
01000000
00010000
00100000
00000000
,
00001000
00000000
00000000
00010000
00001000
00010000
00000000
00001020
,
00000000
00000130
00000000
00002001
00000000
00003010
00000110
00000000
,
00000101
00000000
00000010
00001000
00000010
00001000
00000000
00000001
,
00000010
00001000
00010000
00100000
00010000
00100000
10000000
00000000
,
11000000
00000000
00010000
01000000
00010000
01000000
00000000
00100000
,
00010000
00001000
00000100
00001000
00000100
00000001
00000010
00000000
,
00001100
00000000
00000001
00000010
00001000
00000010
00000000
00000100
,
00001000
00000010
00010000
00001000
00100000
00010000
01000000
00000000
,
10100000
00000000
00010000
01000000
10000000
01000000
00000000
02010000
,
00000000
03001000
00000000
00020000
00000010
00030020
00000000
00000230
,
00000000
00000000
00000301
00000010
00001000
00010000
01000000
10000000
,
00000000
01000000
00100000
10000000
00100000
00000000
00010000
02000000
,
00000000
00000000
03100000
10000000
01000000
00010000
00001000
00000010
,
00000000
00001000
00000010
00001000
00010000
01000000
10000000
00200000
,
00000000
00000000
10300000
00100000
00010000
00001000
00000010
00000001
,
00000000
00000010
00000010
00000001
00001000
00000000
00000001
00000200
,
00000000
00000000
00000301
00001000
00000010
00010000
00001000
00100000
,
00000000
00110000
00000000
10010000
00000000
11000000
00000000
20000000
,
00000000
00000000
30010000
10000000
00100000
01000000
00001000
00010000
,
00000000
00000100
00001000
00000100
00000001
00000000
00000100
00002000
,
00000000
00000000
00003010
00000100
00000001
00001000
00000100
00010000
,
00000000
00001000
00001000
00010000
00100000
10000000
00100000
00020000
,
00000000
00000000
00031000
00100000
00010000
01000000
00100000
10000000
,
00000000
01000000
00010000
01000000
10000000
00000000
00100000
02000000
,
00000000
00000000
13000000
01000000
00100000
00010000
00001000
00000010
,
00000000
00000011
00000000
00001001
00000000
00001100
00000000
00000000
,
00000001
00000000
00000001
00000000
00000010
00000001
00000100
00001000
,
00000000
00011000
00000000
00100000
00000000
00110000
00000000
00000000
,
10000000
00000000
10000000
00000000
01000000
10000000
00100000
00010000
,
00000000
00011000
00000000
00000100
00000000
00001100
00000000
00000000
,
00000010
00000000
00000010
00000000
00000001
00001000
00000100
00010000
,
00000000
00011000
00000000
01000000
00000000
10010000
00000000
00000000
,
10000000
01000000
00010000
00001000
00000010
00000000
00000000
00000000
,
00000000
00000000
00000000
00000000
;
