
//----- song ID: tril -----//
#TITLE:Trill auf G;
#ARTIST:BEMANI Sound Team "dj TAKA";
#BANNER:Trill auf G.png;
#BACKGROUND:Trill auf G-bg.png;
#CDTITLE:./CDTitles/DDR A20.png;
#MUSIC:Trill auf G.ogg;
#SAMPLESTART:52.246;
#SAMPLELENGTH:15;
#BPMS:0=188;
#NOTES:
     dance-single:
     :
     Beginner:
     4:
     :
0000
0000
0000
0000
,
0000
0000
0000
0000
,
0000
0000
0000
0000
,
0000
0000
0000
0000
,
0000
0000
0000
0000
,
0000
0000
0000
0000
,
0000
0000
0000
0000
,
0000
0000
0000
0000
,
0000
0000
0000
0000
,
0000
0000
0000
0000
,
0001
0000
0001
0000
,
0010
0000
0010
0000
,
1000
0000
1000
0000
,
0100
0000
0100
0000
,
0010
0000
0010
0000
,
0001
0000
0100
0000
,
0010
0000
1000
0000
,
0010
0000
1000
0000
,
0001
0000
0100
0000
,
0001
0000
0100
0000
,
0010
0000
0100
0000
,
0010
0000
0100
0000
,
0001
0000
1000
0000
,
0010
0010
0010
0000
,
1000
0000
0010
0000
,
0100
0000
0010
0000
,
0100
0000
0001
0000
,
0010
0000
0001
0000
,
1000
0000
0100
0000
,
0010
0000
0001
0000
,
0100
0000
0010
0000
,
1000
1000
1000
0000
,
0001
0000
1000
0000
,
1001
0000
0000
0000
,
1000
0000
0001
0000
,
1001
0000
0000
0000
,
1000
0000
1000
0000
,
0001
0000
0001
0000
,
0010
0000
1000
0000
,
0010
0000
1000
0000
,
0001
0000
1000
0000
,
1001
0000
0000
0000
,
0010
0010
0010
0000
,
1000
1000
1000
0000
,
0100
0100
0100
0000
,
0001
0001
0001
0000
,
0001
0000
1000
0000
,
0001
0000
1000
0000
,
0100
0000
1000
0000
,
0100
0000
1000
0000
,
0001
0001
0001
0000
,
0100
0100
0100
0000
,
0010
0010
0010
0000
,
1000
1000
1000
0000
,
0001
0000
0100
0000
,
0001
0000
0100
0000
,
0010
0000
1000
0000
,
0010
0000
0100
0000
,
0010
0000
0100
0000
,
0010
0000
1000
0000
,
0001
0000
0010
0000
,
0001
0000
0100
0000
,
0010
0000
0100
0000
,
0001
0000
1000
0000
,
1001
0000
0000
0000
,
1001
0000
0000
0000
,
0100
0000
0000
0000
,
1000
0000
0000
0000
,
0010
0000
0010
0000
,
0001
0000
0001
0000
,
0010
0000
0010
0000
,
0100
0000
0100
0000
,
1000
0000
0000
0000
,
0001
0001
0001
0000
,
0100
0000
0001
0000
,
0100
0100
0100
0000
,
0001
0000
1000
0000
,
0001
0001
0001
0000
,
1000
0000
0001
0000
,
1000
1000
1000
0000
,
0010
0000
0100
0000
,
0010
0010
0010
0000
,
1000
0000
0010
0000
,
0000
1001
0000
0000
,
0000
0000
0000
0000
;
#NOTES:
     dance-single:
     :
     Easy:
     8:
     :
0000
0000
0000
0000
,
0000
0000
0000
0000
,
0000
0000
0000
0000
,
0000
0000
0000
0000
,
0000
0000
0000
0000
,
0000
0000
0000
0000
,
0000
0000
0000
0000
,
0000
0000
0000
0000
,
0000
0010
0001
0100
,
0000
0110
0000
0110
0000
1000
0000
0002
,
0000
0000
0000
0000
0000
0103
0000
0020
,
0000
0000
0000
0000
2030
0000
0000
3200
,
0000
0000
0000
0000
0320
0000
0000
0032
,
0000
0000
0000
0000
2003
0000
0000
3200
,
0000
0000
0000
0000
0000
1300
0000
0000
,
0001
0010
0001
0010
,
0001
1000
0100
1000
,
0001
0000
0001
0000
1000
0010
1000
0000
,
0010
0100
0001
0100
,
0010
0000
0010
0000
1000
0001
1000
0000
,
0001
1000
0100
0100
,
0010
0001
0010
0010
,
0100
1000
0100
1000
,
0001
0000
0010
0000
0001
0010
0001
0000
,
0100
1000
0010
0010
,
0100
0001
0100
0100
,
0010
0100
0010
0010
,
1000
0001
1000
1000
,
0001
0100
0001
0000
1000
0000
1000
0000
,
0010
0100
0010
0000
1000
0000
1000
0000
,
0200
1300
0010
1000
,
0001
0100
0001
0001
,
0010
0100
1000
1000
,
2020
0000
0000
3030
,
0001
0100
0001
0100
,
2002
0000
0000
3003
,
0010
0010
1000
1000
,
0100
0100
0001
0001
,
0010
0001
1000
0100
,
0010
0001
0100
0010
,
0100
0001
0010
0100
,
0220
0000
0000
0330
,
0010
0010
0100
1001
,
0001
0001
1000
0110
,
0100
0100
0010
1001
,
1000
1000
0001
0110
,
0110
0000
1001
0000
,
1000
0010
1000
0010
,
0200
0302
2003
3020
,
0130
0000
0000
0001
0000
0000
0010
0000
,
0001
0100
1000
0100
,
0001
0010
1000
0010
,
0001
0001
0100
0100
,
1000
0100
0010
0001
,
1000
0110
0001
0110
,
0100
1001
0010
1001
,
0010
0010
1000
1000
,
0010
0100
0001
1000
,
0100
0001
0100
0001
,
1000
0100
1000
0010
,
0100
0001
1000
0100
,
0010
0010
0001
0001
,
1001
0010
0100
0010
,
1000
0001
1000
0001
1000
0000
1001
0000
,
1001
0000
0110
0000
,
1001
0000
1001
0000
0000
0000
0000
0220
,
0000
0000
0000
0330
,
0001
0000
0001
0000
1000
0000
1000
0010
,
0000
0000
0100
0000
0010
0000
0100
0001
,
0000
0000
1000
0000
0100
0010
0000
0100
,
0000
0000
0010
0000
0001
0000
0100
0001
,
0000
0000
1000
0000
0100
0000
0010
0001
,
0000
1000
0001
0100
,
0010
0100
0000
0100
0000
0100
0000
0100
,
0000
1000
0001
0100
,
0010
0000
1000
0000
0010
0100
0000
0010
,
0000
0000
1000
0000
0001
0100
0001
0000
,
1000
0000
0100
0000
0010
0001
0000
1000
,
0000
0001
1000
1000
,
0010
0000
1000
0000
0100
0010
0000
0100
,
0000
1000
0001
0001
,
0100
0000
0001
0000
1000
0001
0000
0010
,
0000
0100
0010
0100
,
0000
2002
0000
0000
,
0000
0000
0000
0000
,
0000
0000
0000
0000
,
3003
0000
0000
0000
0000
0000
0000
0000
0000
0000
0000
0000
0000
0020
0000
0000
,
0000
0000
0000
0000
,
0000
0000
0000
0000
,
0030
0000
0000
0000
0000
0000
0000
0000
0000
0000
0000
0000
0000
0200
0000
0000
,
0000
0000
0000
0000
,
0000
0000
0000
0000
,
0000
0000
0000
0000
,
0000
0000
0000
0300
,
0000
0000
0000
0000
;
#NOTES:
     dance-single:
     :
     Medium:
     12:
     :
0000
0000
0000
0000
,
0000
0000
0000
0000
,
0000
0000
0000
0000
,
0000
0000
0000
0000
,
0000
0000
0000
0000
,
0000
0000
0000
0000
,
0000
0000
0000
0000
,
0000
0000
0000
0000
,
0000
0000
0010
0100
0010
0100
0001
1000
,
0000
1001
0000
1001
0000
1000
0100
2000
,
0000
0000
0000
0000
0000
3001
0100
0002
,
0000
1000
0000
0000
0203
0000
0000
0320
,
0000
1000
0000
0000
2030
0000
0000
3002
,
0000
0010
0000
0000
0023
0000
0000
0032
,
0000
1000
0000
0000
1003
0001
0100
0000
,
1001
0110
1001
0110
,
0001
0000
0010
0000
0000
0100
0000
0000
1000
0000
0000
0100
0000
0000
0010
0000
,
0001
0010
0001
0000
1000
0100
1000
0000
,
1000
0000
0100
0000
0000
0010
0000
0000
0001
0000
0000
0010
0000
0000
0100
0000
,
1000
0100
1000
0000
0001
0010
0001
0000
,
0001
0000
1000
0000
0000
0100
0000
0000
0010
0000
0000
0001
0000
0000
0100
0000
,
0010
0000
1000
0000
0000
0001
0000
0000
0010
0000
0000
0100
0000
0000
1000
0000
,
0001
0100
0001
0000
1000
0010
1000
0000
,
0110
0000
1001
0000
0010
1000
0100
0000
,
0010
0000
0001
0000
1000
0010
1000
0001
,
0010
0000
1000
0000
0001
0100
0001
1000
,
0100
0000
0001
0000
0100
0001
0100
0001
,
0010
0000
0100
0000
1000
0001
0010
0001
,
1000
0100
1000
0000
0100
0010
0100
0000
,
0010
0001
0010
0000
0001
0000
1000
0000
,
0002
0000
1003
0010
0100
0001
1000
0000
,
0010
0100
0010
0100
0010
0000
1001
0000
,
0100
1000
0001
0010
,
0001
0100
0001
0100
0001
0100
0001
0000
,
0010
0001
1000
0100
,
1000
0000
1000
0010
0000
0010
0100
0000
0100
0001
0000
0000
,
1000
0100
0010
0100
0010
0001
0010
0000
,
0001
0100
0010
0100
0010
1000
0010
0000
,
1000
0100
0001
0000
0100
1000
0010
0000
,
0001
0100
1000
0000
0100
0001
0010
0000
,
0001
0010
0100
1000
0010
0100
0002
2000
,
0000
0000
0000
3003
,
1000
0000
0000
1000
0000
0000
1000
0000
0001
0000
0010
0000
0001
0000
0000
0000
,
0010
0000
0000
0010
0000
0000
0010
0000
0100
0000
1000
0000
0100
0000
0000
0000
,
1000
0000
0000
1000
0000
0000
1000
0000
0001
0000
0100
0000
0001
0000
0000
0000
,
0100
0000
0000
0100
0000
0000
0100
0000
0010
0000
0100
0000
0010
0000
0000
0000
,
1000
0001
1000
0010
,
1010
1001
0101
0110
,
0001
0010
0001
0010
0001
0010
0001
0000
,
0100
0000
0000
0010
0000
0000
1000
0000
0000
0001
0000
0000
0100
0000
0000
0000
,
0001
0000
0000
0001
0000
0000
0100
0000
0000
0100
0000
0000
1000
0000
0000
1000
,
0000
0000
0010
0000
0000
0010
0000
0000
0001
0000
0000
0001
0000
0000
0010
0000
,
0001
0100
0001
0000
1000
0100
1000
0000
,
0001
0010
0001
0000
1000
0000
1001
0000
,
0001
0100
0001
0100
0000
0000
0010
1000
0010
1000
0000
0000
,
0100
1000
0100
1000
0000
0000
0001
0010
0001
0010
0000
0000
,
0001
0000
0010
0001
0010
0100
0010
0000
,
1001
0110
1001
0110
,
0001
0100
0001
0100
0010
1000
0010
1000
,
0001
0010
0100
0000
1000
0000
0010
0000
,
1000
0010
1000
0010
0100
0010
1000
0000
,
0001
0010
0100
1000
0010
0100
0001
0000
,
0110
0000
1001
0000
1000
0001
0100
0000
,
0001
1000
0010
1000
0001
0000
0100
0000
,
1001
0010
1001
0100
,
0010
0100
0010
0100
0000
0000
0000
2002
,
0000
0000
0000
0000
3003
0010
0100
0010
,
1000
0000
0001
0000
0010
0001
0010
0002
,
0000
0000
0003
1000
0001
1000
0010
2000
,
0000
0000
3100
0000
1000
0010
0000
0200
,
0000
0000
0000
0000
0300
0010
1000
0001
,
0000
0100
0001
0000
0010
0100
0000
1000
,
0000
0010
0001
0100
,
0001
1000
0000
0110
0000
0001
0100
0001
,
0000
1000
0010
0000
1000
0001
0010
0001
,
0000
0100
0100
0000
0010
1000
0000
0110
,
0000
0010
0010
0000
0001
0100
0000
0110
,
0000
1000
1000
0000
0001
0010
0000
1001
,
0000
0010
0010
0000
0001
0100
0001
0100
,
0010
0000
0010
0000
1000
0100
0010
0001
,
0000
1000
0100
0000
0010
0001
1000
0010
,
0000
0000
1000
0000
0010
0100
0000
1001
,
0000
0000
0100
0100
0010
0010
0100
0100
,
0000
2001
0000
0000
,
0000
0000
0000
0000
,
0000
0000
0000
0000
,
0000
0000
0000
0000
0000
0000
0000
0000
0000
0000
0000
0000
0000
3001
0000
0000
,
0000
0100
0000
0010
0000
1000
0000
0100
,
0000
0000
0000
0010
0000
0000
0000
0000
0001
0000
0000
0000
0000
0000
0010
0000
,
0000
0000
0000
0000
0000
0000
0000
1000
0000
0100
0000
0010
0000
0002
0000
0000
,
0000
0000
0000
0000
,
0000
0000
0000
0000
,
0000
0000
0000
0000
,
0000
0000
0000
0003
,
0000
0000
0000
0000
;
#NOTES:
     dance-single:
     :
     Hard:
     16:
     :
0000
0000
0000
0000
,
0000
0000
0000
0000
,
0000
0000
0000
0000
,
0000
0000
0000
0000
,
0000
0000
0000
0000
,
0000
0000
0000
0000
,
0000
0000
0000
0000
,
0000
0000
0000
0000
,
0000
0000
0000
0000
0001
0100
0001
0000
1000
0100
1000
0000
0010
0100
0010
0000
,
1000
1010
0000
0101
0000
0010
0100
0002
,
0000
1000
0000
1000
0000
1003
0010
2000
,
0000
0001
0000
0010
3020
1000
0000
0230
,
0000
0001
0000
0001
0302
0100
0000
2003
,
0000
0001
0000
0010
3020
1000
0000
0230
,
0000
0001
0000
0001
0000
0310
0100
0001
,
0101
0000
0000
0000
0101
0000
0000
0000
1001
0000
0000
0000
0010
1000
0010
0000
,
1000
0000
0100
0000
0010
0001
0000
0010
0100
0000
0010
0001
0000
0010
0100
0000
,
1000
0000
0100
0000
0001
0000
0100
0000
1000
0000
0010
0000
1000
0010
0100
0000
,
0001
0000
0010
0000
0100
1000
0000
0100
0010
0000
0100
1000
0000
0100
0010
0000
,
0001
0000
0010
0000
1000
0000
0010
0000
0001
0000
0100
0000
0001
0100
0010
0000
,
0100
0000
0001
0000
1000
0010
0000
1000
0100
0000
1000
0010
0000
1000
0100
0000
,
1000
0000
0100
0000
0010
0001
0000
0010
0100
0000
0010
0001
0000
0010
0100
0000
,
1000
0100
1000
0000
0010
0000
0100
0000
0001
0100
0001
0000
0100
0000
0010
0000
,
1000
0000
0000
0001
0010
0000
0000
1000
0010
0000
0001
0000
0100
0000
0001
0000
,
1000
0000
0010
0000
1000
0000
0100
0000
1000
0000
0010
0000
0100
0001
1000
0000
,
0001
0000
0100
0000
0001
0000
0010
0000
0001
0000
0100
0000
0001
1000
0010
0000
,
1000
0000
0001
0000
0100
0000
0001
0000
1000
0000
0001
0000
0100
0001
0010
0000
,
0001
0000
1000
0000
0010
0000
1000
0000
0001
0000
1000
0000
0010
1000
0100
0000
,
1000
0000
0001
1000
0001
0000
0100
0000
0010
0100
0010
0000
1000
0000
0100
0010
,
0100
0000
0010
0000
0001
0000
1000
0000
0010
0000
1000
0000
0100
0010
0001
0000
,
0200
0000
0301
0010
0001
1000
0100
0010
,
0001
0100
0001
1000
0001
0001
1000
1000
,
0001
0100
0010
1000
0001
0100
0001
0100
,
0010
1000
0010
1000
0010
1000
0010
1000
0010
1000
0010
1000
0010
0000
1000
0000
,
0001
0000
1000
0010
1000
0000
0100
0000
0010
0001
0010
0000
0100
0000
1000
0000
,
0001
0000
0000
0000
0010
0000
0000
0000
1000
0000
0000
0000
0001
0000
0000
0000
0100
0000
0000
0000
1000
0000
0000
0000
0010
0000
0000
0000
0001
0000
0000
0000
0010
0000
0000
0000
1000
0000
0000
0000
0000
0000
0001
0000
0000
0100
0000
0000
,
0001
0000
1000
0001
0100
0000
0010
0000
0100
0001
1000
0000
0100
0000
0010
0001
,
1000
0000
0001
0000
0100
0010
1000
0000
0001
0000
0100
0000
1000
0000
0100
0000
,
0010
0100
0010
0000
1000
0000
0001
0100
0001
0000
1000
0000
0010
0000
0100
0000
,
0010
1000
0010
0000
1000
0010
1000
0000
0001
0100
0001
0000
0100
0001
0100
0000
,
0010
0000
1000
0000
0100
0000
0010
0000
0001
0010
0001
0010
0001
0010
0002
0020
,
0000
0000
0000
0033
,
1001
0000
0000
1000
0001
0000
1000
0000
0010
0000
0100
0000
0001
0000
0100
0000
,
1010
0000
0000
0010
1000
0000
0010
0000
0100
0000
0001
0000
1000
0000
0001
0000
,
0101
0000
0000
0100
0001
0000
0100
0000
0010
0000
1000
0000
0001
0000
1000
0000
,
1001
0000
0000
0001
1000
0000
0001
0000
0100
0000
0010
0000
1000
0000
0010
0000
,
1001
0000
0000
0000
0001
0100
0001
0000
0100
0010
0100
0000
0010
1000
0010
0000
,
1000
0100
1000
0000
1000
0100
1000
0000
0001
0100
0001
0000
0001
0100
0001
0000
,
0010
0100
0010
0100
0010
0100
0010
0100
0010
0100
0010
0100
0010
0000
0001
0000
,
1000
0100
0000
0100
0001
0000
0001
0010
0000
0010
1000
0000
0001
0000
1000
0000
,
0001
0100
0000
1000
0100
0000
0010
0100
0000
0010
1000
0000
0100
1000
0000
0100
,
0010
0000
0001
0100
0000
0001
1000
0000
0010
0100
0000
0010
1000
0000
0010
0000
,
1000
0000
0001
0100
0001
0000
1000
0100
1000
0000
0001
0010
0001
0000
1000
0010
,
1000
0000
0010
0100
0010
0000
1000
0001
1000
0000
0100
0010
0100
0000
0010
0000
,
0001
0010
0001
0010
0001
0010
0100
1000
0100
1000
0100
1000
,
0010
0100
0010
0100
0010
0100
0001
1000
0001
1000
0001
1000
,
0001
0000
1000
0100
1000
0100
1000
0000
0001
0000
0100
0000
1000
0000
0100
0000
,
0001
0100
0000
0100
1000
0000
1000
0010
1000
0000
0001
0000
1000
0000
0001
0000
,
0100
0010
0100
0010
0100
0010
0100
0010
0100
0010
0100
0010
0100
0010
0100
0010
,
0100
0010
0100
0010
0100
0000
0000
0000
0010
1000
0010
0000
1000
0001
1000
0000
,
0100
0010
0100
0010
0100
0010
0100
0010
0100
0000
0010
0000
0001
0000
0000
0000
,
0010
0001
0010
0000
0001
1000
0001
0000
1000
0100
1000
0000
0100
1000
0100
0000
,
1100
0000
0011
0000
1000
0010
1000
0000
,
0010
1000
0010
1000
0010
1000
0010
1000
0010
0000
0000
0000
1001
0000
0000
0000
,
0101
0000
0000
0000
0010
1000
0100
0000
1000
0000
0000
0000
0010
0001
0100
0000
,
0001
1000
0001
1000
0000
0000
0000
0220
,
0000
0000
0000
0000
0330
1000
0010
0100
,
0010
0000
0000
0000
1000
0000
0000
0000
0001
0100
0001
0100
0001
0000
0200
0000
,
0000
0001
0301
0100
0001
0100
0010
2000
,
0000
0000
3001
0000
0100
0100
0000
2001
,
0000
0001
0001
0000
3001
1000
0001
0100
,
0000
0001
0001
0000
1000
1000
0000
0011
,
0000
0000
0001
0000
1000
0100
1000
0000
0001
0100
0001
0000
0100
0010
0100
0000
,
0010
0110
0000
1001
0000
0100
1000
0001
,
0000
0000
0010
0000
0100
0000
1000
0000
0001
0000
0100
0001
0100
0000
0010
0000
,
0000
0100
1000
0100
0010
0010
0000
1010
,
0000
0000
1000
0000
1000
0000
0001
0000
1000
0000
0001
0100
0001
0000
0100
0000
,
0000
0000
0010
0000
0010
0000
1000
0000
0100
1000
0100
0000
0000
0000
0010
0000
,
0000
0001
0001
1000
0001
1000
0100
1000
,
0001
0000
0100
0000
0001
0000
1000
0000
0001
0100
0001
0000
0000
0000
0100
0000
,
0000
0001
0001
0010
0100
0010
1000
0010
,
0100
0000
0010
0000
0001
0000
0010
0000
0001
1000
0001
0000
0000
0000
0001
0000
,
0000
0000
0100
0000
0010
1000
0010
1000
0001
0100
0001
0000
0100
0000
0110
0000
,
0000
1002
0000
0000
,
0000
0000
0000
0000
,
0000
0000
0000
0000
,
0000
0000
0000
0000
0000
0000
0000
0000
0000
0000
0000
0000
0000
0103
0000
0000
,
0000
0010
0000
1000
0000
0100
0000
0010
,
0000
0000
0000
0001
0000
0000
0000
0000
0010
0000
0000
0000
0000
0000
0100
0000
,
0000
0000
0000
0000
0000
0000
0000
1000
0000
0010
0000
0100
0000
0002
0000
0000
,
0000
0000
0000
0000
,
0000
0000
0000
0000
,
0000
0000
0000
0000
,
0000
0000
0000
0003
,
0000
0000
0000
0000
;
#NOTES:
     dance-double:
     :
     Easy:
     8:
     :
00000000
00000000
00000000
00000000
,
00000000
00000000
00000000
00000000
,
00000000
00000000
00000000
00000000
,
00000000
00000000
00000000
00000000
,
00000000
00000000
00000000
00000000
,
00000000
00000000
00000000
00000000
,
00000000
00000000
00000000
00000000
,
00000000
00000000
00000000
00000000
,
00000000
00010000
01000000
10000000
,
00000000
10010000
00000000
10010000
00000000
01000000
00000000
00020000
,
00000000
00000000
00000000
00000000
00000000
10030000
00000000
02000000
,
00000000
00000000
00000000
00000000
03020000
00000000
00000000
00032000
,
00000000
00000000
00000000
00000000
00003200
00000000
00000000
00000302
,
00000000
00000000
00000000
00000000
00000203
00000000
00000000
00002300
,
00000000
00000000
00000000
00000000
00000000
00013000
00000000
00000000
,
00001000
00010000
00001000
00010000
,
00001000
01000000
00010000
00100000
,
01000000
00000000
01000000
00000000
00100000
00010000
00100000
00000000
,
00010000
10000000
01000000
00010000
,
00001000
00000000
00001000
00000000
00001000
00010000
00001000
00000000
,
00010000
00000010
00001000
00000100
,
00000010
00000001
00000100
00000010
,
00001000
00000100
00001000
00000100
,
00010000
00000000
00001000
00000000
00010000
00001000
00010000
00000000
,
00001000
00100000
00010000
00010000
,
01000000
00010000
10000000
10000000
,
00100000
10000000
01000000
01000000
,
00010000
00001000
00010000
00010000
,
00001000
00010000
00001000
00000000
00010000
00000000
00000100
00000000
,
00000010
00000100
00000010
00000000
00000001
00000000
00000100
00000000
,
00000020
00001030
00000100
00010000
,
00001000
00010000
00100000
10000000
,
00100000
10000000
01000000
01000000
,
02200000
00000000
00000000
03300000
,
00010000
01000000
00001000
00010000
,
00022000
00000000
00000000
00033000
,
00001000
00001000
00000100
00000100
,
00000001
00000001
00000010
00000010
,
00000001
00000010
00001000
00010000
,
00100000
10000000
01000000
10000000
,
01000000
00010000
00001000
00010000
,
00022000
00000000
00000000
00033000
,
00001000
00001000
00010000
00011000
,
00000010
00000010
00000100
00000110
,
00000001
00000001
00001000
00001001
,
00000100
00000100
00001000
00011000
,
00100000
00000000
00010000
00000000
,
10000000
01000000
10000000
01000000
,
20000000
30200000
00320000
00032000
,
00013000
00000000
00000000
00001000
00000000
00000000
00010000
00000000
,
00000100
00001000
00000001
00000010
,
00000001
00000100
00001000
00010000
,
00100000
00100000
10000000
10000000
,
01000000
00010000
00001000
00010000
,
00001000
00011000
00000010
00000110
,
00001000
00001001
00000100
00000110
,
00000010
00000010
00001000
00001000
,
00000100
00010000
00001000
00100000
,
00010000
01000000
00010000
01000000
,
00100000
10000000
00100000
10000000
,
01000000
00100000
00001000
00010000
,
00001000
00001000
00010000
00010000
,
00011000
00000000
00000110
00000000
,
00000001
00000100
00000001
00000100
00000001
00000000
00001000
00000000
,
00000100
00000000
00010000
00000000
,
00011000
00000000
00011000
00000000
00000000
00000000
00000000
00022000
,
00000000
00000000
00033000
00000000
,
00010000
00000000
00010000
00000000
00100000
00000000
00100000
02000000
,
00000000
00000000
00000000
00000000
03010000
00000000
00010000
20000000
,
00000000
00000000
30100000
00000000
01000000
00000000
00000000
02000000
,
00000000
00000000
00000000
00000000
03100000
00000000
00100000
10000000
,
00000000
00000000
01000000
00000000
00010000
00000000
00010000
00001000
,
00000000
00000100
00000001
00000100
,
00000001
00000010
00000000
00000001
00000000
00000100
00000000
00001000
,
00000000
00010000
00001000
00001000
,
00010000
00000000
00100000
00000000
01000000
00100000
00000000
00100000
,
00000000
10000000
00100000
00100000
,
10000000
00000000
01000000
00000000
00100000
00010000
00000000
00010000
,
00000000
00001000
00010000
00010000
,
00000100
00000000
00001000
00000000
00000010
00000100
00000000
00000100
,
00000000
00000001
00001000
00000001
,
00000100
00000000
00000010
00000000
00001000
00000100
00000000
00000100
,
00000000
00010000
00001000
00100000
,
00000000
00220000
00000000
00000000
,
00000000
00000000
00000000
00000000
,
00000000
00000000
00000000
00000000
,
00330000
00000000
00000000
00000000
00000000
00000000
00000000
00000000
00000000
00000000
00000000
00000000
00000000
20000000
00000000
00000000
,
00000000
00000000
00000000
00000000
,
00000000
00000000
00000000
00000000
,
30000000
00000000
00000000
00000000
00000000
00000000
00000000
00000000
00000000
00000000
00000000
00000000
00000000
00200000
00000000
00000000
,
00000000
00000000
00000000
00000000
,
00000000
00000000
00000000
00000000
,
00000000
00000000
00000000
00000000
,
00000000
00000000
00000000
00300000
,
00000000
00000000
00000000
00000000
;
#NOTES:
     dance-double:
     :
     Medium:
     11:
     :
00000000
00000000
00000000
00000000
,
00000000
00000000
00000000
00000000
,
00000000
00000000
00000000
00000000
,
00000000
00000000
00000000
00000000
,
00000000
00000000
00000000
00000000
,
00000000
00000000
00000000
00000000
,
00000000
00000000
00000000
00000000
,
00000000
00000000
00000000
00000000
,
00000000
00000000
00001000
00000001
00001000
00000001
00000100
00000010
,
00000000
00001010
00000000
00011000
00000000
00010000
00001000
00020000
,
00000000
00000000
00000000
00000000
00000000
00031000
00100000
02000000
,
00000000
10000000
00000000
00000000
23000000
00000000
00000000
32000000
,
00000000
00010000
00000000
00000000
03020000
00000000
00000000
00032000
,
00000000
00010000
00000000
00000000
00003200
00000000
00000000
00000302
,
00000000
00000010
00000000
00000000
00000013
00000001
00001000
00000000
,
00001001
00001100
00011000
01010000
,
00100000
00000000
10000000
00000000
00000000
01000000
00000000
00000000
00100000
00000000
00000000
00010000
00000000
00000000
10000000
00000000
,
01000000
00010000
00001000
00000000
00010000
00001000
00010000
00000000
,
00001000
00000000
00000010
00000000
00000000
00000001
00000000
00000000
00001000
00000000
00000000
00000100
00000000
00000000
00000010
00000000
,
00000001
00000100
00001000
00000000
00010000
00001000
00010000
00000000
,
00001000
00000000
00010000
00000000
00000000
01000000
00000000
00000000
10000000
00000000
00000000
00010000
00000000
00000000
00100000
00000000
,
00100000
00000000
00001000
00000000
00000000
00010000
00000000
00000000
00000100
00000000
00000000
00010000
00000000
00000000
00001000
00000000
,
00010000
00001000
00010000
00000000
00001000
00000100
00000001
00000000
,
00000100
00000000
00000010
00000000
00001000
00000001
00000100
00000000
,
00000010
00000000
00001000
00000000
00000100
00010000
00000100
00000000
,
00010000
00000000
00001000
00000000
01000000
00010000
01000000
00000000
,
00100000
00000000
10000000
00000000
00010000
10000000
00010000
00000000
,
10000000
00000000
00010000
00000000
00100000
00001000
00100000
00000000
,
00001000
00010000
00001000
00000000
00000100
00000010
00000100
00000000
,
00000001
00000100
00000001
00000000
00001000
00000000
00010000
00000000
,
00002000
01003000
00010000
00100000
,
00010000
01000000
00010000
01000000
00010000
00000000
10010000
00000000
,
01000000
00010000
00001000
00010000
,
00001000
00010000
00001000
00010000
00001000
00010000
00001000
00000000
,
00010000
00001000
00000010
00000001
,
00000100
00000000
00000001
00001000
00000000
00000100
00010000
00000000
00001000
00100000
00000000
00000000
,
00010000
00000000
10000000
00000000
01000000
00100000
01000000
00000000
,
10000000
00000000
00100000
00000000
01000000
00010000
01000000
00000000
,
00001000
00010000
00001000
00000000
00010000
00000000
00010000
00000000
,
00001000
00000100
00000001
00000000
00000010
00000000
00000010
00000000
,
00000001
00001000
00001100
00011000
,
00022000
00000000
00000000
00033000
,
00001000
00000000
00000000
00001000
00000000
00000000
00001000
00000000
00100000
00000000
00010000
00000000
00100000
00000000
00000000
00000000
,
00010000
00000000
00000000
00010000
00000000
00000000
00010000
00000000
10000000
00000000
01000000
00000000
10000000
00000000
00000000
00000000
,
00100000
00000000
00000000
00100000
00000000
00000000
00100000
00000000
01000000
00000000
00100000
00000000
01000000
00000000
00000000
00000000
,
00010000
00000000
00000000
00010000
00000000
00000000
00010000
00000000
01000000
00000000
00100000
00000000
01000000
00000000
00000000
00000000
,
01100000
10000000
01000000
00010000
,
00011000
00010100
00001100
00000110
,
00000001
00000100
00000001
00000100
00000001
00000100
00000001
00000000
,
00000001
00000000
00000000
00000100
00000000
00000000
00001000
00000000
00000000
00010000
00000000
00000000
01000000
00000000
00000000
00000000
,
10000000
00000000
00000000
00100000
00000000
00000000
00010000
00000000
00000000
00001000
00000000
00000000
00000010
00000000
00000000
00000001
,
00000000
00000000
00000100
00000000
00000000
00001000
00000000
00000000
00010000
00000000
00000000
01000000
00000000
00000000
10000000
00000000
,
01000000
00000000
00100000
00000000
00010000
01000000
00010000
00000000
,
10000000
00100000
10000000
10010000
,
10000000
01000000
10000000
01000000
00000000
00000000
00010000
00001000
00010000
00001000
00000000
00000000
,
00000100
00000001
00000100
00000001
00000000
00000000
00000010
00000100
00000010
00000100
00000000
00000000
,
00001000
00000000
00000001
00001000
00000100
00010000
00001000
00000000
,
00011000
00110000
10010000
01100000
,
10000000
00100000
10000000
00100000
01000000
00010000
01000000
00001000
,
00010000
00000100
00001000
00000000
00000001
00000000
00000100
00000000
,
00000010
00001000
00000010
00001000
00000000
00000100
00010000
00000000
,
00001000
00010000
01000000
10000000
01000000
00000000
10000000
00000000
,
10010000
00000000
01100000
00000000
00010000
01000000
00010000
00000000
,
10000000
01000000
10000000
01000000
10000000
00000000
01100000
00000000
,
00110000
00001000
00011000
00010000
,
00000100
00001000
00000100
00000010
00000000
00000000
00000000
00002002
,
00000000
00000000
00000000
00000000
00003003
00000100
00000010
00000100
,
00000001
00000000
00001000
00000000
00000100
00001000
00000100
00020000
,
00000000
00000000
00030000
00001000
00010000
00100000
10000000
00200000
,
00000000
00000000
01300000
00000000
00010000
10000000
00000000
02000000
,
00000000
00000000
00000000
00000000
03000000
00100000
00010000
01000000
,
00000000
00001000
00010000
00000000
00000100
00001000
00000000
00000010
,
00000000
00001000
00000100
00000010
,
00000001
00001000
00000000
00000100
00000000
00010000
00001000
00010000
,
00000000
00001000
00100000
00001000
00000000
01000000
00010000
01000000
,
00000000
00100000
00100000
00000000
10000000
01000000
00000000
00100000
,
00000000
00001000
00001000
00000000
00010000
00001000
00000000
00010000
,
00000000
00000010
00000010
00000000
00001000
00000100
00000000
00000010
,
00000000
00000001
00000001
00000000
00001000
00000100
00001000
00000100
,
00010000
00000000
00001000
00000000
00010000
01000000
10000000
01000000
,
00000000
00100000
00010000
00000000
10000000
01000000
00010000
00001000
,
00000000
00000000
00000100
00000000
00000001
00000100
00000000
00000001
,
00000000
00000000
00000001
00000010
00001000
00010000
00100000
10000000
,
00000000
01020000
00000000
00000000
,
00000000
00000000
00000000
00000000
,
00000000
00000000
00000000
00000000
,
00000000
00000000
00000000
00000000
00000000
00000000
00000000
00000000
00000000
00000000
00000000
00000000
00000000
10030000
00000000
00000000
,
00000000
01000000
00000000
00010000
00000000
00001000
00000000
00000100
,
00000000
00000000
00000000
00000001
00000000
00000000
00000000
00000000
00000010
00000000
00000000
00000000
00000000
00000000
00000100
00000000
,
00000000
00000000
00000000
00000000
00000000
00000000
00000000
00001000
00000000
00000100
00000000
00000010
00000000
00000002
00000000
00000000
,
00000000
00000000
00000000
00000000
,
00000000
00000000
00000000
00000000
,
00000000
00000000
00000000
00000000
,
00000000
00000000
00000000
00000003
,
00000000
00000000
00000000
00000000
;
#NOTES:
     dance-double:
     :
     Hard:
     16:
     :
00000000
00000000
00000000
00000000
,
00000000
00000000
00000000
00000000
,
00000000
00000000
00000000
00000000
,
00000000
00000000
00000000
00000000
,
00000000
00000000
00000000
00000000
,
00000000
00000000
00000000
00000000
,
00000000
00000000
00000000
00000000
,
00000000
00000000
00000000
00000000
,
00000000
00000000
00000000
00000000
00100000
10000000
00100000
00000000
10000000
01000000
10000000
00000000
00010000
01000000
00010000
00000000
,
00100000
00101000
00000000
00011000
00000000
00001000
00010000
00000020
,
00000000
00001000
00000000
00001000
00000000
00001030
00000001
00000200
,
00000000
00000010
00000000
00000001
00000302
00000100
00000000
00000203
,
00000000
00001000
00000000
00001000
00001300
00020000
00000000
02030000
,
00000000
00100000
00000000
10000000
23000000
01000000
00000000
30020000
,
00000000
00100000
00000000
00100000
00000000
01030000
00010000
00100000
,
00110000
00000000
00000000
00000000
00011000
00000000
00000000
00000000
00001100
00000000
00000000
00000000
00000010
00001000
00000010
00000000
,
00001000
00000000
00000010
00000000
00000100
00000001
00000000
00000100
00000010
00000000
00000100
00000001
00000000
00000100
00000010
00000000
,
00001000
00000000
00000001
00000000
00000100
00000000
00001000
00000000
00010000
00000000
01000000
00000000
10000000
00100000
10000000
00000000
,
00010000
00000000
01000000
00000000
00100000
10000000
00000000
00100000
01000000
00000000
00100000
10000000
00000000
00100000
01000000
00000000
,
00010000
00000000
10000000
00000000
01000000
00000000
00010000
00000000
00001000
00000000
00000100
00000000
00000001
00000010
00000001
00000000
,
00000100
00000000
00000001
00000000
00001000
00000100
00000000
00010000
00001000
00000000
00100000
00010000
00000000
10000000
01000000
00000000
,
10000000
00000000
00100000
00000000
01000000
00010000
00000000
00100000
00001000
00000000
00010000
00000100
00000000
00001000
00000010
00000000
,
00000100
00000001
00000100
00000000
00000010
00000000
00001000
00000000
00000100
00001000
00000100
00000000
00010000
00000000
00001000
00000000
,
00100000
00001000
00100000
00000000
00010000
00000000
01000000
00000000
00100000
00000000
10000000
00000000
01000000
10000000
01000000
00000000
,
10000000
00000000
00010000
00000000
01000000
00000000
00010000
00000000
00100000
00000000
00010000
00000000
01000000
00010000
01000000
00000000
,
00001000
00000000
00010000
00000000
00000100
00000000
00001000
00000000
00000010
00000000
00000100
00000000
00000001
00000100
00000001
00000000
,
00001000
00000000
00000010
00000000
00001000
00000000
00000001
00000000
00001000
00000000
00000100
00000000
00010000
00001000
00010000
00000000
,
00001000
00000000
00100000
00000000
00010000
00000000
01000000
00000000
00010000
00000000
10000000
00000000
01000000
10000000
01000000
00000000
,
10000000
00000000
00100000
01000000
00100000
00000000
01000000
00000000
00010000
00100000
00010000
00000000
00100000
00000000
00001000
00010000
,
00001000
00000000
00010000
00000000
00001000
00000000
00000100
00000000
00000001
00000000
00000100
00000000
00000010
00001000
00000010
00000000
,
00002000
00000000
00003001
00000010
00001000
00010000
00100000
10000000
,
01000000
10000000
00100000
10000000
01000000
01000000
00100000
00100000
,
00010000
10000000
01000000
00100000
00010000
01000000
00001000
00010000
,
00001000
00010000
00001000
00010000
00001000
00010000
00001000
00010000
00001000
00010000
00001000
00010000
00001000
00000000
00010000
00000000
,
00000100
00000000
00001000
00000100
00001000
00000000
00000001
00000000
00000100
00000010
00000100
00000000
00000001
00000000
00000100
00000000
,
00000001
00000100
00001000
00010000
00100000
00010000
00001000
00010000
01000000
10000000
00000000
00000000
,
00100000
00000000
10000000
01000000
10000000
00000000
00010000
00000000
01000000
00010000
01000000
00000000
00001000
00000000
00010000
00001000
,
00010000
00000000
00000010
00000000
00001000
00000010
00001000
00000000
00000001
00000000
00000010
00000000
00000001
00000000
00001000
00000000
,
00000001
00001000
00000100
00000000
00001000
00000000
00000001
00001000
00000010
00000000
00001000
00000000
00000100
00000000
00010000
00000000
,
00001000
01000000
00010000
00000000
01000000
00100000
10000000
00000000
00010000
10000000
01000000
00000000
00100000
00010000
10000000
00000000
,
01000000
00000000
00010000
00000000
00001000
00000000
00000100
00000000
00000010
00000100
00000010
00000100
00000010
00000100
00000020
00000200
,
00000000
00000000
00000000
00000330
,
00010000
00000000
00000000
00010000
01000000
00000000
10000000
00000000
00100000
00000000
10000000
00000000
10010000
00000000
00000000
00000000
,
00100000
00000000
00000000
00100000
10000000
00000000
01000000
00000000
00010000
00000000
00001000
00000000
00011000
00000000
00000000
00000000
,
00001000
00000000
00000000
00001000
00000010
00000000
00000001
00000000
00000100
00000000
00000010
00000000
00000110
00000000
00000000
00000000
,
00001000
00000000
00000000
00001000
00000001
00000000
00000010
00000000
00001000
00000000
00010000
00000000
00011000
00000000
00000000
00000000
,
00110000
00000000
00000000
00000000
01000000
00010000
01000000
00000000
00100000
00000000
00000000
00000000
10000000
00000000
00000000
00000000
,
00010000
00100000
00001000
00000000
00100000
00001000
00010000
00000000
00001000
00010000
00000100
00000000
00010000
00000100
00001000
00000000
,
00000001
00000100
00000001
00000100
00000001
00000100
00000001
00000100
00000001
00000100
00000001
00000100
00000001
00000000
00001000
00000000
,
00000001
00000010
00000000
00000010
00001000
00000000
00001000
00010000
00000000
00010000
00100000
00000000
10000000
00000000
00010000
00000000
,
10000000
01000000
00000000
00100000
00010000
00000000
01000000
00001000
00000000
00010000
00000100
00000000
00001000
00000010
00000000
00000100
,
00000001
00000000
00000010
00000001
00000000
00001000
00000100
00000000
00010000
00001000
00000000
00100000
00010000
00000000
01000000
00000000
,
00010000
00000000
10000000
01000000
10000000
00000000
00010000
01000000
00010000
00000000
00100000
00010000
00100000
00000000
00010000
10000000
,
00010000
00000000
00100000
01000000
00100000
00000000
00001000
00010000
00001000
00000000
00010000
00000000
00000100
00000000
00001000
00000000
,
00000001
00000100
00000001
00000100
00000001
00000100
00000010
00001000
00000010
00001000
00000010
00001000
,
00000100
00010000
00000100
00010000
00000100
00010000
00001000
00100000
00001000
00100000
00001000
00100000
,
00010000
00000000
01000000
00010000
01000000
00010000
01000000
00000000
00100000
00000000
10000000
00000000
01000000
00000000
00100000
00000000
,
00010000
01000000
00010000
00000000
00100000
00010000
00100000
00000000
00001000
00010000
00001000
00000000
00010000
00001000
00010000
00000000
,
00000010
00000100
00000010
00000100
00000010
00000100
00000010
00000100
00000010
00000100
00000010
00000100
00000010
00000100
00000010
00000100
,
00000010
00000100
00000010
00000100
00000010
00000000
00000000
00000000
00010000
00001000
00010000
00000000
00001000
00010000
00001000
00000000
,
00100000
01000000
00100000
01000000
00100000
01000000
00100000
01000000
00100000
00000000
00001000
00000000
00010000
00000000
00000000
00000000
,
00000010
00010000
00001000
00000000
00010000
00001000
00100000
00000000
00001000
00100000
00010000
00000000
00100000
00010000
10000000
00000000
,
11000000
00000000
10010000
00000000
01000000
00100000
01000000
00000000
,
00010000
00100000
00010000
00100000
00010000
00100000
00010000
00100000
00010000
00000000
00000000
00000000
00110000
00000000
00000000
00000000
,
00011000
00000000
00000000
00000000
00000010
00001000
00000010
00000000
00000100
00000000
00000000
00000000
00000001
00000100
00000001
00000000
,
00001000
00000001
00001000
00000001
00000000
00000000
00000000
00000220
,
00000000
00000000
00000000
00000000
00000330
00000001
00000100
00000001
,
00001000
00000000
00000000
00000000
00000100
00000000
00000000
00000000
00010000
00001000
00010000
00001000
00010000
00000000
00002000
00000000
,
00000000
00010000
00013000
01000000
10000000
01000000
10000000
00200000
,
00000000
00000000
01300000
00000000
00010000
00010000
00000000
00200000
,
00000000
01000000
01000000
00000000
01300000
10000000
00100000
00010000
,
00000000
00001000
00001000
00000000
00010000
00010000
00000000
00001010
,
00000000
00000000
00000010
00000000
00000100
00000001
00000100
00000000
00000010
00001000
00000010
00000000
00001000
00000100
00001000
00000000
,
00000100
00001100
00000000
00011000
00000000
00001000
00100000
00010000
,
00000000
00000000
01000000
00000000
00100000
00000000
10000000
00000000
00010000
00000000
10000000
01000000
10000000
00000000
01000000
00000000
,
00000000
00000000
00100000
00010000
00100000
00000000
00000000
00000000
00010000
00000000
00010000
00000000
00000000
00000000
01010000
00000000
,
00000000
00000000
00001000
00000000
00001000
00000000
00000000
00000000
00010000
00001000
00010000
00000000
00000000
00000000
00001010
00000000
,
00000000
00000000
00000100
00000000
00000100
00000000
00000000
00000000
00000001
00000010
00000001
00000000
00000000
00000000
00001000
00000000
,
00000000
00000010
00000010
00000000
00001000
00000001
00000100
00001000
,
00010000
00000000
01000000
00000000
10000000
00000000
01000000
00000000
00100000
00010000
00100000
00010000
00100000
00000000
00001000
00000000
,
00000000
00100000
00100000
00000000
00010000
10000000
01000000
00010000
,
00001000
00000000
00000100
00000000
00000001
00000000
00000100
00000000
00000010
00001000
00000010
00001000
00000010
00000000
00010000
00000000
,
00000000
00000000
00001000
00000000
00010000
00001000
00010000
00001000
00100000
00010000
00100000
00000000
00010000
00000000
10010000
00000000
,
00000000
02100000
00000000
00000000
,
00000000
00000000
00000000
00000000
,
00000000
00000000
00000000
00000000
,
00000000
00000000
00000000
00000000
00000000
00000000
00000000
00000000
00000000
00000000
00000000
00000000
00000000
03010000
00000000
00000000
,
00000000
10000000
00000000
01000000
00000000
00010000
00000000
00001000
,
00000000
00000000
00000000
00000100
00000000
00000000
00000000
00000000
00000001
00000000
00000000
00000000
00000000
00000000
00000010
00000000
,
00000000
00000000
00000000
00000000
00000000
00000000
00000000
00000001
00000000
00000010
00000000
00000100
00000000
00002000
00000000
00000000
,
00000000
00000000
00000000
00000000
,
00000000
00000000
00000000
00000000
,
00000000
00000000
00000000
00000000
,
00000000
00000000
00000000
00003000
,
00000000
00000000
00000000
00000000
;
