
//----- song ID: toyb -----//
#TITLE:Toy Box Factory;
#ARTIST:まろん(IOSYS);
#ARTISTTRANSLIT:Maron (IOSYS);
#BANNER:Toy Box Factory.png;
#BACKGROUND:Toy Box Factory-bg.png;
#CDTITLE:./CDTitles/DDR A20.png;
#MUSIC:Toy Box Factory.ogg;
#SAMPLESTART:72.958;
#SAMPLELENGTH:15;
#BPMS:0=148;
#NOTES:
     dance-single:
     :
     Beginner:
     3:
     :
0000
0000
0000
0000
,
0000
0000
0000
0000
,
0000
0000
0000
0000
,
0000
0000
0000
0000
,
0000
0000
0000
0000
,
0001
0000
0001
0000
,
0100
0000
0100
0000
,
0001
0000
0010
0000
,
0001
0000
0000
0000
,
2002
0000
0000
0000
,
3003
0000
0000
0000
,
1000
0000
1000
0000
,
0100
0000
0100
0000
,
1000
0000
0010
0000
,
1000
0000
0000
0000
,
0001
0000
0001
0000
,
0100
0000
0100
0000
,
0001
0000
0010
0000
,
0001
0000
0000
0000
,
1000
0000
0100
0000
,
1000
0000
0000
0000
,
1000
0000
0010
0000
,
1000
0000
0000
0000
,
0001
0000
0100
0000
,
0001
0000
0010
0000
,
0001
0000
0100
0000
,
0001
0001
0001
0000
,
0002
0000
0000
0000
,
0003
0000
0000
0000
,
0002
0000
0000
0000
,
0003
0000
0000
0000
,
1000
1000
1000
0000
,
1000
1000
1000
0000
,
2000
0000
0000
0000
,
3000
0000
0000
0000
,
1000
0000
0100
0000
,
1000
0000
0100
0000
,
1000
0000
0010
0000
,
1000
0000
0000
0000
,
0001
0000
0100
0000
,
0001
0000
0100
0000
,
0001
0000
0010
0000
,
0001
0000
0000
0000
,
2002
0000
0000
0000
,
3003
0000
0000
0000
,
0001
0100
0001
0000
,
0001
0000
0001
0000
,
0001
0010
0001
0000
,
0001
0000
0000
0000
,
1000
0100
1000
0000
,
1000
0000
1000
0000
,
1000
0010
1000
0000
,
1000
0000
0000
0000
,
2002
0000
0000
0000
,
3003
0000
0000
0000
,
0001
0000
0001
0000
,
0001
0000
0000
0000
,
0001
0100
0001
0100
,
0001
0000
0000
0000
,
1000
0100
1000
0100
,
1000
0000
0000
0000
,
1000
0010
1000
0000
,
2000
0000
0000
0000
,
3000
0000
0000
0000
,
0001
0000
0000
0000
,
0001
0001
0001
0001
,
0001
0000
0000
0000
,
0000
0000
0000
0000
;
#NOTES:
     dance-single:
     :
     Easy:
     7:
     :
0000
0000
0000
0000
,
0000
0000
0000
0000
,
0000
0000
0000
0000
,
0000
0000
0000
0000
,
0000
0000
0000
0000
,
0001
0001
0100
0100
,
1000
1000
0100
0100
,
0001
0100
1000
0100
,
0001
0100
1000
0100
,
0001
0001
0001
0001
,
1000
0001
2002
3003
,
1000
0001
1000
0001
,
1000
0000
0100
0000
0010
0010
0010
0000
,
0001
1000
0001
1000
,
0001
0000
0010
0000
0100
0100
0100
0000
,
0010
1000
0010
1000
,
0001
0000
0100
0000
0001
0001
0001
0000
,
0010
0001
0010
0001
,
1000
1000
1000
0000
0100
0100
0100
0000
,
1000
0010
0001
0010
,
1000
0100
0020
0030
,
0001
0100
1000
0100
,
0001
1000
0002
0003
,
1000
0100
0010
0001
,
1000
0000
0100
0000
0010
0010
0010
0000
,
0001
0010
0100
1000
,
0001
0000
0010
0000
0100
0100
0100
0000
,
2000
0000
3010
0100
,
0001
1000
0001
0000
,
0002
0000
0013
0100
,
1001
0000
0000
0000
,
1000
0100
1000
0000
0100
0000
0000
0000
,
0001
0100
0001
0000
0100
0000
0000
0000
,
1000
0010
1000
0000
0010
0000
0000
0000
,
0001
0010
0100
1000
,
0001
0001
1000
0000
,
1000
1000
0001
0000
,
0010
0010
0100
0000
,
0100
0100
0010
0000
,
0000
0110
0000
1001
,
0000
0110
0000
1001
,
0000
0011
0000
1100
,
0000
0011
0000
1100
,
0000
0000
0002
0000
,
2003
0000
3200
0000
,
0310
0001
0010
1000
,
0010
0000
0001
0000
1000
0010
1000
0000
,
0001
0010
1000
0010
,
0001
0000
0010
0000
0100
1000
0100
0000
,
1000
0100
0001
0100
,
1000
0000
0100
0000
0010
0001
0010
0000
,
0100
1000
0100
0001
,
0100
0000
1000
0000
0001
0100
0001
0000
,
1000
0001
1000
0001
,
1000
0001
2002
3003
,
0001
0000
0100
0000
0010
1000
0010
0000
,
0200
0000
0000
0000
,
0310
1000
0100
0001
,
0100
1000
0010
0001
,
0010
1000
0100
0001
,
0100
0010
0001
0000
,
0100
0010
0001
0000
,
0100
0000
0010
0000
,
0002
0000
0003
0000
,
2000
0000
3000
0000
,
0001
1000
0001
0000
1000
0001
1000
0000
,
1001
0000
0000
0000
,
0000
0000
0000
0000
;
#NOTES:
     dance-single:
     :
     Medium:
     11:
     :
0000
0000
0000
0000
,
0000
0000
0000
0000
,
0000
0000
0000
0000
,
0000
0000
0000
0000
,
0000
0000
0000
0000
,
0010
1100
0010
0101
,
1000
0011
0001
1010
,
0100
0011
0100
1010
,
0001
0101
2000
0000
,
3001
0100
0001
0100
,
0001
1000
0001
1000
0001
0000
1001
0000
,
0001
0100
0010
0000
1000
0100
0010
0000
,
0001
0010
0100
1000
0001
0001
0001
0000
,
0100
0010
1000
0000
0100
0010
0001
0000
,
1000
0010
0100
0001
1000
1000
1000
0000
,
0001
0010
1000
0000
1000
0010
0001
0000
,
1000
0010
1000
0010
0100
0001
0100
0000
,
0001
0010
1000
0000
1000
0010
0001
0000
,
0001
0010
0001
0010
0100
1000
0100
0000
,
1000
0010
1010
0011
,
0001
0100
0010
0000
1000
0100
0010
0000
,
0001
0010
0011
1010
,
1000
0010
0100
0001
0100
0000
1001
0000
,
0010
1000
0001
0000
0010
0001
1000
0000
,
0001
0100
1000
0100
0001
1000
0001
0000
,
0100
0001
1000
0000
0100
1000
0001
0000
,
1000
0100
0001
0100
1000
0001
1000
0000
,
0020
0000
2030
0000
3100
0010
0100
0000
,
0020
0000
0032
0000
0103
0010
0100
0000
,
0020
0000
2030
0000
3100
0010
0100
0000
,
0220
0000
0000
0330
,
0001
0100
0001
0100
0001
0100
0001
0000
,
1000
0100
1000
0100
1000
0100
1000
0000
,
0001
0100
0001
0100
0001
0100
0001
0100
,
0001
0010
0100
1000
0001
0000
1000
0000
,
0010
0000
0100
0000
0001
0010
0100
0000
,
1000
0000
0001
0000
1000
0010
0100
0000
,
0001
0000
1000
0000
0100
0010
0001
0000
,
0100
0000
0010
0000
0100
0010
0100
0000
,
0100
1001
0010
1001
,
0100
1001
0010
1001
,
0001
0110
1000
0110
,
0001
0110
1000
0110
,
0002
0000
0023
0000
,
0230
0000
2300
0000
,
3001
0010
0001
0010
0100
0010
0001
0000
,
1000
0010
0100
0001
0100
0010
1000
0000
,
0001
0010
0001
0010
0100
0010
0001
0000
,
1000
0010
0100
0001
0010
0100
1000
0001
,
1000
0010
1000
0010
0100
0010
1000
0000
,
0001
0010
0100
1000
0100
0010
0001
0000
,
1000
0010
1000
0010
0100
0010
1000
0000
,
0001
0100
0010
1000
0100
0010
0001
0000
,
0001
1000
0001
1000
,
0010
0100
0010
0010
,
1000
0100
1000
0100
0010
0100
1000
0000
,
0001
0000
0010
0000
0000
0010
0000
0000
0100
0000
0000
0100
0000
0000
1000
0000
,
0001
0100
1000
0100
1000
0100
0001
0000
,
1000
0100
0010
0001
0010
0100
1000
0000
,
1000
0100
0001
0100
0001
0100
1000
0000
,
0001
0010
0100
1000
0100
0010
0001
0000
,
0001
0010
0100
1000
0100
0010
0001
0000
,
0001
0010
0100
1000
,
0002
0000
0003
0000
,
2000
0000
3000
0000
,
0001
0100
0001
0100
0001
0100
0001
0100
0001
0100
0001
0100
0001
0100
0001
0100
,
0001
0000
0000
0000
,
0000
0000
0000
0000
;
#NOTES:
     dance-single:
     :
     Hard:
     15:
     :
0000
0000
0000
0000
,
0000
0000
0000
0000
,
0000
0000
0000
0000
,
0000
0000
0000
0000
,
0000
0000
0000
0000
,
0010
1000
0100
0000
0010
0001
1000
0000
,
0100
1000
0010
0000
0100
0001
1000
0000
,
0001
0100
1000
0000
1000
0100
0001
0000
,
1000
0000
0100
0000
0010
0000
0001
0000
0100
0010
0100
0010
0200
0000
0000
0000
,
1000
0001
1000
0001
,
1300
0100
0001
0100
0010
0000
1001
0000
,
1000
0000
0100
0000
0011
0000
0100
1000
0000
1000
0100
0000
1010
0000
0100
0000
,
0001
0010
0001
0010
0100
0000
1000
0000
0001
0000
0001
0000
0001
0000
0000
0000
,
0001
0000
0100
0000
1010
0000
0100
0001
0000
0001
0100
0000
0011
0000
0100
0000
,
1000
0100
1000
0000
0001
0100
0001
0000
0010
0100
0010
0100
0010
0000
0000
0000
,
0001
0000
0010
0000
1100
0000
0010
0001
0000
0001
0010
0000
0101
0000
0010
0000
,
1000
0100
1000
0100
0010
0000
0001
0000
1000
0000
1000
0000
1000
0000
0000
0000
,
1000
0000
0010
0000
0101
0000
0010
1000
0000
1000
0010
0000
1100
0000
0010
0000
,
0001
0010
0001
0000
1000
0000
0100
0000
0110
0000
0110
0000
0110
0000
0000
0000
,
0001
0000
0000
0001
0100
0000
0000
0100
1000
0000
0100
0000
0001
0000
0000
0000
,
1000
0100
0001
0100
2000
0001
3001
0000
,
1000
0000
0000
1000
0010
0000
0000
0010
0001
0000
0010
0000
1000
0000
0000
0000
,
0001
0000
0001
0010
0001
0000
1000
0000
0010
0000
0000
0000
1001
0000
0000
0000
,
0010
0000
0100
0000
1001
0000
0100
0010
0000
0010
0100
0000
1001
0000
0010
0000
,
0100
1000
0100
0010
0001
0000
0100
0000
0010
0000
0010
0000
0010
0000
0000
0000
,
0100
0000
0010
0000
1001
0000
0010
0100
0000
0100
0010
0000
1001
0000
0010
0000
,
1000
0100
1000
0100
0010
0000
0001
0000
0101
0000
1100
0000
0101
0000
0000
0000
,
2000
0000
0000
0000
3001
0100
0001
0100
0010
0000
1000
0000
0010
0000
0100
0000
,
0001
0000
0001
1000
0001
0000
0100
0000
0010
0000
1000
0000
0100
0000
0110
0000
,
0020
0000
0000
0000
0130
1000
0100
1000
0010
0000
0100
0000
0001
0000
0010
0000
,
1000
0000
0000
0000
,
0001
0100
0001
0100
0001
0100
0001
0100
0001
0100
0001
0100
0001
0100
0001
0100
,
0001
0100
0001
0100
0001
0100
0001
0100
0001
0100
0001
0100
0001
0100
0001
0100
,
0001
0100
0001
0100
0001
0100
0001
0100
0001
0100
0001
0100
0001
0100
0001
0100
,
0001
0000
1000
0001
1000
0000
0001
1000
0001
0000
0010
0000
0100
0000
0000
0000
,
1000
0000
0010
0000
0100
0000
0001
1000
0000
1000
0100
0000
0010
0000
0001
1000
,
0001
0000
0100
0000
1000
0000
0100
0000
0010
0100
0010
0100
0010
0000
0000
0000
,
0001
0000
0010
0000
0100
0000
1000
0001
0000
0001
0100
0000
0010
0000
1000
0001
,
1000
0000
0100
0000
0001
0000
0100
0000
0010
0100
0010
0100
0010
0000
0000
0000
,
0001
0000
0100
0000
0101
0000
1000
0100
0000
0100
0010
0000
0110
0000
1000
0100
,
1000
0000
0001
0000
1001
0000
0001
0000
0100
0010
0100
0000
1001
0000
0000
0000
,
1000
0000
0010
0000
1010
0000
0001
0010
0000
0010
0100
0000
0110
0000
0001
0010
,
0001
1000
1001
1000
0010
0000
1001
0000
,
0200
0000
0320
0000
,
2030
0000
3002
0000
,
0103
0000
0001
0000
1010
0000
0001
0100
0000
0100
0001
0000
1100
0000
0001
0000
,
1000
0010
1000
0010
1000
0000
0100
0000
0010
0000
0010
0000
0010
0000
0000
0000
,
0010
0000
0001
0000
1100
0000
0001
0010
0000
0010
0001
0000
1010
0000
0001
0000
,
0100
0001
0100
0000
0001
0010
0001
0000
1000
0001
1000
0001
1000
0000
0000
0000
,
0010
0000
1000
0000
0101
0000
1000
0010
0000
0010
1000
0000
0011
0000
1000
0000
,
0001
0100
0001
0100
0001
0000
0010
0000
0100
0000
0100
0000
0100
0000
0000
0000
,
0100
0000
1000
0000
0011
0000
1000
0100
0000
0100
1000
0000
0101
0000
1000
0000
,
0010
1000
0010
0000
0100
0000
0001
0000
1001
0000
1001
0000
1001
0000
0000
0000
,
0001
0001
1000
1000
,
0001
1000
0001
0000
1000
0001
1000
0000
,
0001
0000
0010
0000
0100
1000
0000
1001
0000
1000
0100
0000
0010
0000
0001
0000
,
0000
0000
0101
0000
0000
1100
0000
0000
1010
0000
0000
0011
0000
0000
0101
0000
,
0010
0000
1000
0000
1100
0000
0010
0001
0000
0010
0001
0000
0011
0000
0000
0000
,
0001
0100
0010
1000
0010
0000
0100
0000
0010
0000
1000
0000
0100
0000
0000
0000
,
1000
0000
0010
0000
0101
0000
0010
0100
0000
0100
1000
0000
0110
0000
0000
0000
,
1000
0010
0100
0001
0100
0000
0010
0000
0110
0000
0110
0000
0110
0000
0000
0000
,
1000
0100
0010
0001
0010
0000
0001
0000
1000
0000
1000
0000
1000
0000
0000
0000
,
1000
0100
0010
0001
0010
0000
0001
0000
,
2000
0000
3000
0000
,
0002
0000
0003
0000
,
1000
0010
1000
0010
1000
0010
1000
0010
1000
0010
1000
0010
1000
0010
1000
0010
,
1000
0000
0000
0000
,
0000
0000
0000
0000
;
#NOTES:
     dance-double:
     :
     Easy:
     7:
     :
00000000
00000000
00000000
00000000
,
00000000
00000000
00000000
00000000
,
00000000
00000000
00000000
00000000
,
00000000
00000000
00000000
00000000
,
00000000
00000000
00000000
00000000
,
00000001
00000001
00000100
00000100
,
00000010
00010000
00001000
00010000
,
01000000
01000000
10000000
10000000
,
00100000
00010000
00001000
00010000
,
00022000
00000000
00000000
00000000
,
00000000
00000000
00000000
00033000
,
00001000
00000010
00000001
00001000
,
00000010
00000000
00000100
00000000
00001000
00001000
00001000
00000000
,
00010000
00100000
01000000
10000000
,
01000000
00000000
00100000
00000000
10000000
10000000
10000000
00000000
,
00010000
00100000
01000000
00010000
,
00001000
00000000
00010000
00000000
00001000
00001000
00001000
00000000
,
00010000
00000100
00001000
00000010
,
00000100
00000000
00000001
00000000
00001000
00001000
00001000
00000000
,
00000001
00000100
00001000
00010000
,
00100000
10000000
00020000
00030000
,
10000000
01000000
00010000
00001000
,
00000010
00000001
00002000
00003000
,
00000001
00000010
00000100
00001000
,
00010000
00000000
00100000
00000000
01000000
01000000
01000000
00000000
,
10000000
00100000
01000000
00010000
,
00001000
00000000
00000010
00000000
00000100
00000100
00000100
00000000
,
00000002
00000000
00000013
00000100
,
00010000
00001000
00010000
00000000
,
00002000
00000000
00103000
01000000
,
10010000
00000000
00000000
00000000
,
10000000
01000000
00010000
00000000
01000000
00000000
00000000
00000000
,
00010000
00001000
00010000
00000000
00001000
00000000
00000000
00000000
,
00001000
00000100
00000001
00000000
00001000
00000000
00000000
00000000
,
00000001
00000010
00001000
00010000
,
01000000
01000000
10000000
00000000
,
10000000
10000000
00100000
00000000
,
00100000
00100000
00010000
00000000
,
00010000
00010000
00001000
00000000
,
00000000
00001001
00000000
00000110
,
00000000
00001010
00000000
00011000
,
00000000
01010000
00000000
01100000
,
00000000
10010000
00000000
01100000
,
00000000
00000000
00200000
00000000
,
00320000
00000000
00032000
00000000
,
00013000
00000100
00001000
00000010
,
00000100
00000000
00000001
00000000
00000010
00000100
00000010
00000000
,
00000001
00001000
00000100
00010000
,
00001000
00000000
00100000
00000000
01000000
10000000
01000000
00000000
,
10000000
00100000
00010000
00001000
,
00010000
00000000
01000000
00000000
00010000
00001000
00010000
00000000
,
00001000
00000010
00001000
00010000
,
00001000
00000000
00000100
00000000
00000001
00000100
00000001
00000000
,
00000200
00000000
00002300
00000000
,
00023000
00000000
00230000
00000000
,
10300000
00000000
00010000
00000000
01000000
00100000
01000000
00000000
,
02200000
00000000
00000000
03300000
,
00100000
10000000
01000000
00010000
,
00001000
00000010
00000001
00000100
,
00001000
00000100
00000001
00000010
,
00001000
00010000
01000000
00000000
,
10000000
00100000
00010000
00000000
,
00001000
00000000
00000100
00000000
,
00000020
00000000
00000030
00000000
,
00000200
00000000
00000300
00000000
,
00001000
00010000
00001000
00000000
00010000
00001000
00010000
00000000
,
00011000
00000000
00000000
00000000
,
00000000
00000000
00000000
00000000
;
#NOTES:
     dance-double:
     :
     Medium:
     11:
     :
00000000
00000000
00000000
00000000
,
00000000
00000000
00000000
00000000
,
00000000
00000000
00000000
00000000
,
00000000
00000000
00000000
00000000
,
00000000
00000000
00000000
00000000
,
00000001
00000011
00001000
00001010
,
00000100
00010100
00001000
00011000
,
01000000
01010000
00100000
10100000
,
01000000
01100000
20000000
00000000
,
31000000
00010000
00001000
00010000
,
00001000
00010000
00001000
00010000
00001000
00000000
00011000
00000000
,
00001000
00000010
00001000
00000000
00000010
00000001
00000010
00000000
,
00000001
00000100
00000001
00000100
00000010
00001000
00000010
00000000
,
00010000
00000010
00010000
00000000
00001000
00010000
00001000
00000000
,
01000000
00001000
01000000
00001000
01000000
00010000
01000000
00000000
,
00010000
00100000
01000000
00000000
10000000
00100000
01000000
00000000
,
00010000
10000000
01000000
00010000
01000000
00010000
00001000
00000000
,
00000010
00000001
00000100
00000000
00000010
00001000
00000100
00000000
,
00000001
00000100
00001000
00000100
00001000
00010000
00001000
00000000
,
00010000
00100000
10100000
10100000
,
01000000
00010000
00001000
00000000
00010000
00001000
00000100
00000000
,
00000001
00000010
00000011
00000011
,
00000010
00001000
00010000
00001000
00010000
00000000
00011000
00000000
,
00010000
00100000
10000000
00000000
00100000
01000000
00001000
00000000
,
00010000
00000100
00001000
00000100
00000010
00000001
00000100
00000000
,
00000010
00001000
00000001
00000000
00000010
00000100
00010000
00000000
,
00000100
00010000
00001000
00100000
00010000
10000000
00100000
00000000
,
20000000
00000000
30200000
00000000
00310000
00001000
00000100
00000000
,
00000002
00000000
00000023
00000000
00001030
00010000
01000000
00000000
,
20000000
00000000
30200000
00000000
00310000
00001000
00000100
00000000
,
00000220
00000000
00000000
00000330
,
00000001
00000100
00000001
00000100
00001000
00000100
00001000
00000000
,
00010000
00001000
00010000
00001000
00010000
01000000
00010000
00000000
,
00001000
00000010
00001000
00000010
00001000
00010000
00001000
00010000
,
00100000
00010000
00100000
00010000
00100000
00000000
10000000
00000000
,
00100000
00000000
01000000
00000000
00001000
00010000
00001000
00000000
,
00000010
00000000
00000100
00000000
00010000
00001000
00010000
00000000
,
01000000
00000000
00100000
00000000
00001000
00010000
00001000
00000000
,
00000100
00000000
00000010
00000000
00010000
00001000
00010000
00000000
,
01000000
10100000
01000000
10100000
,
01000000
00011000
01000000
00011000
,
00001000
00010100
00001000
00010100
,
00000010
00001001
00000010
00001001
,
00000200
00000000
00002300
00000000
,
00023000
00000000
00230000
00000000
,
10300000
00100000
01000000
00100000
10000000
01000000
00010000
00000000
,
00001000
00100000
00010000
00100000
00001000
00010000
00000100
00000000
,
00000010
00000001
00001000
00000001
00000010
00000100
00001000
00000000
,
00000010
00000100
00000010
00010000
00001000
00010000
00001000
01000000
,
00100000
10000000
00100000
01000000
00100000
10000000
00100000
00000000
,
10000000
01000000
00010000
00001000
00000020
00000000
00000031
00000000
,
00000001
00000100
00000010
00000100
00000001
00000100
00000010
00000000
,
00000001
00000100
00001000
00010000
00200000
00000000
10300000
00000000
,
00100000
00010000
00001000
00000100
,
00000010
00001000
00010000
01000000
,
00100000
10000000
01000000
00000000
00100000
00010000
01000000
00000000
,
00000000
00000000
10100000
00000000
00000000
00110000
00000000
00000000
00011000
00000000
00000000
00011000
00000000
00000000
00000000
00000000
,
00000100
00000010
00000001
00000000
00000100
00001000
00000100
00000000
,
00000001
00000010
00000100
00010000
00001000
00100000
01000000
00000000
,
10000000
00100000
01000000
00000000
00010000
01000000
00010000
00000000
,
10000000
00100000
01000000
00001000
00010000
00000100
00000010
00000000
,
00000001
00000010
00000100
00010000
00001000
00100000
01000000
00000000
,
10000000
00100000
00010000
00001000
,
00000200
00000000
00000300
00000000
,
00000002
00000000
00000003
00000000
,
00000001
00000100
00000001
00000100
00000001
00000100
00000001
00000100
00000001
00000100
00000001
00000100
00000001
00000100
00000001
00000100
,
00000001
00000000
00000000
00000000
,
00000000
00000000
00000000
00000000
;
#NOTES:
     dance-double:
     :
     Hard:
     15:
     :
00000000
00000000
00000000
00000000
,
00000000
00000000
00000000
00000000
,
00000000
00000000
00000000
00000000
,
00000000
00000000
00000000
00000000
,
00000000
00000000
00000000
00000000
,
00000001
00000010
00000100
00000000
00001000
00000010
00000100
00000000
,
00001000
00010000
00100000
00000000
01000000
00010000
10000000
00000000
,
10000000
01000000
00010000
00000000
01000000
00100000
00001000
00000000
,
00000010
00000001
00000100
00001000
00020000
00000000
00000000
00000000
,
00100000
00000000
10000000
00000000
,
01000000
00000000
00031000
00011000
,
00001000
00000000
00000100
00000000
00000010
00000000
00001000
00000010
00000000
00001000
00000010
00000000
00001010
00000000
00000100
00000000
,
00000001
00000010
00001000
00010000
01000000
10000000
01000000
00000000
,
10000000
00000000
00100000
00000000
01000000
00000000
00100000
10000000
00000000
00100000
10000000
00000000
10100000
00000000
01000000
00000000
,
00010000
00000000
00001000
00000000
00000010
00000000
00000001
00000000
00001000
00000001
00001000
00000001
00001000
00000000
00000000
00000000
,
00000001
00000000
00000100
00000000
00000010
00000000
00010000
00001000
00000000
00010000
00001000
00000000
00011000
00000000
01000000
00000000
,
00100000
10000000
01000000
00010000
01000000
10000000
00100000
00000000
,
10000000
00000000
00100000
00000000
01000000
00000000
00010000
00100000
00000000
00010000
00100000
00000000
00110000
00000000
01000000
00000000
,
00010000
00001000
00000010
00000001
00000100
00001000
00000100
00000000
,
00000001
00000000
00000000
00000001
00000010
00000000
00000000
00000010
00001000
00000000
00000000
00001000
00010000
00000000
00000000
00010000
,
01000000
00000000
00000000
01000000
10000000
00000000
00000000
10000000
00010000
00000000
10000000
00000000
00010000
00000000
00000000
00000000
,
10000000
00000000
00000000
10000000
00100000
00000000
00000000
00100000
00010000
00000000
00000000
00010000
00001000
00000000
00000000
00001000
,
00000100
00000000
00000000
00000100
00000001
00000000
00000000
00000001
00001000
00000000
00000001
00000000
00000001
00000000
00000000
00000000
,
00000001
00000000
00001000
00000000
00000100
00000000
00000010
00000001
00000000
00000001
00000010
00000000
00000011
00000000
00001000
00000000
,
00000100
00010000
00001000
00010000
00000100
00000000
00000010
00000000
00001000
00000000
00010000
00000000
01000000
00000000
00000000
00000000
,
10000000
00000000
00010000
00000000
00100000
00000000
01000000
10000000
00000000
10000000
01000000
00000000
11000000
00000000
00010000
00000000
,
00100000
00001000
00010000
00001000
00100000
00000000
01000000
00000000
00010000
00000000
00001000
00000000
00000010
00000000
00000000
00000000
,
00000001
00000000
00001000
00000000
00000001
00000010
00000100
00000010
00000001
00000000
00000100
00000000
00001000
00000000
00010000
00000000
,
00100000
00000000
00010000
00001000
00010000
00000000
01000000
00000000
00100000
00000000
00010000
00000000
10000000
00000000
10000000
00000000
,
01000000
00000000
00010000
00000000
01000000
00100000
00010000
00100000
01000000
00000000
00010000
00000000
00001000
00000000
00000010
00000000
,
00000001
00000000
00000000
00000000
,
00000001
00000100
00000001
00000100
00000001
00000100
00000001
00000100
00000001
00000100
00000001
00000100
00000001
00000100
00000001
00000100
,
00000001
00000100
00000001
00000100
00000001
00000100
00000001
00000100
00000001
00000100
00000001
00000100
00000001
00000100
00000001
00000100
,
00000001
00000100
00000001
00000100
00000001
00000100
00000001
00000100
00000001
00000100
00000001
00000100
00000001
00000100
00000001
00000100
,
00000001
00000000
00000100
00001000
00000100
00000000
00001000
00010000
00001000
00000000
00010000
00000000
00100000
00000000
00000000
00000000
,
10000000
00000000
00100000
00000000
01100000
00000000
00010000
10000000
00000000
10000000
01000000
00000000
00010000
00000000
00001000
00010000
,
00001000
00000000
00000010
00000000
00000001
00000000
00000100
00000000
00000010
00000100
00000010
00000100
00000010
00000000
00000000
00000000
,
00000001
00000000
00000010
00000000
00000110
00000000
00001000
00000001
00000000
00000001
00000100
00000000
00001000
00000000
00010000
00001000
,
00010000
00000000
00100000
00000000
10000000
00000000
01000000
00000000
00100000
01000000
00100000
01000000
00100000
00000000
00000000
00000000
,
10000000
01000000
00110000
01000000
00010000
00100000
00011000
00000100
,
00001000
00000010
00000101
00001000
00000001
00000010
00001100
00000001
,
00000100
00001000
00010100
00001000
01000000
00010000
10100000
00010000
,
10000000
01000000
00110000
00001000
00010000
00000100
00001010
00000000
,
00000002
00000000
00000203
00000000
,
00002300
00000000
00023000
00000000
,
01030000
00000000
10000000
00000000
10100000
00000000
00100000
00010000
00000000
00010000
00001000
00000000
00011000
00000000
00001000
00000000
,
00000100
00000001
00000100
00000001
00000100
00000000
00000010
00000000
00001000
00000000
00000100
00000000
00000100
00000000
00000000
00000000
,
00000010
00000000
00000001
00000000
00000101
00000000
00000100
00001000
00000000
00001000
00010000
00000000
00011000
00000000
00010000
00000000
,
00100000
10000000
00100000
00000000
01000000
00010000
01000000
00000000
00100000
10000000
01000000
00100000
00010000
00000000
00000000
00000000
,
00100000
00000000
10000000
00000000
01100000
00000000
00010000
00001000
00000000
00001000
00010000
00000000
00011000
00000000
00000100
00000000
,
00000010
00000001
00000010
00000001
00001000
00000000
00000010
00000000
00000100
00000000
00000100
00000000
00000100
00000000
00000000
00000000
,
00000010
00000000
00001000
00000000
00000110
00000000
00001000
00010000
00000000
00010000
00001000
00000000
00011000
00000000
01000000
00000000
,
00100000
10000000
00100000
10000000
00010000
00000000
01000000
00000000
00100000
00000000
00100000
00000000
00100000
00000000
00000000
00000000
,
10000000
10000000
00010000
00010000
,
00001000
00001000
00000001
00000001
,
00000001
00000000
00000100
00000000
00001000
00010000
00000000
00010000
00000000
00010000
00100000
00000000
10000000
00000000
00010000
00000000
,
00000000
00000000
11000000
00000000
00000000
01010000
00000000
00000000
00011000
00000000
00000000
00001010
00000000
00000000
00000011
00000000
,
00000001
00000000
00001000
00000000
00000110
00000000
00000001
00000010
00000000
00001000
00000010
00000000
00000110
00000000
00000000
00000000
,
00000001
00000100
00001000
00010000
00100000
10000000
00010000
00000000
,
10000000
00000000
00010000
00000000
01100000
00000000
00010000
00100000
00000000
10000000
00100000
00000000
01100000
00000000
00000000
00000000
,
10000000
01000000
00010000
00001000
00000010
00000001
00001000
00000000
,
00000001
00000100
00001000
00010000
00100000
10000000
00010000
00000000
,
10000000
01000000
00010000
00001000
00000010
00000000
00000001
00000000
,
00002000
00000000
00003000
00000000
,
00020000
00000000
00030000
00000000
,
10000000
00100000
10000000
00100000
10000000
00100000
10000000
00100000
10000000
00100000
10000000
00100000
10000000
00100000
10000000
00100000
,
10000000
00000000
00000000
00000000
,
00000000
00000000
00000000
00000000
;
