
//----- song ID: tige -----//
#TITLE:タイガーランペイジ;
#ARTIST:sasakure.UK;
#TITLETRANSLIT:Tiger rampage;
#BANNER:Tiger rampage.png;
#BACKGROUND:Tiger rampage-bg.png;
#CDTITLE:./CDTitles/DDR A20.png;
#MUSIC:Tiger rampage.ogg;
#SAMPLESTART:44.258;
#SAMPLELENGTH:15;
#DISPLAYBPM:150;
#BPMS:0=150.5,4=150;
#NOTES:
     dance-single:
     :
     Beginner:
     2:
     :
0000
0000
0000
0000
,
0000
0000
0000
0000
,
0000
0000
0000
0000
,
0000
0000
0000
0000
,
0000
0000
0000
0000
,
0000
0000
0000
0000
,
0000
0000
0000
0000
,
0001
0000
0000
0000
,
0001
0000
1000
0000
,
0000
0000
1000
0000
,
0010
0000
0000
0000
,
0010
0000
0100
0000
,
0000
0000
0100
0000
,
1000
0000
1000
0000
,
1000
0000
0100
0000
,
0100
0000
0100
0000
,
0010
0000
0010
0000
,
0010
0000
0001
0000
,
0001
0000
0001
0000
,
2000
0000
0000
0000
,
3000
0000
0000
0000
,
0020
0000
0000
0000
,
0030
0000
0000
0000
,
0002
0000
0000
0000
,
0003
0000
0000
0000
,
1001
0000
0000
0000
,
2002
0000
0000
0000
,
3003
0000
0000
0000
,
0010
0000
0010
0000
,
1000
1000
1000
0000
,
0010
0000
0010
0000
,
0001
0001
0001
0000
,
1000
0000
0100
0000
,
1000
0000
0010
0000
,
1000
0000
0001
0000
,
1001
0000
0000
0000
,
0100
0000
0100
0000
,
0001
0001
0001
0000
,
0100
0000
0100
0000
,
1000
1000
1000
0000
,
0001
0000
0010
0000
,
0001
0000
0100
0000
,
0001
0000
1000
0000
,
1001
0000
0000
0000
,
1000
0000
0001
0000
,
1001
0000
0000
0000
,
0010
0000
0000
0000
,
0100
0000
0000
0000
,
2002
0000
0000
0000
,
3003
0000
0000
0000
,
1000
0000
0010
0000
,
1000
0000
0001
0000
,
0010
0000
0001
0000
,
1000
0000
0100
0000
,
1000
0000
0001
0000
,
0100
0000
0001
0000
,
1000
0000
0000
0001
,
0000
0000
1000
0000
,
0000
0001
0000
0000
,
1000
0000
0000
0001
,
0000
0000
1001
0000
,
0000
0000
0000
0000
;
#NOTES:
     dance-single:
     :
     Easy:
     5:
     :
0000
0000
0000
0000
,
0000
0000
0000
0000
,
0000
0000
0000
0000
,
0000
0000
0000
0000
,
0000
0000
0000
0000
,
0000
0000
0000
0000
,
1001
0000
0000
0000
,
0001
1000
0001
1000
,
0001
0000
1000
0001
,
1000
0001
1000
0000
,
0010
0100
0010
0100
,
0010
0000
0100
0010
,
0100
0010
0100
0000
,
0001
0010
0001
0010
,
0001
0000
1000
0100
,
1000
0100
1000
0000
,
0010
1000
0010
1000
,
0010
0000
0100
0001
,
0100
0001
0100
0000
,
0002
0000
0003
0000
,
2000
0000
3000
0000
,
0002
0000
0003
0000
,
0200
0000
0300
0000
,
2000
0000
3000
0000
,
0002
0000
0003
0000
,
2000
0000
3000
0000
,
0100
0010
0100
0000
,
1000
0001
1000
1000
,
0001
1000
0001
1000
,
0010
0100
0010
0000
,
1000
0001
1000
0001
,
0010
0100
0010
0000
,
0001
0001
0100
0000
,
0001
0001
0010
0000
,
0100
1000
0100
1000
,
0020
0000
0030
0000
,
1001
0000
0110
0000
,
0001
0010
0100
0000
,
0110
0000
1001
0000
,
1000
0001
0010
0000
,
1001
0000
0110
0000
,
0001
1000
0010
0000
,
1001
0000
0110
0000
,
2002
0000
3003
0000
,
0110
0000
1001
0000
,
0220
0000
0330
0000
,
0010
0100
0001
1000
,
2002
0000
0000
0000
,
0000
0000
0000
0000
,
3003
0000
0000
0000
,
0001
0100
0001
0010
,
0001
0000
1000
0100
,
1000
0010
1000
0000
,
0010
1000
0010
0100
,
0010
0000
0100
0001
,
0100
0010
0100
0000
,
0001
0000
0000
0010
,
0000
0000
1000
0000
,
0000
0100
0000
0000
,
0001
0000
0000
1000
,
0000
0000
2002
0000
,
0000
0000
0000
0000
,
0000
0000
0000
0000
,
0000
0000
0000
3003
,
0000
0000
0000
0000
;
#NOTES:
     dance-single:
     :
     Medium:
     9:
     :
0000
0000
0000
0000
,
0000
0000
0000
0000
,
0000
0000
0000
0000
,
0000
0000
0000
0000
,
0000
0000
0000
0000
,
0000
0000
0000
0000
,
0010
0000
0000
0100
0000
0000
0010
0000
,
1000
0100
0010
0001
,
0010
0110
1000
0010
,
0100
0001
0100
0110
,
1000
0001
0010
0100
,
1000
1010
0100
0010
,
1000
0100
0010
0011
,
0100
0010
0100
0010
,
1000
1001
0010
0100
,
0010
0100
1000
1001
,
0010
0100
0001
0100
,
0010
0110
1000
0100
,
0010
0100
1000
1100
,
0002
0000
0000
0000
,
0203
0000
2300
0000
,
3200
0000
0320
0000
,
2030
0000
3100
0000
,
2000
0000
0000
0000
,
3200
0000
0302
0000
,
0103
0000
0011
0000
,
2002
0000
0000
0000
,
3003
0000
0000
0000
,
0001
0000
0100
0000
0001
0010
0001
0000
,
0100
0000
0010
0000
1000
0100
1000
0000
,
0010
0000
1000
0000
0100
0010
0100
0000
,
1000
0001
1001
0000
,
1000
0000
0010
0000
1000
0100
1000
0000
,
0010
0000
0100
0000
0001
0010
0001
0000
,
0100
0000
0001
0000
0010
0100
0010
0000
,
0001
1000
1001
0000
,
0001
1000
0001
1000
0001
0100
0001
0000
,
1000
0001
1000
0001
1000
0100
1000
0000
,
0010
0100
0010
0100
0010
1000
0010
0000
,
0100
0001
0100
0000
0001
0010
0100
0000
,
1000
0100
0001
0100
0001
0100
1000
0000
,
0001
0010
1000
0010
1000
0010
0001
0000
,
1000
0100
1000
0100
0000
0010
0002
0020
,
0000
0000
0000
0000
0033
0000
0001
0100
,
0010
1000
0010
1000
0000
0100
2000
0200
,
0000
0000
0000
3300
0000
0010
0000
0001
,
0100
0000
0010
1000
0000
0010
2000
0002
,
0000
0000
0000
0000
,
0000
0000
0000
0000
,
3003
0000
0000
0000
,
0001
0100
0001
0010
,
0100
1000
0100
0000
1000
0000
0010
0000
,
1000
0000
0100
0000
0010
0001
0010
0000
,
0001
0100
1000
0100
,
0001
1000
0001
0000
1000
0000
0100
0000
,
0001
0000
0100
0000
1000
0100
1000
0000
,
0011
0000
0000
0101
0000
0000
0110
0000
,
0000
1001
0000
0000
1010
0000
0000
1100
,
0000
0000
0011
0000
0000
0101
0000
0000
,
0110
0000
0000
1001
0000
0000
1010
0000
,
0000
1100
0000
0000
2002
0000
0000
0000
,
0000
0000
0000
0000
,
0000
0000
0000
0000
,
0000
0000
0000
3003
,
0000
0000
0000
0000
;
#NOTES:
     dance-single:
     :
     Hard:
     13:
     :
0000
0000
0000
0000
,
0000
0000
0000
0000
,
0000
0000
0000
0000
,
0000
0000
0000
0000
,
0000
0000
0000
0000
,
0000
0000
0000
0000
,
1000
0000
0100
1000
0000
0000
0001
0000
0100
0001
0000
0000
1000
0000
0100
1000
,
0000
0000
0001
0000
0010
0001
0000
0000
0100
0000
0010
0100
0000
0000
0001
0000
,
1000
0000
0000
0010
0000
0000
0110
0000
0000
0000
1000
0000
0010
0100
0000
0010
,
1000
0000
0010
0100
0000
0000
0010
0000
1000
0000
0000
0001
0000
0000
1001
0000
,
0000
0000
0001
0000
0100
0000
0000
0010
0000
0000
1000
0000
0010
0000
0100
0000
,
0010
0000
0000
0010
0000
0000
0110
0000
1000
0000
0100
0000
1000
0000
0100
0000
,
0010
0001
0010
0001
0010
0100
1000
0010
,
0100
0000
0001
0000
1000
0100
0000
0000
0010
0000
0100
0010
0000
0000
0100
0000
,
1000
0000
0000
0010
0000
0000
0110
0000
0001
0000
0010
0000
0100
1000
0000
0100
,
0010
0000
0100
1000
0000
0000
0100
0000
1000
0000
0000
0001
0000
0000
0101
0000
,
0000
0000
0001
0000
0010
0001
0000
1000
0001
0000
0100
0001
0000
0000
0010
0000
,
0001
0000
0000
1000
0000
0000
1001
0000
0001
0000
0100
0000
0001
0000
0100
0000
,
0010
1000
0010
1000
0100
0010
0100
0010
,
0002
0000
0000
0000
0000
0000
0000
0000
0003
0000
0000
0000
0002
0000
0000
0103
,
0000
0000
0000
0000
0200
0000
0000
0310
0000
0000
0000
0000
0020
0000
0000
1030
,
0000
0000
0001
0100
0000
0000
1000
0100
,
0000
0000
0001
0100
0000
0010
1000
0010
,
0200
0000
0000
0000
0000
0000
0000
0000
0300
0000
0000
0000
0020
0000
0000
1030
,
0000
0000
0000
0000
0200
0000
0000
0301
0000
0000
0000
0000
0020
0000
0000
0130
,
0000
0000
0000
0000
2000
0000
0000
3100
0000
0000
0000
0000
0002
0000
0000
0203
,
0000
0010
1000
0301
,
1000
0100
0010
0001
1000
0100
0010
0000
,
0001
0000
1000
0010
0000
1000
0010
0000
1000
0000
0100
0000
0010
0000
0001
0000
,
0100
0000
0001
0010
0000
0001
0010
0000
0001
0000
1000
0000
1001
0000
0000
0000
,
0010
0000
0100
0001
0000
0100
0001
0000
0010
0000
0100
0000
1000
0000
0001
0000
,
0100
0000
0010
0100
0000
0010
0100
0000
0010
0000
1000
0000
0100
0000
0010
0000
,
0001
0000
0010
0001
0000
0001
0010
0000
0100
0000
1000
0000
0010
0000
0100
0000
,
0001
0000
1000
0100
0000
0100
1000
0000
0010
0000
0100
0000
0001
0000
0100
0000
,
2000
0000
0000
3200
0000
0000
0302
0000
0000
0000
1003
0000
0100
0000
0010
0000
,
0001
0000
1000
0000
0001
0000
0100
0010
0000
0010
0100
0000
0001
1000
0001
0000
,
0001
0000
0010
0100
0000
0100
1000
0000
0001
0000
0100
0000
0110
0000
0000
0000
,
1000
0000
0100
0010
0000
0010
0001
0000
1000
0000
0010
0000
0110
0000
0000
0000
,
0001
0000
1000
0100
0000
0100
0010
0000
0001
0000
0100
0000
0101
0000
0000
0000
,
0001
0000
0010
0100
0000
0100
1000
0000
0010
0000
0100
0000
0101
0000
0000
0000
,
1000
0000
0100
0001
0000
0001
0100
0000
0010
0000
0001
0000
1000
0000
0001
0000
,
0100
0000
1000
0100
0000
0100
1000
0000
0100
0000
0001
0000
1000
0000
0100
0000
,
0020
0000
0000
0032
0000
0000
2003
0000
0000
0000
3010
0000
0100
0000
0010
0000
,
1000
0000
0001
0000
1001
0000
0010
1000
0000
0010
0001
0000
0010
0000
0100
0000
,
0020
0000
0000
2030
0000
0000
3002
0000
0000
0000
0013
0000
0100
0000
0010
0000
,
0001
0000
1000
0000
1001
0000
0010
0001
0000
0010
1000
0000
0010
0000
0100
0000
,
0010
0000
0000
1000
0000
0000
0001
0000
0000
0000
0100
0000
0010
0000
0220
0000
,
0000
0000
0000
0000
,
0000
0000
0000
0000
,
0330
0000
0000
0000
,
0001
0000
0100
0000
0001
0000
0000
0101
0000
0000
0010
0000
0001
0000
0000
0011
,
0000
0000
0100
0000
0010
0000
0000
0000
1000
0000
0100
0000
1000
0000
0000
1100
,
0000
0000
0010
0000
1000
0000
0000
1010
0000
0000
0200
0000
0000
0000
0310
0000
,
0001
0000
0100
0000
0010
0000
0000
0110
0000
0000
1000
0000
0100
0000
0000
0110
,
0000
0000
1000
0000
0001
0000
0000
0000
1000
0000
0100
0000
0010
0000
0000
0110
,
0000
0000
0001
0000
0100
0000
0000
0110
0000
0000
0001
0000
1000
0000
0000
0000
,
0012
0000
0000
0103
0000
0000
2010
0000
0000
3100
0000
0000
1002
0000
0000
0103
,
0000
0000
2001
0000
0000
3100
0000
0000
1020
0000
0000
0130
0000
0000
2001
0000
,
0000
3100
0000
0000
0021
0000
0000
0130
0000
0000
1002
0000
0000
0103
0000
0000
,
0012
0000
0000
0103
0000
0000
2010
0000
0000
3100
0000
0000
2001
0000
0000
3100
,
0000
0000
1002
0000
0000
0103
0000
0000
2002
0000
0000
0000
0000
0000
0000
0000
,
0000
0000
0000
0000
,
0000
0000
0000
0000
,
0000
0000
0000
3003
,
0000
0000
0000
0000
;
#NOTES:
     dance-single:
     :
     Challenge:
     17:
     :
0000
0000
0000
0000
,
0000
0000
0000
0000
,
0000
0000
0000
0000
,
0000
0000
0000
0000
,
0000
0000
0000
0000
,
0000
0000
0000
0000
,
1000
0010
1000
0010
0000
0000
0001
0010
0001
0010
0000
0000
1000
0010
1000
0010
,
1000
0000
0001
0000
0100
0010
0000
0000
1000
0000
0100
0010
0000
0000
0001
1000
,
0001
0000
0010
0100
0000
0000
0110
0000
0001
0000
1000
0000
0010
0100
0000
0001
,
0010
0000
0100
1000
0000
0000
0100
0010
0001
0000
1000
0001
0000
0000
1001
0000
,
1000
0000
0001
0010
0001
0000
1000
0100
0000
1000
0100
0000
0010
0000
0001
0100
,
0001
0000
1000
0010
0000
0000
0110
0000
0001
0100
0001
0100
0010
1000
0010
1000
,
0001
0010
0001
0010
0100
1000
0100
0010
0001
1000
0010
1000
0010
0100
0001
0100
,
0010
0000
1000
0000
0001
0010
0000
0010
0100
0000
0100
1000
0000
0000
0001
1000
,
0001
0000
0100
0010
0000
0000
0110
0000
1000
0000
0001
0000
0010
0100
0000
1000
,
0010
0000
0100
0001
0000
0000
0010
0100
1000
0000
0001
1000
0000
0000
1001
0000
,
0001
0000
1000
0000
0001
1000
0000
1000
0010
0000
0010
0100
0000
0000
0001
0010
,
0100
0000
1000
0100
0000
0000
0110
0000
1000
0100
1000
0100
0010
0001
0010
0001
,
1000
0010
1000
0010
0100
0001
0100
0010
1000
0001
0010
0001
0010
0100
1000
0100
,
0020
0000
0000
0000
0000
0000
0000
0000
0000
0000
0000
0000
0031
0000
0000
0002
,
0000
0000
0000
0000
0103
0000
0000
0200
0000
0000
0000
0000
0310
0000
0000
0020
,
0000
0000
1030
0100
0000
0000
1000
0010
,
0000
0000
1000
0100
1000
0010
1000
0100
0010
0001
0100
0001
0010
0001
0100
0001
,
0020
0000
0000
0000
0000
0000
0000
0000
0000
0000
0000
0000
0031
0000
0000
0002
,
0000
0000
0000
0000
0103
0000
0000
0200
0000
0000
0000
0000
0310
0000
0000
0020
,
0000
0000
0000
0000
1030
0100
0000
0110
0000
0000
0000
0000
0001
0100
0000
0110
,
0000
0000
1000
0100
0010
0001
1000
0000
0001
0100
0001
0000
1000
0100
1000
0000
,
0001
0000
0000
0100
0000
0000
0010
0000
0000
1000
0000
0000
0001
0000
1000
0000
0001
0000
1000
0000
0000
0100
0000
0000
0010
0000
0000
0100
0000
0000
0010
0000
0000
0001
0000
0000
1000
0000
0000
0000
0000
0000
1001
0000
0000
0000
0000
0000
,
1000
0010
1000
0010
1000
0001
1000
0000
0010
0100
0001
0000
0010
0000
0011
0000
,
0100
1000
0100
0010
0001
0010
0001
0000
1000
0010
0100
0000
0001
0000
1001
0000
,
0001
0100
0001
0100
0001
1000
0001
0000
0100
0010
1000
0000
0100
0000
1100
0000
,
0010
0001
0010
0100
1000
0100
1000
0000
0010
0100
0001
0000
0010
0100
1000
0000
,
1000
0010
0100
0001
0010
0100
1000
0000
0100
0010
0001
0000
1000
0000
1001
0000
,
0010
1000
0100
0010
0001
0100
0010
0000
1000
0100
1000
0000
0010
0000
0110
0000
,
0001
0010
0001
0010
0100
0010
0100
0000
1000
0010
1000
0000
0100
0000
0110
0000
,
1000
0010
1000
0010
1000
0100
0010
0001
0000
0001
0010
0100
0010
0100
1000
0000
,
0001
0100
0010
1000
0001
0100
0010
1000
0100
0010
0001
0100
0001
0010
0100
1000
,
0010
0100
0001
0100
0001
0010
0001
0010
0100
1000
0010
1000
0100
0010
0001
0100
,
0010
1000
0001
0010
0100
1000
0010
0100
0001
0010
0100
0010
0001
0100
0010
1000
,
0100
0010
0001
1000
0100
1000
0100
0010
0100
1000
0010
0100
0001
0010
0001
0010
,
0001
0100
0010
1000
0100
0010
0001
0100
0010
1000
0100
0010
0001
0010
0100
1000
,
0001
0010
0100
1000
0010
0100
0001
0010
0100
1000
0010
0100
0001
0010
0001
0010
,
0001
1000
0010
1000
0001
0100
0010
0100
0001
1000
0100
0010
0001
0010
0001
0010
,
0100
1000
0010
1000
0100
0010
0001
0100
0001
0010
0001
0100
0010
1000
0100
0010
,
0001
1000
0010
1000
0001
0100
0010
0100
0001
1000
0100
0010
0001
0010
0001
0010
,
0100
1000
0010
1000
0100
0010
0001
0100
0001
0010
0001
0100
0010
1000
0100
0010
,
0002
0000
0000
2003
0000
0000
3010
0000
0000
0000
0100
0000
0010
0000
0110
0000
,
0001
0000
0000
0100
0000
0000
0010
0000
0000
1000
0000
0000
0100
0000
0000
0000
0000
0000
0001
0000
0000
0100
0000
0000
0000
0000
0000
1000
0000
0000
0010
0000
0000
0100
0000
0000
0001
0000
0100
0000
0010
0000
1000
0000
0010
0000
0100
0000
,
0001
0000
0000
0100
0000
0000
0010
0000
0000
1000
0000
0000
0100
0000
0000
0000
0000
0000
0001
0000
0000
0100
0000
0000
0000
0000
0000
1000
0000
0000
0010
0000
0000
0100
0000
0000
0001
0000
0100
0000
0010
0000
1000
0000
0010
0000
0100
0000
,
0000
0000
0000
0020
,
1030
0100
1000
0000
0010
0000
0100
0001
0000
0001
0100
0000
0010
0000
1000
0100
,
0000
0100
0010
0000
0110
0000
0000
0000
0001
0100
0001
0000
0010
0000
0100
1000
,
0000
1000
0100
0000
0010
0000
0001
0100
0000
0100
0020
0000
0000
0000
0130
0000
,
0010
1000
0100
0000
0001
0000
0100
1000
0000
1000
0100
0000
0010
0000
0001
0100
,
0000
0100
0001
0000
1001
0000
0000
0000
0001
0010
0100
1000
0100
0010
0001
0100
,
0000
0100
0010
1000
0010
0100
0001
1000
0001
1000
0001
1000
0100
0010
0001
0000
,
0001
0010
0100
1000
0010
0100
0001
0010
0100
1000
0010
0100
0001
0010
0100
1000
,
0010
0100
0001
0010
0100
1000
0010
0100
0001
0010
0100
0010
0100
1000
0010
1000
,
0001
1000
0001
0100
0001
0010
0100
0010
0100
1000
0010
1000
0001
1000
0001
0100
,
0001
0010
0100
1000
0001
0010
0100
1000
0001
0010
0100
1000
0001
0010
0100
1000
,
0001
0010
0100
0000
0000
1000
0000
0000
2002
0000
0000
0000
0000
0000
0000
0000
,
0000
0000
0000
0000
,
0000
0000
0000
0000
,
0000
0000
0000
3003
,
0000
0000
0000
0000
;
#NOTES:
     dance-double:
     :
     Easy:
     5:
     :
00000000
00000000
00000000
00000000
,
00000000
00000000
00000000
00000000
,
00000000
00000000
00000000
00000000
,
00000000
00000000
00000000
00000000
,
00000000
00000000
00000000
00000000
,
00000000
00000000
00000000
00000000
,
00001001
00000000
00000000
00000000
,
00000001
00000010
00000001
00000010
,
00000001
00000000
00001000
00000100
,
00001000
00000100
00001000
00000000
,
00000100
00010000
00000100
00010000
,
00000100
00000000
00010000
00001000
,
00010000
00001000
00010000
00000000
,
00001000
00100000
00001000
00100000
,
00001000
00000000
01000000
00010000
,
01000000
00010000
01000000
00000000
,
00100000
10000000
00100000
10000000
,
00100000
00000000
01000000
00010000
,
01000000
00001000
00010000
00000000
,
00002000
00000000
00003000
00000000
,
00000020
00000000
00000030
00000000
,
00002000
00000000
00003000
00000000
,
00020000
00000000
00030000
00000000
,
00002000
00000000
00003000
00000000
,
00020000
00000000
00030000
00000000
,
02000000
00000000
03000000
00000000
,
20000000
00000000
30000000
00000000
,
00000000
00000000
00000000
00000000
,
00001000
00010000
00001000
00010000
,
00100000
01000000
00100000
00000000
,
01000000
00001000
01000000
00001000
,
00010000
00001000
00010000
00000000
,
00001000
00000010
00000100
00000000
,
00000100
00000010
00001000
00000000
,
00010000
00100000
00010000
00100000
,
01000000
00000000
00000000
00000000
,
00001000
00000010
00000001
00000000
,
00000100
00000000
00000010
00000000
,
00000100
00010000
00001000
00000000
,
00100000
00000000
00010000
00000000
,
10000000
01000000
00010000
00000000
,
01000000
00100000
00001000
00000000
,
00010000
00000100
00000010
00000001
,
00002002
00000000
00003003
00000000
,
00000001
00000100
00000010
00010000
,
00022000
00000000
00033000
00000000
,
00000100
00001000
00010000
00100000
,
02200000
00000000
00000000
00000000
,
00000000
00000000
00000000
00000000
,
03300000
00000000
00000000
00000000
,
10000000
01000000
00010000
01000000
,
10000000
00000000
00100000
00010000
,
00001000
00010000
00001000
00000000
,
00000100
00000001
00000100
00000001
,
00000010
00000000
00001000
00000010
,
00001000
00010000
00001000
00000000
,
00010000
00000000
00000000
00100000
,
00000000
00000000
10000000
00000000
,
00000000
01000000
00000000
00000000
,
00010000
00000000
00000000
00001000
,
00000000
00000000
00000020
00000000
,
00000000
00000000
00000000
00000000
,
00000000
00000000
00000000
00000000
,
00000000
00000000
00000000
00000030
,
00000000
00000000
00000000
00000000
;
#NOTES:
     dance-double:
     :
     Medium:
     10:
     :
00000000
00000000
00000000
00000000
,
00000000
00000000
00000000
00000000
,
00000000
00000000
00000000
00000000
,
00000000
00000000
00000000
00000000
,
00000000
00000000
00000000
00000000
,
00000000
00000000
00000000
00000000
,
00001000
00000000
00000000
00010000
00000000
00000000
00001000
00000000
,
00000010
00000001
00000100
00000010
,
00001000
00001100
00010000
00001000
,
00100000
00010000
10000000
10100000
,
10000000
01000000
00010000
00001000
,
00100000
00110000
00001000
00010000
,
00000100
00000010
00000001
00000011
,
00000010
00001000
00010000
01000000
,
00010000
01010000
01000000
10000000
,
00100000
01000000
00001000
00011000
,
00001000
00000100
00000010
00000100
,
00000001
00000011
00000001
00000010
,
00001000
00010000
01000000
10000000
,
00020000
00000000
00000000
00000000
,
20030000
00000000
32000000
00000000
,
03020000
00000000
00032000
00000000
,
00003020
00000000
00000031
00000000
,
00002000
00000000
00000000
00000000
,
00003002
00000000
00000203
00000000
,
00010300
00000000
01010000
00000000
,
20020000
00000000
00000000
00000000
,
30030000
00000000
00000000
00000000
,
00001000
00010000
00001000
00000000
00000010
00000000
00000011
00000000
,
00000001
00000100
00000001
00000000
00001000
00000000
00001100
00000000
,
00000100
00010000
00000100
00000000
00010000
00000000
00011000
00000000
,
01000000
00010000
01000000
00000000
00100000
10000000
01000000
00000000
,
00100000
00010000
00100000
00000000
01000000
00010000
00001000
00000000
,
00010000
00001000
00010000
00000000
00001000
00000010
00000001
00000000
,
00000100
00000010
00010000
00001000
,
00022000
00000000
00033000
00000000
,
00000010
00000001
00000010
00000001
00000100
00000010
00001000
00000100
,
00010000
00001000
00010000
00000100
00010000
00000000
00011000
00000000
,
00100000
10000000
00100000
10000000
01000000
00100000
00010000
01000000
,
00001000
00010000
00001000
01000000
00001000
00000000
00011000
00000000
,
00000010
00000001
00000010
00000000
00001000
00010000
00001000
00000000
,
01000000
10000000
01000000
00000000
00001000
00010000
00001000
00000000
,
00000010
00000001
00000010
00000001
00000000
00000001
00000100
00002000
,
00000000
00000000
00000000
00000000
00003000
00000000
00010000
00100000
,
10000000
01000000
10000000
01000000
00000000
01000000
00010000
00002000
,
00000000
00000000
00000000
00003000
00000000
00001000
00000000
00000010
,
00000001
00000100
00000001
00000100
00000000
00001000
00020000
00002000
,
00000000
00000000
00000000
00000000
,
00000000
00000000
00000000
00000000
,
00033000
00000000
00000000
00000000
,
00010000
00100000
10000000
01000000
,
00100000
01000000
00100000
00000000
01000000
00000000
00010000
00000000
,
00001000
00000000
00000010
00000000
00000100
00000010
00000100
00000000
,
00000010
00000001
00000100
00001000
,
00010000
00001000
00010000
00000000
00001000
00000000
00010000
00000000
,
01000000
00000000
10000000
00000000
00010000
10000000
00010000
00000000
,
10100000
00000000
00000000
00110000
00000000
00000000
00011000
00000000
,
00000000
00001100
00000000
00000000
00000101
00000000
00000000
00000011
,
00000000
00000000
00001010
00000000
00000000
00011000
00000000
00000000
,
01010000
00000000
00000000
11000000
00000000
00000000
10100000
00000000
,
00000000
00110000
00000000
00000000
00022000
00000000
00000000
00000000
,
00000000
00000000
00000000
00000000
,
00000000
00000000
00000000
00000000
,
00000000
00000000
00000000
00033000
,
00000000
00000000
00000000
00000000
;
#NOTES:
     dance-double:
     :
     Hard:
     13:
     :
00000000
00000000
00000000
00000000
,
00000000
00000000
00000000
00000000
,
00000000
00000000
00000000
00000000
,
00000000
00000000
00000000
00000000
,
00000000
00000000
00000000
00000000
,
00000000
00000000
00000000
00000000
,
00000001
00000000
00000100
00000001
00000000
00000000
00001000
00000000
00000100
00001000
00000000
00000000
00000001
00000000
00000100
00000001
,
00000000
00000000
00000100
00000000
00001000
00010000
00000000
00000000
00100000
00000000
01000000
00100000
00000000
00000000
10000000
00000000
,
00010000
00000000
00000000
00100000
00000000
00000000
01100000
00000000
00000000
00000000
10000000
00000000
01000000
00100000
00000000
00010000
,
00100000
00000000
00001000
00010000
00000000
00000000
00000100
00000000
00000010
00000000
00000000
00000001
00000000
00000000
00001001
00000000
,
00000000
00000000
00000001
00000000
00000010
00000000
00000000
00001000
00000000
00000000
00010000
00000000
01000000
00000000
00100000
00000000
,
00001000
00000000
00000000
01000000
00000000
00000000
01010000
00000000
10000000
00000000
01000000
00000000
00100000
00000000
00001000
00000000
,
00010000
00000100
00000010
00000001
00000010
00000100
00010000
00001000
,
00100000
00000000
01000000
00000000
10000000
01000000
00000000
00000000
00100000
00000000
00010000
01000000
00000000
00000000
00100000
00000000
,
00010000
00000000
00000000
00001000
00000000
00000000
00011000
00000000
00001000
00000000
00000100
00000000
00000001
00000010
00000000
00000001
,
00000100
00000000
00000010
00001000
00000000
00000000
00010000
00000000
01000000
00000000
00000000
00100000
00000000
00000000
01100000
00000000
,
00000000
00000000
10000000
00000000
00100000
00010000
00000000
00001000
00010000
00000000
00000100
00010000
00000000
00000000
00001000
00000000
,
00000010
00000000
00000000
00000001
00000000
00000000
00001001
00000000
00000001
00000000
00000010
00000000
00000100
00000000
00010000
00000000
,
00001000
00100000
01000000
10000000
01000000
00100000
00001000
00010000
,
00002000
00000000
00000000
00000000
00000000
00000000
00000000
00000000
00003000
00000000
00000000
00000000
00000200
00000000
00000000
00000301
,
00000000
00000000
00000000
00000000
00000200
00000000
00000000
00000310
00000000
00000000
00000000
00000000
00000200
00000000
00000000
00001300
,
00000000
00000000
00010000
00100000
00000000
00000000
10000000
01000000
,
00000000
00000000
00010000
01000000
00000000
10000000
01000000
00000000
,
00020000
00000000
00000000
00000000
00000000
00000000
00000000
00000000
00030000
00000000
00000000
00000000
02000000
00000000
00000000
13000000
,
00000000
00000000
00000000
00000000
02000000
00000000
00000000
03100000
00000000
00000000
00000000
00000000
02000000
00000000
00000000
03010000
,
00000000
00000000
00000000
00000000
02000000
00000000
00000000
03100000
00000000
00000000
00000000
00000000
00002000
00000000
00000000
00020000
,
00000000
00000000
00000000
00033000
,
00001000
00010000
01000000
10000000
00100000
00010000
00001000
00000000
,
00000010
00000000
00000001
00000010
00000000
00000001
00000010
00000000
00000001
00000000
00000100
00000000
00000010
00000000
00010000
00000000
,
00001000
00000000
00010000
00001000
00000000
00010000
00001000
00000000
00100000
00000000
01000000
00000000
11000000
00000000
00000000
00000000
,
00100000
00000000
10000000
00100000
00000000
10000000
00100000
00000000
10000000
00000000
01000000
00000000
00100000
00000000
00001000
00000000
,
00010000
00000000
00001000
00010000
00000000
00001000
00010000
00000000
00000010
00000000
00000100
00000000
00000001
00000000
00000010
00000000
,
00000001
00000000
00000100
00000010
00000000
00000010
00000100
00000000
00001000
00000000
00010000
00000000
00100000
00000000
10000000
00000000
,
01000000
00000000
00100000
01000000
00000000
01000000
00100000
00000000
00010000
00000000
01000000
00000000
00001000
00000000
00010000
00000000
,
00002000
00000000
00000000
00003200
00000000
00000000
00000302
00000000
00000000
00000000
00000013
00000000
00000100
00000000
00001000
00000000
,
00000001
00000000
00000100
00000000
00001000
00000000
00010000
00001000
00000000
00001000
00010000
00000000
00001000
00010000
00001000
00000000
,
00001000
00000000
00000010
00000001
00000000
00000001
00000100
00000000
00000010
00001000
00000010
00000000
00000100
00000000
00001000
00000000
,
00010000
00000000
00100000
10000000
00000000
10000000
01000000
00000000
00100000
00010000
00100000
00000000
01000000
00000000
10000000
00000000
,
00100000
00000000
01000000
00001000
00000000
00001000
00010000
00000000
00001000
00010000
00001000
00000000
00010000
00000000
00000010
00000000
,
00000100
00000000
00000001
00000010
00000000
00000010
00000100
00000000
00001000
00000000
00000010
00000000
00000001
00000000
00000010
00000000
,
00010000
00000000
00000100
00010000
00000000
00000100
00010000
00000000
00001000
00000000
00100000
00000000
00010000
00000000
01000000
00000000
,
00100000
00000000
01000000
00001000
00000000
01000000
00001000
00000000
00010000
00000000
00100000
00000000
10000000
00000000
00010000
00000000
,
01000000
00000000
00000000
00001000
00000000
00000000
00000100
00000000
00000000
00000000
00000001
00000000
00001000
00000000
00000001
00000000
,
00000010
00000000
00000001
00000000
00000100
00000000
00000010
00010000
00000000
00010000
00001000
00000000
00010000
00000100
00001000
00000000
,
00000100
00000000
00000000
00010000
00000000
00000000
01000000
00000000
00000000
00000000
10000000
00000000
00010000
00000000
10000000
00000000
,
00100000
00000000
10000000
00000000
01000000
00000000
00100000
00001000
00000000
00001000
00010000
00000000
00001000
01000000
00010000
00000000
,
10000000
00000000
00000000
00010000
00000000
00000000
01000000
00000000
00000000
00000000
00100000
00000000
01000000
00000000
02200000
00000000
,
00000000
00000000
00000000
00000000
,
00000000
00000000
00000000
00000000
,
03300000
00000000
00000000
00000000
,
00000001
00000000
00000010
00000000
00000001
00000000
00000000
00000011
00000000
00000000
00000001
00000000
00000100
00000000
00000000
00001100
,
00000000
00000000
00001000
00000000
00010000
00000000
00000000
00000000
00100000
00000000
10000000
00000000
00100000
00000000
00000000
10100000
,
00000000
00000000
10000000
00000000
01000000
00000000
00000000
01010000
00000000
00000000
00020000
00000000
00000000
00000000
00031000
00000000
,
00000100
00000000
00000001
00000000
00001000
00000000
00000000
00001001
00000000
00000000
00000001
00000000
00000010
00000000
00000000
00001010
,
00000000
00001000
00010000
00000000
01000000
10000000
00100000
01000000
,
00001000
00010000
00000100
00001000
00000001
00000010
00000100
00010000
,
00102000
00000000
00000000
01003000
00000000
00000000
00210000
00000000
00000000
01300000
00000000
00000000
10020000
00000000
00000000
01030000
,
00000000
00000000
20010000
00000000
00000000
31000000
00000000
00000000
00201000
00000000
00000000
00310000
00000000
00000000
00010200
00000000
,
00000000
00001300
00000000
00000000
00000021
00000000
00000000
00000130
00000000
00000000
00001002
00000000
00000000
00000103
00000000
00000000
,
00002001
00000000
00000000
00003100
00000000
00000000
00010020
00000000
00000000
00001030
00000000
00000000
00020010
00000000
00000000
00031000
,
00000000
00000000
02001000
00000000
00000000
03010000
00000000
00000000
20020000
00000000
00000000
00000000
00000000
00000000
00000000
00000000
,
00000000
00000000
00000000
00000000
,
00000000
00000000
00000000
00000000
,
00000000
00000000
00000000
30030000
,
00000000
00000000
00000000
00000000
;
#NOTES:
     dance-double:
     :
     Challenge:
     17:
     :
00000000
00000000
00000000
00000000
,
00000000
00000000
00000000
00000000
,
00000000
00000000
00000000
00000000
,
00000000
00000000
00000000
00000000
,
00000000
00000000
00000000
00000000
,
00000000
00000000
00000000
00000000
,
00000001
00001000
00000001
00001000
00000000
00000000
00000010
00000100
00000010
00000100
00000000
00000000
00000001
00001000
00000001
00001000
,
00000001
00000000
00000100
00000000
00000010
00001000
00000000
00000000
00000100
00000000
00001000
00000010
00000000
00000000
00000100
00001000
,
00010000
00000000
00100000
01000000
00000000
00000000
01100000
00000000
00010000
00000000
10000000
00000000
01000000
00100000
00000000
00010000
,
10000000
00000000
01000000
00100000
00000000
00000000
00010000
00100000
00001000
00000000
00010000
00001000
00000000
00000000
00011000
00000000
,
00000100
00000000
00001000
00000100
00001000
00000000
00000001
00000010
00000000
00000001
00000010
00000000
00000100
00000000
00001000
00000010
,
00001000
00000000
00000010
00000100
00000000
00000000
00011000
00000000
00001000
01000000
00001000
01000000
00010000
00100000
00010000
00100000
,
01000000
10000000
01000000
10000000
01000000
00100000
00010000
01000000
00001000
00010000
00001000
00010000
00000100
00001000
00000100
00001000
,
00000100
00000000
00001000
00000000
00000001
00000100
00000000
00000100
00000010
00000000
00000010
00001000
00000000
00000000
00000100
00010000
,
00000100
00000000
00010000
00001000
00000000
00000000
00011000
00000000
01000000
00000000
00100000
00000000
10000000
01000000
00000000
00100000
,
01000000
00000000
10000000
01000000
00000000
00000000
10000000
00100000
01000000
00000000
00001000
00010000
00000000
00000000
00011000
00000000
,
00000010
00000000
00001000
00000000
00000001
00000010
00000000
00000010
00000100
00000000
00000100
00001000
00000000
00000000
00000010
00000100
,
00000010
00000000
00000100
00001000
00000000
00000000
00011000
00000000
00000010
00001000
00000010
00001000
00000100
00010000
00000100
00010000
,
00001000
00100000
00001000
00100000
00010000
01000000
00100000
10000000
01000000
00100000
01000000
00100000
00010000
01000000
00010000
01000000
,
00020000
00000000
00000000
00000000
00000000
00000000
00000000
00000000
00000000
00000000
00000000
00000000
00130000
00000000
00000000
00200000
,
00000000
00000000
00000000
00000000
00301000
00000000
00000000
00002000
00000000
00000000
00000000
00000000
00003010
00000000
00000000
00000020
,
00000000
00000000
00000031
00000100
00000000
00000000
00000001
00000010
,
00000000
00000000
00000100
00010000
00000010
00010000
00000100
00001000
00000100
00010000
00001000
01000000
00001000
00010000
00001000
00100000
,
00020000
00000000
00000000
00000000
00000000
00000000
00000000
00000000
00000000
00000000
00000000
00000000
10030000
00000000
00000000
20000000
,
00000000
00000000
00000000
00000000
31000000
00000000
00000000
02000000
00000000
00000000
00000000
00000000
03100000
00000000
00000000
00200000
,
00000000
00000000
00000000
00000000
00301000
00010000
00000000
00011000
00000000
00000000
00000000
00000000
00000100
00001000
00000000
00001100
,
00000000
00000000
00000010
00000001
00000010
00000100
00001000
00000000
00000010
00000100
00000010
00000000
00001000
00000100
00001000
00000000
,
00000100
00000000
00000000
00010000
00000000
00000000
00000100
00000000
00000000
00010000
00000000
00000000
00001000
00000000
00010000
00000000
00001000
00000000
00010000
00000000
00000000
00001000
00000000
00000000
01000000
00000000
00000000
00010000
00000000
00000000
01000000
00000000
00000000
00100000
00000000
00000000
01000000
00000000
00000000
00000000
00000000
00000000
01100000
00000000
00000000
00000000
00000000
00000000
,
10000000
00100000
10000000
00100000
01000000
00010000
01000000
00000000
00010000
00100000
01000000
00000000
00010000
00000000
00011000
00000000
,
00000100
00001000
00000100
00000010
00000001
00000010
00000001
00000000
00000100
00000010
00000100
00000000
00001000
00000000
00011000
00000000
,
00100000
00010000
00100000
00010000
00100000
01000000
00100000
00000000
00010000
10000000
01000000
00000000
00010000
00000000
00011000
00000000
,
00000010
00001000
00000010
00000100
00000001
00000100
00000001
00000000
00000100
00000010
00001000
00000000
00000100
00010000
00001000
00000000
,
00100000
00010000
10000000
00100000
01000000
00010000
01000000
00000000
00100000
01000000
00001000
00000000
00010000
00000000
00011000
00000000
,
00000010
00001000
00000001
00000010
00000100
00001000
00000100
00000000
00000010
00000100
00010000
00000000
00001000
00000000
00011000
00000000
,
01000000
10000000
01000000
10000000
01000000
00100000
01000000
00000000
00100000
00010000
00100000
00000000
00001000
00000000
00011000
00000000
,
00000100
00000001
00000100
00000001
00000010
00000100
00001000
00000001
00000000
00000001
00001000
00000100
00000010
00000100
00000010
00000000
,
00000010
00000001
00000010
00000100
00001000
00000010
00000100
00000001
00001000
00000100
00010000
00000010
00010000
00001000
01000000
00100000
,
10000000
01000000
00100000
01000000
00100000
00010000
10000000
00100000
01000000
00010000
01000000
00001000
00010000
00001000
00100000
00010000
,
00100000
00001000
00010000
00000100
00001000
00000010
00000100
00000001
00001000
00000100
00001000
00000001
00000100
00000010
00001000
00000100
,
00000010
00000100
00010000
00001000
00100000
00010000
10000000
01000000
10000000
00100000
01000000
00100000
01000000
00010000
00100000
00010000
,
01000000
00001000
00010000
00000010
00010000
00001000
00010000
00000100
00001000
00000100
00000010
00000001
00000010
00000001
00000100
00000010
,
00001000
00000100
00000010
00001000
00010000
00001000
01000000
00010000
01000000
00100000
10000000
01000000
10000000
00010000
00100000
01000000
,
10000000
00010000
01000000
00100000
01000000
00001000
00010000
00001000
00000100
00000010
00001000
00000010
00000100
00000001
00000010
00000100
,
00001000
00000100
00010000
00001000
00010000
00001000
00100000
00010000
00100000
01000000
10000000
00100000
01000000
00010000
00100000
01000000
,
10000000
00010000
01000000
00100000
01000000
00001000
00010000
00001000
00000100
00000010
00001000
00000010
00000100
00000001
00000010
00000100
,
00001000
00000100
00010000
00001000
00010000
00001000
00100000
00010000
00100000
01000000
10000000
00100000
01000000
00010000
00100000
01000000
,
00020000
00000000
00000000
00032000
00000000
00000000
00003010
00000000
00000000
00000000
00000001
00000000
00000100
00000000
00000101
00000000
,
00000010
00000000
00000000
00001000
00000000
00000000
00000010
00000000
00000000
00010000
00000000
00000000
00001000
00000000
00000000
00000000
00000000
00000000
00001000
00000000
00000000
01000000
00000000
00000000
00000000
00000000
00000000
01000000
00000000
00000000
00100000
00000000
00000000
10000000
00000000
00000000
00010000
00000000
01000000
00000000
00010000
00000000
01000000
00000000
00000000
00010000
00000000
00000000
,
00100000
00000000
00000000
00010000
00000000
00000000
00100000
00000000
00000000
00001000
00000000
00000000
00010000
00000000
00000000
00000000
00000000
00000000
00010000
00000000
00000000
00000100
00000000
00000000
00000000
00000000
00000000
00000100
00000000
00000000
00000010
00000000
00000000
00000001
00000000
00000000
00001000
00000000
00000100
00000000
00001000
00000000
00000100
00000000
00000000
00001000
00000000
00000000
,
00000000
00000000
00000000
00000002
,
00000103
00000010
00000100
00000000
00000110
00000000
00000100
00001000
00000000
00001000
00010000
00000000
00011000
00000000
00010000
00100000
,
00000000
00100000
10000000
00000000
10010000
00000000
00000000
00000000
01000000
00100000
01000000
00000000
01100000
00000000
01000000
00010000
,
00000000
00010000
00001000
00000000
00011000
00000000
00001000
00000010
00000000
00000010
00000002
00000000
00000000
00000000
00001003
00000000
,
00000010
00000100
00000010
00000000
00000110
00000000
00000010
00001000
00000000
00001000
00010000
00000000
00011000
00000000
00010000
01000000
,
00000000
01000000
10000000
00000000
10010000
00000000
00000000
00000000
10000000
01000000
10000000
01000000
00100000
00010000
01000000
00010000
,
00100000
00001000
00010000
00001000
00000010
00000100
00000010
00000100
00000010
00000001
00000010
00000001
00000100
00000010
00000100
00000000
,
00000001
00000010
00000100
00000010
00000100
00001000
00000010
00000100
00001000
00000100
00001000
00010000
00001000
00010000
00100000
00010000
,
00100000
10000000
00100000
10000000
01000000
10000000
01000000
00100000
01000000
10000000
00100000
01000000
00100000
10000000
00010000
00100000
,
01000000
00100000
00010000
01000000
00001000
00010000
00000100
00001000
00000100
00010000
00000100
00001000
00000010
00000100
00000010
00001000
,
00000001
00000010
00000100
00001000
00000010
00000100
00000001
00000100
00000010
00010000
00001000
01000000
00100000
10000000
01000000
00100000
,
00010000
01000000
00100000
00000000
00000000
10000000
00000000
00000000
20020000
00000000
00000000
00000000
00000000
00000000
00000000
00000000
,
00000000
00000000
00000000
00000000
,
00000000
00000000
00000000
00000000
,
00000000
00000000
00000000
30030000
,
00000000
00000000
00000000
00000000
;
